osu file format v14

[General]
AudioFilename: Qbqbqb.mp3
AudioLeadIn: 0
PreviewTime: 47090
Countdown: 0
SampleSet: Soft
StackLeniency: 0.7
Mode: 0
LetterboxInBreaks: 1
WidescreenStoryboard: 1

[Editor]
DistanceSpacing: 1
BeatDivisor: 2
GridSize: 8
TimelineZoom: 1

[Metadata]
Title:Qbqbqb Menu Theme
TitleUnicode:Qbqbqb Menu Theme
Artist:Rezoner
ArtistUnicode:Rezoner
Creator:Notester82
Version:Normal
Source:Qbqbqb
Tags:Qbqbqb puzzle video game
BeatmapID:744813
BeatmapSetID:336544

[Difficulty]
HPDrainRate:7
CircleSize:5
OverallDifficulty:6
ApproachRate:5
SliderMultiplier:1.4
SliderTickRate:1

[Events]
//Background and Video events
0,0,"17989-mqhikvij.jpg",0,0
//Break Periods
//Storyboard Layer 0 (Background)
//Storyboard Layer 1 (Fail)
//Storyboard Layer 2 (Pass)
//Storyboard Layer 3 (Foreground)
//Storyboard Sound Samples

[TimingPoints]
1090.19921875,500,4,2,0,40,1,0
15090,-200,4,2,0,40,0,0
23090,-100,4,2,0,40,0,0
47090,-100,4,2,0,40,0,1
79090,-100,4,2,0,40,0,0
103090,-100,4,2,0,40,0,1
135090,-100,4,2,0,40,0,0

[Colours]
Combo1 : 255,159,64
Combo2 : 0,128,255
Combo3 : 128,255,0
Combo4 : 234,21,27
Combo5 : 255,255,102
Combo6 : 184,113,255

[HitObjects]
32,32,7090,5,8,0:0:0:0:
112,32,7840,1,0,0:0:0:0:
144,32,8090,1,8,0:0:0:0:
256,32,8840,1,0,0:0:0:0:
288,32,9090,1,8,0:0:0:0:
384,32,9590,1,8,0:0:0:0:
480,32,10090,1,8,0:0:0:0:
480,112,11090,5,8,0:0:0:0:
384,112,11840,1,0,0:0:0:0:
352,112,12090,1,8,0:0:0:0:
256,112,12840,1,0,0:0:0:0:
224,112,13090,1,8,0:0:0:0:
112,112,13590,1,8,0:0:0:0:
16,112,14090,1,8,0:0:0:0:
48,192,15090,6,2,L|192:192,1,140
256,192,16590,1,0,0:0:0:0:
48,272,17090,2,2,L|192:272,1,140
256,272,18340,1,0,0:0:0:0:
256,272,18590,1,0,0:0:0:0:
256,192,19090,5,0,0:0:0:0:
352,192,19590,1,8,0:0:0:0:
256,192,20090,1,0,0:0:0:0:
256,96,20590,1,8,0:0:0:0:
256,192,21090,1,0,0:0:0:0:
160,192,21590,1,8,0:0:0:0:
256,192,22090,1,8,0:0:0:0:
256,288,22590,1,8,0:0:0:0:
352,288,23090,5,0,0:0:0:0:
352,208,23590,1,0,0:0:0:0:
432,208,24090,1,0,0:0:0:0:
432,176,24340,1,0,0:0:0:0:
432,144,24590,1,4,0:0:0:0:
432,64,25090,1,0,0:0:0:0:
400,64,25340,1,0,0:0:0:0:
368,64,25590,1,4,0:0:0:0:
336,64,25840,1,0,0:0:0:0:
304,64,26090,1,4,0:0:0:0:
304,192,26590,1,8,0:0:0:0:
256,192,27090,6,0,L|96:192,2,140
336,192,28340,1,8,0:0:0:0:
336,192,28590,1,8,0:0:0:0:
336,272,29090,1,0,0:0:0:0:
304,256,29340,1,8,0:0:0:0:
272,240,29590,1,0,0:0:0:0:
240,224,29840,1,8,0:0:0:0:
208,208,30090,1,0,0:0:0:0:
176,192,30340,1,8,0:0:0:0:
144,176,30590,1,8,0:0:0:0:
144,96,31090,6,0,B|256:0|256:0|352:96,1,280
352,176,32590,1,8,0:0:0:0:
352,256,33090,2,0,L|192:256,2,140
352,256,34340,1,8,0:0:0:0:
352,256,34590,1,8,0:0:0:0:
368,96,35090,6,0,B|256:0|256:0|160:96,1,280
160,176,36590,1,8,0:0:0:0:
160,256,37090,2,0,L|320:256,2,140
160,256,38340,1,8,0:0:0:0:
160,256,38590,1,8,0:0:0:0:
160,192,39090,5,0,0:0:0:0:
64,192,39590,1,0,0:0:0:0:
64,96,40090,1,2,0:0:0:0:
160,96,41090,1,0,0:0:0:0:
240,96,41590,1,8,0:0:0:0:
256,96,41840,1,8,0:0:0:0:
272,96,42090,1,2,0:0:0:0:
304,96,43090,2,0,L|304:240,1,140
384,96,44090,2,0,L|384:240,1,140
384,304,45090,1,8,0:0:0:0:
384,304,45590,1,8,0:0:0:0:
384,304,46090,1,8,0:0:0:0:
384,304,46590,1,8,0:0:0:0:
304,304,47090,6,0,L|224:304,1,70
224,256,47590,2,4,L|294:256,1,70
304,208,48090,2,0,L|224:208,1,70
224,160,48590,2,4,L|294:160,1,70
304,112,49090,2,0,L|224:112,1,70
224,64,49590,2,4,L|294:64,4,70
384,48,51090,5,0,0:0:0:0:
384,128,51590,1,8,0:0:0:0:
384,208,52090,1,0,0:0:0:0:
384,208,52340,1,0,0:0:0:0:
384,208,52590,1,8,0:0:0:0:
288,208,53090,1,0,0:0:0:0:
192,208,53590,1,8,0:0:0:0:
112,208,54090,1,0,0:0:0:0:
112,208,54340,1,0,0:0:0:0:
112,208,54590,1,8,0:0:0:0:
112,128,55090,6,2,L|336:128,1,210
320,208,56090,2,2,L|80:208,1,210
112,304,57090,2,2,L|336:304,1,210
384,304,58090,2,8,L|384:256,4,35
384,192,59090,5,0,0:0:0:0:
384,112,59590,1,0,0:0:0:0:
464,112,60090,1,0,0:0:0:0:
464,192,60590,1,8,0:0:0:0:
384,192,61090,1,0,0:0:0:0:
384,112,61590,1,0,0:0:0:0:
384,32,62090,1,0,0:0:0:0:
304,32,62590,1,8,0:0:0:0:
294,48,63090,6,0,L|224:48,1,70
234,96,63590,2,4,L|304:96,1,70
296,152,64090,2,0,L|226:152,1,70
232,200,64590,2,4,L|302:200,1,70
296,248,65090,2,0,L|226:248,1,70
232,296,65590,2,4,L|302:296,4,70
160,304,67090,6,0,B|160:224|160:224|240:224|240:224|240:96|240:96|400:96,1,420
368,128,69090,1,0,0:0:0:0:
416,128,69340,1,0,0:0:0:0:
416,176,69590,1,8,0:0:0:0:
368,176,69840,1,0,0:0:0:0:
368,224,70090,1,0,0:0:0:0:
416,224,70340,1,0,0:0:0:0:
416,256,70590,1,8,0:0:0:0:
256,192,71090,12,0,74590,0:0:0:0:
256,192,75090,5,0,0:0:0:0:
336,192,75590,1,8,0:0:0:0:
256,192,76090,1,0,0:0:0:0:
176,192,76590,1,8,0:0:0:0:
256,192,77090,1,0,0:0:0:0:
256,112,77590,1,8,0:0:0:0:
256,192,78090,1,0,0:0:0:0:
256,192,78340,1,8,0:0:0:0:
256,272,78590,1,8,0:0:0:0:
256,352,79090,6,0,B|368:352|368:352|368:176,1,280
368,112,80590,1,8,0:0:0:0:
304,112,81090,2,0,L|224:112,2,70
304,176,82090,1,0,0:0:0:0:
304,176,82340,1,8,0:0:0:0:
304,176,82590,1,8,0:0:0:0:
368,176,83090,2,0,B|368:32|368:32|224:32,1,280
232,96,84590,1,8,0:0:0:0:
168,96,85090,2,0,B|8:96|8:96|8:224,1,280
8,288,86340,1,0,0:0:0:0:
8,288,86590,1,8,0:0:0:0:
80,288,87090,5,4,0:0:0:0:
80,192,87840,1,0,0:0:0:0:
80,192,88090,1,4,0:0:0:0:
160,192,88840,1,0,0:0:0:0:
160,192,89090,2,2,L|256:192,7,70
256,192,91090,12,4,93090,0:0:0:0:
256,192,95090,5,0,0:0:0:0:
320,192,95840,2,4,B|400:192|400:192|400:272|400:272|480:272,1,210
464,192,97090,1,0,0:0:0:0:
464,112,97840,2,4,B|384:112|384:112|384:32|384:32|320:32,1,210
256,32,99090,1,0,0:0:0:0:
256,32,99590,1,8,0:0:0:0:
256,32,100090,1,0,0:0:0:0:
256,32,100340,1,8,0:0:0:0:
256,32,100590,1,8,0:0:0:0:
256,96,101090,2,2,L|256:192,7,70
192,160,103090,6,8,L|192:80,1,70
192,32,103590,1,0,0:0:0:0:
112,32,103840,2,8,L|112:112,1,70
112,160,104340,1,0,0:0:0:0:
32,160,104590,2,8,L|32:80,1,70
32,32,105090,1,0,0:0:0:0:
112,32,105340,2,8,B|192:32|192:32|192:128|192:128|288:128|288:128|288:224|288:224,1,350
352,208,107090,5,0,0:0:0:0:
352,208,107340,1,8,0:0:0:0:
352,208,107590,1,8,0:0:0:0:
256,208,108090,1,0,0:0:0:0:
256,208,108340,1,8,0:0:0:0:
256,208,108590,1,8,0:0:0:0:
176,208,109090,2,2,L|176:64,3,140
320,160,111090,6,8,L|320:80,1,70
320,32,111590,1,0,0:0:0:0:
400,32,111840,2,8,L|400:112,1,70
400,160,112340,1,0,0:0:0:0:
480,160,112590,2,8,L|480:80,1,70
480,32,113090,1,0,0:0:0:0:
400,32,113340,2,0,B|320:32|320:32|320:128|320:128|224:128|224:128|224:224|224:224,1,350
144,192,115090,2,4,B|0:192|0:192|0:352|0:352|128:352,1,420
128,288,117090,1,4,0:0:0:0:
192,288,117590,1,12,0:0:0:0:
256,288,118090,1,4,0:0:0:0:
320,288,118590,1,12,0:0:0:0:
320,368,119090,6,0,L|240:368,1,70
240,368,119590,2,8,L|160:368,1,70
160,368,120090,2,0,L|80:368,1,70
80,368,120590,2,8,L|0:368,1,70
0,368,121090,2,0,L|0:288,1,70
0,288,121590,2,8,L|0:208,4,70
64,288,123090,5,0,0:0:0:0:
96,288,123340,1,8,0:0:0:0:
128,288,123590,1,8,0:0:0:0:
192,288,124090,1,0,0:0:0:0:
224,288,124340,1,8,0:0:0:0:
256,288,124590,1,8,0:0:0:0:
320,288,125090,1,0,0:0:0:0:
352,288,125340,1,8,0:0:0:0:
384,288,125590,1,8,0:0:0:0:
416,288,126090,1,0,0:0:0:0:
416,288,126340,1,8,0:0:0:0:
416,288,126590,1,0,0:0:0:0:
416,288,126840,1,8,0:0:0:0:
416,288,127090,5,8,0:0:0:0:
384,288,127340,1,0,0:0:0:0:
352,288,127590,1,8,0:0:0:0:
288,288,128090,5,8,0:0:0:0:
256,288,128340,1,0,0:0:0:0:
224,288,128590,1,8,0:0:0:0:
160,288,129090,5,8,0:0:0:0:
128,288,129340,1,0,0:0:0:0:
96,288,129590,1,8,0:0:0:0:
64,272,130090,5,8,0:0:0:0:
64,240,130340,1,0,0:0:0:0:
64,208,130590,1,8,0:0:0:0:
64,160,131090,5,8,0:0:0:0:
96,160,131340,1,0,0:0:0:0:
128,160,131590,1,8,0:0:0:0:
192,160,132090,5,8,0:0:0:0:
224,160,132340,1,0,0:0:0:0:
256,160,132590,1,8,0:0:0:0:
304,160,133090,5,8,0:0:0:0:
336,160,133340,1,0,0:0:0:0:
368,160,133590,1,8,0:0:0:0:
432,160,134090,2,6,L|432:320,2,140
432,96,136090,5,4,0:0:0:0:
352,96,137090,5,0,0:0:0:0:
304,96,137590,1,8,0:0:0:0:
256,96,138090,1,12,0:0:0:0:
256,96,139090,6,0,B|144:192|144:192|256:272,1,280
256,192,140340,1,8,0:0:0:0:
256,192,140590,1,8,0:0:0:0:
256,96,141090,6,0,B|368:192|368:192|260:269,1,280
256,192,142340,1,8,0:0:0:0:
256,192,142590,1,8,0:0:0:0:
320,192,143090,6,8,B|432:192|432:192|432:288|432:288|336:288|336:288|192:288|192:288|48:288|48:288|48:160|48:160,1,700
48,144,146090,1,8,0:0:0:0:
48,96,146340,1,8,0:0:0:0:
48,64,146590,1,8,0:0:0:0:
48,32,146840,1,8,0:0:0:0:
48,0,147090,1,4,0:0:0:0:
112,0,147840,1,0,0:0:0:0:
112,16,148090,1,4,0:0:0:0:
112,32,148840,1,0,0:0:0:0:
256,192,149090,12,4,151090,0:0:0:0:
