osu file format v14

[General]
AudioFilename: Qbqbqb.mp3
AudioLeadIn: 0
PreviewTime: 47090
Countdown: 0
SampleSet: Soft
StackLeniency: 0.7
Mode: 0
LetterboxInBreaks: 1
WidescreenStoryboard: 1

[Editor]
DistanceSpacing: 1
BeatDivisor: 1
GridSize: 16
TimelineZoom: 1

[Metadata]
Title:Qbqbqb Menu Theme
TitleUnicode:Qbqbqb Menu Theme
Artist:Rezoner
ArtistUnicode:Rezoner
Creator:Notester82
Version:Easy
Source:Qbqbqb
Tags:Qbqbqb puzzle video game
BeatmapID:744812
BeatmapSetID:336544

[Difficulty]
HPDrainRate:4
CircleSize:3
OverallDifficulty:4
ApproachRate:4
SliderMultiplier:1.4
SliderTickRate:1

[Events]
//Background and Video events
0,0,"17989-mqhikvij.jpg",0,0
//Break Periods
2,95290,101770
//Storyboard Layer 0 (Background)
//Storyboard Layer 1 (Fail)
//Storyboard Layer 2 (Pass)
//Storyboard Layer 3 (Foreground)
//Storyboard Sound Samples

[TimingPoints]
1090.19921875,500,4,2,0,40,1,0
47090,-100,4,2,0,40,0,1
79090,-100,4,2,0,40,0,0
103090,-100,4,2,0,40,0,1
135090,-100,4,2,0,40,0,0

[Colours]
Combo1 : 255,159,64
Combo2 : 0,128,255
Combo3 : 128,255,0
Combo4 : 234,21,27
Combo5 : 255,255,102
Combo6 : 184,113,255

[HitObjects]
256,192,7090,5,0,0:0:0:0:
368,192,9090,1,0,0:0:0:0:
256,192,11090,1,0,0:0:0:0:
144,192,13090,1,0,0:0:0:0:
144,80,15090,5,0,0:0:0:0:
256,80,16090,1,8,0:0:0:0:
384,80,17090,2,0,L|384:224,3,140
368,304,19090,5,0,0:0:0:0:
256,304,20090,1,8,0:0:0:0:
128,304,21090,2,0,L|128:160,3,140
224,160,23090,5,0,0:0:0:0:
336,160,24090,1,0,0:0:0:0:
336,256,25090,1,8,0:0:0:0:
336,256,25590,1,8,0:0:0:0:
336,256,26090,1,8,0:0:0:0:
256,256,27090,6,4,B|168:144|168:144|80:272,1,280
90,257,29090,2,4,B|168:144|168:144|256:256,1,280
368,256,31090,5,0,0:0:0:0:
368,144,32090,1,2,0:0:0:0:
256,144,33090,1,0,0:0:0:0:
256,256,34090,1,2,0:0:0:0:
144,256,35090,5,0,0:0:0:0:
144,144,36090,1,2,0:0:0:0:
256,144,37090,1,0,0:0:0:0:
256,256,38090,1,2,0:0:0:0:
256,352,39090,6,0,B|400:352|400:352|400:192,1,280
400,144,40590,1,8,0:0:0:0:
400,64,41090,2,0,B|256:64|256:64|256:208,1,280
256,272,42590,1,8,0:0:0:0:
192,272,43090,5,0,0:0:0:0:
112,272,44090,1,0,0:0:0:0:
112,208,45090,1,8,0:0:0:0:
112,160,45590,1,8,0:0:0:0:
112,112,46090,1,8,0:0:0:0:
112,64,46590,1,12,0:0:0:0:
176,64,47090,6,4,L|256:64,2,70
176,144,48090,2,4,L|256:144,2,70
176,224,49090,2,8,L|256:224,6,70
320,224,51090,1,0,0:0:0:0:
320,144,51590,1,8,0:0:0:0:
400,144,52090,1,0,0:0:0:0:
400,224,52590,1,8,0:0:0:0:
400,304,53090,1,0,0:0:0:0:
320,304,53590,1,8,0:0:0:0:
320,224,54090,1,0,0:0:0:0:
240,224,54590,1,8,0:0:0:0:
160,224,55090,6,4,B|112:176|112:176|48:240,1,140
64,288,56090,2,4,B|112:336|112:336|176:272,1,140
224,288,57090,2,8,B|272:336|272:336|336:272,3,140
320,208,59090,1,0,0:0:0:0:
240,208,59590,1,8,0:0:0:0:
160,208,60090,1,0,0:0:0:0:
160,128,60590,1,8,0:0:0:0:
240,128,61090,1,0,0:0:0:0:
320,128,61590,1,8,0:0:0:0:
320,48,62090,1,0,0:0:0:0:
240,48,62590,1,8,0:0:0:0:
160,48,63090,6,4,B|160:128|160:128|256:128,1,140
288,128,64090,2,4,B|288:208|288:208|368:208,1,140
416,208,65090,2,8,B|416:288|416:288|496:288,3,140
400,288,67090,5,0,0:0:0:0:
320,288,67590,1,0,0:0:0:0:
240,288,68090,2,8,L|240:192,2,70
160,288,69090,1,0,0:0:0:0:
80,288,69590,1,0,0:0:0:0:
0,288,70090,2,8,L|0:192,2,70
80,288,71090,5,0,0:0:0:0:
208,288,71590,1,0,0:0:0:0:
208,160,72090,1,0,0:0:0:0:
80,160,72590,1,0,0:0:0:0:
144,224,73090,1,4,0:0:0:0:
240,224,74090,1,2,0:0:0:0:
336,224,74590,1,4,0:0:0:0:
256,192,75090,12,0,77090,0:0:0:0:
176,32,79090,5,8,0:0:0:0:
336,32,80090,1,8,0:0:0:0:
336,128,81090,1,8,0:0:0:0:
256,128,81590,1,2,0:0:0:0:
176,128,82090,1,8,0:0:0:0:
176,240,83090,5,8,0:0:0:0:
336,240,84090,1,8,0:0:0:0:
336,336,85090,1,8,0:0:0:0:
256,336,85590,1,2,0:0:0:0:
176,336,86090,1,8,0:0:0:0:
0,192,87090,6,8,L|320:192,1,280
368,192,89090,2,4,L|368:32,1,140
288,52,90090,2,4,L|288:192,1,140
256,192,91090,12,2,95090,0:0:0:0:
0,192,103090,5,0,0:0:0:0:
96,192,103590,1,8,0:0:0:0:
192,192,104090,1,0,0:0:0:0:
288,192,104590,1,8,0:0:0:0:
384,192,105090,1,0,0:0:0:0:
480,192,105590,1,8,0:0:0:0:
480,288,106090,1,8,0:0:0:0:
480,288,106340,1,8,0:0:0:0:
480,288,106590,1,8,0:0:0:0:
384,272,107090,6,0,B|304:272|304:272|304:176|304:176|160:176,1,280
128,176,108590,1,8,0:0:0:0:
128,272,109090,6,0,B|208:272|208:272|208:176|208:176|352:176,1,280
384,176,110590,1,8,0:0:0:0:
496,192,111090,5,0,0:0:0:0:
400,192,111590,1,8,0:0:0:0:
304,192,112090,1,0,0:0:0:0:
208,192,112590,1,8,0:0:0:0:
112,192,113090,1,0,0:0:0:0:
16,192,113590,1,8,0:0:0:0:
16,112,114090,1,8,0:0:0:0:
16,112,114340,1,8,0:0:0:0:
16,112,114590,1,8,0:0:0:0:
96,112,115090,6,2,B|256:112|256:112|256:272,2,280
96,192,117590,1,8,0:0:0:0:
176,192,118090,1,8,0:0:0:0:
256,192,118590,1,8,0:0:0:0:
400,192,119090,6,0,L|400:48,2,140
400,272,120590,1,4,0:0:0:0:
304,192,121090,2,0,L|304:48,2,140
304,272,122590,1,4,0:0:0:0:
208,192,123090,2,0,L|208:48,2,140
208,272,124590,1,4,0:0:0:0:
112,192,125090,2,0,L|112:48,2,140
112,272,126590,1,4,0:0:0:0:
192,272,127090,5,0,0:0:0:0:
256,272,127590,1,8,0:0:0:0:
320,272,128090,1,0,0:0:0:0:
320,208,128590,1,8,0:0:0:0:
256,208,129090,1,0,0:0:0:0:
192,208,129590,1,8,0:0:0:0:
192,144,130090,1,0,0:0:0:0:
256,144,130590,1,8,0:0:0:0:
320,144,131090,5,0,0:0:0:0:
384,144,131590,1,8,0:0:0:0:
384,208,132090,5,0,0:0:0:0:
320,208,132590,1,8,0:0:0:0:
320,144,133090,5,8,0:0:0:0:
320,80,133590,5,8,0:0:0:0:
384,80,134090,5,8,0:0:0:0:
384,144,134590,5,8,0:0:0:0:
384,208,135090,5,2,0:0:0:0:
176,272,136090,1,2,0:0:0:0:
176,128,137090,1,2,0:0:0:0:
320,128,138090,1,2,0:0:0:0:
320,192,139090,6,8,L|160:192,2,140
400,192,140590,1,4,0:0:0:0:
320,272,141090,6,8,L|160:272,2,140
400,272,142590,1,4,0:0:0:0:
400,192,143090,5,0,0:0:0:0:
400,112,144090,1,8,0:0:0:0:
320,112,145090,1,0,0:0:0:0:
256,112,146090,1,8,0:0:0:0:
256,192,147090,1,8,0:0:0:0:
256,192,147340,12,4,150590,0:0:0:0:
