osu file format v14

[General]
AudioFilename: [Glitch Hop] - Rezonate - Rebirth (feat. Ashley Apollodor) [Monstercat EP Release].mp3
AudioLeadIn: 0
PreviewTime: -1
Countdown: 1
SampleSet: Normal
StackLeniency: 0.7
Mode: 3
LetterboxInBreaks: 1
SpecialStyle: 0
WidescreenStoryboard: 1

[Editor]
DistanceSpacing: 0.8
BeatDivisor: 8
GridSize: 8
TimelineZoom: 1.5

[Metadata]
Title:Rebirth (feat. Ashley Apollodor)
TitleUnicode:Rebirth (feat. Ashley Apollodor)
Artist:Rezonate
ArtistUnicode:Rezonate
Creator:Gangsterkill
Version:4k HD
Source:Rebirth EP
Tags:Rebirt EP Monstercat 022 Rezonate Ashely Apollodor
BeatmapID:683689
BeatmapSetID:305257

[Difficulty]
HPDrainRate:8
CircleSize:4
OverallDifficulty:7
ApproachRate:5
SliderMultiplier:1.4
SliderTickRate:1

[Events]
//Background and Video events
//Break Periods
//Storyboard Layer 0 (Background)
//Storyboard Layer 1 (Fail)
//Storyboard Layer 2 (Pass)
//Storyboard Layer 3 (Foreground)
//Storyboard Sound Samples

[TimingPoints]
72,582.46427184466,4,1,0,29,1,0
10580,-1000,4,1,0,100,0,0
10725,-100,4,1,0,100,0,0
11017,-1000,4,1,0,100,0,0
11171,-100,4,1,0,100,0,0
111905,-133.333333333333,4,1,0,100,0,0

[HitObjects]
448,192,72,5,0,0:0:0:0:
320,192,72,1,0,0:0:0:0:
64,192,72,128,0,508:0:0:0:0:
192,192,508,1,0,0:0:0:0:
448,192,945,1,0,0:0:0:0:
64,192,1236,128,0,1673:0:0:0:0:
192,192,1236,1,0,0:0:0:0:
320,192,1236,1,0,0:0:0:0:
448,192,1673,1,0,0:0:0:0:
448,192,2401,128,0,2693:0:0:0:0:
320,192,2693,128,0,2838:0:0:0:0:
192,192,2838,128,0,3129:0:0:0:0:
64,192,3129,1,0,0:0:0:0:
320,192,3421,1,0,0:0:0:0:
448,192,3421,1,0,0:0:0:0:
192,192,3421,128,0,4440:0:0:0:0:
448,192,4440,1,0,0:0:0:0:
320,192,4440,1,0,0:0:0:0:
64,192,4731,1,0,0:0:0:0:
192,192,4731,128,0,5168:0:0:0:0:
448,192,5168,1,0,0:0:0:0:
320,192,5168,128,0,5605:0:0:0:0:
192,192,5605,1,0,0:0:0:0:
64,192,5896,1,0,0:0:0:0:
320,192,5896,1,0,0:0:0:0:
448,192,5896,1,0,0:0:0:0:
448,192,7061,1,0,0:0:0:0:
320,192,7061,1,0,0:0:0:0:
192,192,7061,1,0,0:0:0:0:
448,192,7498,1,0,0:0:0:0:
320,192,7498,1,0,0:0:0:0:
64,192,7498,1,0,0:0:0:0:
64,192,7935,1,0,0:0:0:0:
192,192,7935,1,0,0:0:0:0:
320,192,7935,1,0,0:0:0:0:
448,192,8226,128,0,8663:0:0:0:0:
192,192,8226,128,0,8663:0:0:0:0:
64,192,8663,1,0,0:0:0:0:
320,192,8663,128,0,9100:0:0:0:0:
64,192,9391,1,0,0:0:0:0:
192,192,9391,1,0,0:0:0:0:
320,192,9391,1,0,0:0:0:0:
448,192,9973,1,0,0:0:0:0:
320,192,10265,1,0,0:0:0:0:
64,192,10556,1,0,0:0:0:0:
192,192,10556,1,0,0:0:0:0:
320,192,10556,1,0,0:0:0:0:
320,192,10993,1,0,0:0:0:0:
64,192,10993,1,0,0:0:0:0:
448,192,10993,1,0,0:0:0:0:
448,192,11721,128,0,12158:0:0:0:0:
320,192,11721,1,0,0:0:0:0:
192,192,11721,1,0,0:0:0:0:
64,192,12012,1,0,0:0:0:0:
192,192,12158,1,0,0:0:0:0:
64,192,12449,1,0,0:0:0:0:
64,192,12740,1,0,0:0:0:0:
320,192,12740,1,0,0:0:0:0:
448,192,12740,128,0,13759:0:0:0:0:
448,192,14051,1,0,0:0:0:0:
320,192,14051,1,0,0:0:0:0:
64,192,14051,1,0,0:0:0:0:
64,192,14487,1,0,0:0:0:0:
192,192,14487,1,0,0:0:0:0:
192,192,14924,1,0,0:0:0:0:
320,192,14924,1,0,0:0:0:0:
448,192,15216,1,0,0:0:0:0:
64,192,15216,1,0,0:0:0:0:
320,192,15507,1,0,0:0:0:0:
192,192,15652,1,0,0:0:0:0:
64,192,15798,1,0,0:0:0:0:
192,192,15944,128,0,16380:0:0:0:0:
320,192,16380,1,0,0:0:0:0:
448,192,16380,1,0,0:0:0:0:
320,192,16817,1,0,0:0:0:0:
64,192,16817,1,0,0:0:0:0:
448,192,17254,1,0,0:0:0:0:
64,192,17545,128,0,18710:0:0:0:0:
320,192,17545,128,0,18710:0:0:0:0:
192,192,19002,1,0,0:0:0:0:
320,192,19293,1,0,0:0:0:0:
448,192,19293,1,0,0:0:0:0:
192,192,19584,1,0,0:0:0:0:
448,192,19875,1,0,0:0:0:0:
320,192,19875,1,0,0:0:0:0:
64,192,19875,1,0,0:0:0:0:
192,192,20167,1,0,0:0:0:0:
64,192,20458,1,0,0:0:0:0:
192,192,20458,1,0,0:0:0:0:
320,192,20749,1,0,0:0:0:0:
448,192,21040,1,0,0:0:0:0:
192,192,21040,1,0,0:0:0:0:
320,192,21331,1,0,0:0:0:0:
192,192,21477,1,0,0:0:0:0:
64,192,21477,1,0,0:0:0:0:
320,192,21768,1,0,0:0:0:0:
448,192,21768,1,0,0:0:0:0:
192,192,22060,1,0,0:0:0:0:
448,192,22060,1,0,0:0:0:0:
64,192,22205,1,0,0:0:0:0:
192,192,22496,1,0,0:0:0:0:
320,192,22496,1,0,0:0:0:0:
448,192,22788,1,0,0:0:0:0:
320,192,22933,1,0,0:0:0:0:
192,192,23079,1,0,0:0:0:0:
64,192,23224,1,0,0:0:0:0:
320,192,23370,1,0,0:0:0:0:
448,192,23370,1,0,0:0:0:0:
192,192,23661,1,0,0:0:0:0:
64,192,23953,1,0,0:0:0:0:
320,192,24098,1,0,0:0:0:0:
192,192,24244,1,0,0:0:0:0:
448,192,24389,1,0,0:0:0:0:
192,192,24535,1,0,0:0:0:0:
64,192,24535,1,0,0:0:0:0:
320,192,24826,1,0,0:0:0:0:
448,192,25117,1,0,0:0:0:0:
320,192,25263,1,0,0:0:0:0:
192,192,25409,1,0,0:0:0:0:
448,192,25554,1,0,0:0:0:0:
64,192,25700,1,0,0:0:0:0:
192,192,25700,1,0,0:0:0:0:
320,192,25991,1,0,0:0:0:0:
192,192,26282,1,0,0:0:0:0:
320,192,26282,1,0,0:0:0:0:
448,192,26574,1,0,0:0:0:0:
320,192,26719,1,0,0:0:0:0:
192,192,26865,1,0,0:0:0:0:
64,192,26865,1,0,0:0:0:0:
320,192,27156,1,0,0:0:0:0:
448,192,27447,1,0,0:0:0:0:
64,192,27447,1,0,0:0:0:0:
192,192,27739,1,0,0:0:0:0:
64,192,28030,1,0,0:0:0:0:
192,192,28030,1,0,0:0:0:0:
320,192,28321,1,0,0:0:0:0:
192,192,28612,1,0,0:0:0:0:
448,192,28612,1,0,0:0:0:0:
320,192,28903,1,0,0:0:0:0:
64,192,29195,1,0,0:0:0:0:
448,192,29195,1,0,0:0:0:0:
320,192,29486,1,0,0:0:0:0:
192,192,29777,1,0,0:0:0:0:
448,192,29777,1,0,0:0:0:0:
320,192,30068,1,0,0:0:0:0:
448,192,30360,1,0,0:0:0:0:
64,192,30360,1,0,0:0:0:0:
320,192,30651,1,0,0:0:0:0:
192,192,30651,1,0,0:0:0:0:
64,192,30796,1,0,0:0:0:0:
448,192,30796,1,0,0:0:0:0:
320,192,30796,1,0,0:0:0:0:
320,192,31088,1,0,0:0:0:0:
192,192,31088,1,0,0:0:0:0:
64,192,31088,1,0,0:0:0:0:
192,192,31379,1,0,0:0:0:0:
448,192,31525,1,0,0:0:0:0:
64,192,31525,1,0,0:0:0:0:
320,192,31816,1,0,0:0:0:0:
448,192,32107,1,0,0:0:0:0:
448,192,32253,1,0,0:0:0:0:
320,192,32398,1,0,0:0:0:0:
192,192,32398,1,0,0:0:0:0:
64,192,32544,1,0,0:0:0:0:
448,192,32689,1,0,0:0:0:0:
320,192,32981,1,0,0:0:0:0:
192,192,33272,1,0,0:0:0:0:
448,192,33272,1,0,0:0:0:0:
320,192,33418,1,0,0:0:0:0:
448,192,33563,1,0,0:0:0:0:
192,192,33563,1,0,0:0:0:0:
320,192,33709,1,0,0:0:0:0:
64,192,33854,1,0,0:0:0:0:
448,192,33854,1,0,0:0:0:0:
320,192,34146,1,0,0:0:0:0:
320,192,34437,1,0,0:0:0:0:
64,192,34437,1,0,0:0:0:0:
448,192,34583,1,0,0:0:0:0:
320,192,34728,1,0,0:0:0:0:
192,192,34874,1,0,0:0:0:0:
64,192,35019,1,0,0:0:0:0:
192,192,35019,1,0,0:0:0:0:
320,192,35019,1,0,0:0:0:0:
320,192,35311,1,0,0:0:0:0:
192,192,35602,1,0,0:0:0:0:
320,192,35602,1,0,0:0:0:0:
448,192,35602,1,0,0:0:0:0:
192,192,35893,1,0,0:0:0:0:
64,192,35893,1,0,0:0:0:0:
448,192,35893,1,0,0:0:0:0:
64,192,36184,1,0,0:0:0:0:
448,192,36184,1,0,0:0:0:0:
192,192,36476,1,0,0:0:0:0:
320,192,36476,1,0,0:0:0:0:
64,192,36767,1,0,0:0:0:0:
448,192,36767,1,0,0:0:0:0:
320,192,37058,1,0,0:0:0:0:
448,192,37349,1,0,0:0:0:0:
64,192,37349,1,0,0:0:0:0:
192,192,37349,1,0,0:0:0:0:
64,192,37640,1,0,0:0:0:0:
192,192,37932,1,0,0:0:0:0:
448,192,37932,1,0,0:0:0:0:
320,192,38223,1,0,0:0:0:0:
64,192,38514,1,0,0:0:0:0:
448,192,38805,1,0,0:0:0:0:
192,192,39097,1,0,0:0:0:0:
448,192,39097,1,0,0:0:0:0:
320,192,39533,1,0,0:0:0:0:
192,192,39679,128,0,39970:0:0:0:0:
448,192,39970,128,0,40116:0:0:0:0:
64,192,40116,128,0,40262:0:0:0:0:
320,192,40262,128,0,40407:0:0:0:0:
320,192,40553,1,0,0:0:0:0:
320,192,40698,1,0,0:0:0:0:
192,192,40844,1,0,0:0:0:0:
448,192,40844,1,0,0:0:0:0:
320,192,41135,1,0,0:0:0:0:
448,192,41426,1,0,0:0:0:0:
64,192,41426,1,0,0:0:0:0:
320,192,41572,1,0,0:0:0:0:
320,192,41718,1,0,0:0:0:0:
192,192,41718,1,0,0:0:0:0:
192,192,41863,1,0,0:0:0:0:
448,192,42009,1,0,0:0:0:0:
64,192,42009,1,0,0:0:0:0:
320,192,42300,1,0,0:0:0:0:
192,192,42591,1,0,0:0:0:0:
448,192,42737,1,0,0:0:0:0:
64,192,42883,1,0,0:0:0:0:
320,192,43028,1,0,0:0:0:0:
192,192,43174,1,0,0:0:0:0:
320,192,43174,1,0,0:0:0:0:
448,192,43465,1,0,0:0:0:0:
64,192,43465,1,0,0:0:0:0:
192,192,43756,1,0,0:0:0:0:
448,192,43756,1,0,0:0:0:0:
320,192,43902,1,0,0:0:0:0:
64,192,43902,1,0,0:0:0:0:
192,192,44048,1,0,0:0:0:0:
448,192,44048,1,0,0:0:0:0:
320,192,44193,1,0,0:0:0:0:
64,192,44193,1,0,0:0:0:0:
320,192,44339,1,0,0:0:0:0:
192,192,44339,1,0,0:0:0:0:
448,192,44339,1,0,0:0:0:0:
192,192,44630,1,0,0:0:0:0:
192,192,44921,1,0,0:0:0:0:
320,192,44921,1,0,0:0:0:0:
448,192,45212,1,0,0:0:0:0:
320,192,45358,1,0,0:0:0:0:
192,192,45504,1,0,0:0:0:0:
64,192,45504,1,0,0:0:0:0:
320,192,45795,1,0,0:0:0:0:
192,192,46086,1,0,0:0:0:0:
64,192,46086,1,0,0:0:0:0:
448,192,46377,1,0,0:0:0:0:
192,192,46669,1,0,0:0:0:0:
320,192,46669,1,0,0:0:0:0:
192,192,46960,1,0,0:0:0:0:
320,192,47251,1,0,0:0:0:0:
448,192,47251,1,0,0:0:0:0:
64,192,47542,1,0,0:0:0:0:
448,192,47834,128,0,48270:0:0:0:0:
192,192,47834,1,0,0:0:0:0:
64,192,48270,128,0,48707:0:0:0:0:
320,192,48270,1,0,0:0:0:0:
192,192,48707,1,0,0:0:0:0:
448,192,48998,128,0,49290:0:0:0:0:
192,192,48998,1,0,0:0:0:0:
320,192,49290,1,0,0:0:0:0:
192,192,49435,1,0,0:0:0:0:
320,192,49727,1,0,0:0:0:0:
64,192,50018,128,0,50746:0:0:0:0:
192,192,50018,1,0,0:0:0:0:
448,192,50018,1,0,0:0:0:0:
192,192,50892,1,0,0:0:0:0:
320,192,51037,1,0,0:0:0:0:
192,192,51183,1,0,0:0:0:0:
448,192,51328,1,0,0:0:0:0:
320,192,51328,1,0,0:0:0:0:
192,192,51620,1,0,0:0:0:0:
64,192,51911,1,0,0:0:0:0:
192,192,51911,1,0,0:0:0:0:
320,192,52056,1,0,0:0:0:0:
448,192,52056,1,0,0:0:0:0:
192,192,52202,1,0,0:0:0:0:
320,192,52202,1,0,0:0:0:0:
64,192,52348,1,0,0:0:0:0:
192,192,52348,1,0,0:0:0:0:
448,192,52493,128,0,53076:0:0:0:0:
192,192,52785,1,0,0:0:0:0:
320,192,53076,1,0,0:0:0:0:
64,192,53076,1,0,0:0:0:0:
192,192,53221,1,0,0:0:0:0:
320,192,53367,1,0,0:0:0:0:
448,192,53513,1,0,0:0:0:0:
64,192,53658,128,0,54241:0:0:0:0:
320,192,53658,1,0,0:0:0:0:
192,192,53949,1,0,0:0:0:0:
448,192,54241,1,0,0:0:0:0:
320,192,54241,128,0,54823:0:0:0:0:
192,192,54532,1,0,0:0:0:0:
192,192,54823,128,0,55406:0:0:0:0:
320,192,55114,1,0,0:0:0:0:
448,192,55406,128,0,55988:0:0:0:0:
64,192,55697,1,0,0:0:0:0:
192,192,55697,1,0,0:0:0:0:
64,192,55988,128,0,57735:0:0:0:0:
192,192,55988,1,0,0:0:0:0:
192,192,56571,1,0,0:0:0:0:
320,192,56571,1,0,0:0:0:0:
320,192,56862,1,0,0:0:0:0:
320,192,57153,128,0,57735:0:0:0:0:
448,192,57153,128,0,57735:0:0:0:0:
192,192,57735,128,0,58027:0:0:0:0:
64,192,58172,1,0,0:0:0:0:
192,192,58318,1,0,0:0:0:0:
320,192,58609,1,0,0:0:0:0:
448,192,58609,1,0,0:0:0:0:
64,192,58900,1,0,0:0:0:0:
320,192,59192,1,0,0:0:0:0:
448,192,59192,1,0,0:0:0:0:
192,192,59483,1,0,0:0:0:0:
192,192,59774,1,0,0:0:0:0:
64,192,59774,1,0,0:0:0:0:
320,192,60065,128,0,60648:0:0:0:0:
64,192,60648,1,0,0:0:0:0:
448,192,60648,1,0,0:0:0:0:
320,192,60939,1,0,0:0:0:0:
64,192,61230,128,0,61521:0:0:0:0:
192,192,61521,1,0,0:0:0:0:
320,192,61813,128,0,62104:0:0:0:0:
448,192,62104,1,0,0:0:0:0:
192,192,62395,128,0,62686:0:0:0:0:
320,192,62395,1,0,0:0:0:0:
64,192,62686,128,0,62832:0:0:0:0:
192,192,62832,128,0,63269:0:0:0:0:
448,192,62832,1,0,0:0:0:0:
448,192,63269,1,0,0:0:0:0:
64,192,63560,1,0,0:0:0:0:
192,192,63560,1,0,0:0:0:0:
320,192,63851,1,0,0:0:0:0:
320,192,64143,1,0,0:0:0:0:
192,192,64143,1,0,0:0:0:0:
192,192,64434,1,0,0:0:0:0:
448,192,64579,1,0,0:0:0:0:
320,192,64725,1,0,0:0:0:0:
192,192,64871,1,0,0:0:0:0:
64,192,65016,1,0,0:0:0:0:
192,192,65162,1,0,0:0:0:0:
320,192,65307,1,0,0:0:0:0:
448,192,65307,1,0,0:0:0:0:
64,192,65307,128,0,65890:0:0:0:0:
192,192,65890,1,0,0:0:0:0:
320,192,66181,1,0,0:0:0:0:
192,192,66472,1,0,0:0:0:0:
64,192,66472,1,0,0:0:0:0:
320,192,66764,1,0,0:0:0:0:
448,192,66764,1,0,0:0:0:0:
64,192,67055,1,0,0:0:0:0:
320,192,67055,1,0,0:0:0:0:
192,192,67346,1,0,0:0:0:0:
448,192,67346,1,0,0:0:0:0:
320,192,67492,1,0,0:0:0:0:
64,192,67492,1,0,0:0:0:0:
64,192,67929,1,0,0:0:0:0:
192,192,68220,1,0,0:0:0:0:
320,192,68220,1,0,0:0:0:0:
448,192,68511,1,0,0:0:0:0:
192,192,68802,1,0,0:0:0:0:
320,192,68802,1,0,0:0:0:0:
64,192,69094,1,0,0:0:0:0:
320,192,69385,1,0,0:0:0:0:
448,192,69385,1,0,0:0:0:0:
192,192,69676,1,0,0:0:0:0:
64,192,69967,1,0,0:0:0:0:
320,192,69967,1,0,0:0:0:0:
448,192,69967,1,0,0:0:0:0:
320,192,70258,1,0,0:0:0:0:
320,192,70550,1,0,0:0:0:0:
192,192,70550,1,0,0:0:0:0:
192,192,70841,1,0,0:0:0:0:
320,192,70987,1,0,0:0:0:0:
64,192,71132,1,0,0:0:0:0:
448,192,71132,1,0,0:0:0:0:
320,192,71423,1,0,0:0:0:0:
192,192,71569,1,0,0:0:0:0:
64,192,71715,1,0,0:0:0:0:
448,192,71715,1,0,0:0:0:0:
192,192,72006,1,0,0:0:0:0:
320,192,72006,1,0,0:0:0:0:
448,192,72297,1,0,0:0:0:0:
64,192,72297,1,0,0:0:0:0:
192,192,72588,1,0,0:0:0:0:
320,192,72880,1,0,0:0:0:0:
448,192,72880,1,0,0:0:0:0:
448,192,73171,1,0,0:0:0:0:
320,192,73462,1,0,0:0:0:0:
192,192,73462,1,0,0:0:0:0:
64,192,73753,1,0,0:0:0:0:
448,192,74044,1,0,0:0:0:0:
320,192,74044,1,0,0:0:0:0:
64,192,74336,1,0,0:0:0:0:
192,192,74627,1,0,0:0:0:0:
320,192,74627,1,0,0:0:0:0:
64,192,74627,1,0,0:0:0:0:
448,192,74627,128,0,76957:0:0:0:0:
192,192,74918,1,0,0:0:0:0:
320,192,75209,1,0,0:0:0:0:
192,192,75209,1,0,0:0:0:0:
64,192,75501,1,0,0:0:0:0:
192,192,75792,1,0,0:0:0:0:
64,192,75792,1,0,0:0:0:0:
192,192,76083,1,0,0:0:0:0:
320,192,76374,1,0,0:0:0:0:
64,192,76374,1,0,0:0:0:0:
192,192,76666,1,0,0:0:0:0:
64,192,76957,128,0,79287:0:0:0:0:
192,192,76957,1,0,0:0:0:0:
448,192,77248,1,0,0:0:0:0:
320,192,77539,1,0,0:0:0:0:
192,192,77539,1,0,0:0:0:0:
320,192,77830,1,0,0:0:0:0:
448,192,78122,1,0,0:0:0:0:
192,192,78122,1,0,0:0:0:0:
448,192,78413,1,0,0:0:0:0:
192,192,78704,1,0,0:0:0:0:
448,192,78704,1,0,0:0:0:0:
320,192,78995,1,0,0:0:0:0:
192,192,79287,128,0,81616:0:0:0:0:
448,192,79287,1,0,0:0:0:0:
64,192,79578,1,0,0:0:0:0:
320,192,79869,1,0,0:0:0:0:
448,192,79869,1,0,0:0:0:0:
64,192,80160,1,0,0:0:0:0:
64,192,80452,1,0,0:0:0:0:
448,192,80452,1,0,0:0:0:0:
448,192,80743,1,0,0:0:0:0:
64,192,81034,1,0,0:0:0:0:
320,192,81034,1,0,0:0:0:0:
448,192,81325,1,0,0:0:0:0:
448,192,81616,128,0,83946:0:0:0:0:
192,192,81908,1,0,0:0:0:0:
320,192,82199,1,0,0:0:0:0:
192,192,82199,1,0,0:0:0:0:
192,192,82490,1,0,0:0:0:0:
320,192,82781,1,0,0:0:0:0:
64,192,82781,1,0,0:0:0:0:
64,192,83073,1,0,0:0:0:0:
192,192,83218,1,0,0:0:0:0:
320,192,83364,1,0,0:0:0:0:
192,192,83510,1,0,0:0:0:0:
192,192,83801,1,0,0:0:0:0:
64,192,83946,128,0,86276:0:0:0:0:
192,192,83946,1,0,0:0:0:0:
320,192,84238,1,0,0:0:0:0:
448,192,84238,1,0,0:0:0:0:
320,192,84529,1,0,0:0:0:0:
320,192,84820,1,0,0:0:0:0:
192,192,84820,1,0,0:0:0:0:
448,192,85111,1,0,0:0:0:0:
448,192,85403,1,0,0:0:0:0:
192,192,85403,1,0,0:0:0:0:
192,192,85694,1,0,0:0:0:0:
320,192,85694,1,0,0:0:0:0:
448,192,85694,1,0,0:0:0:0:
320,192,85985,1,0,0:0:0:0:
448,192,86131,1,0,0:0:0:0:
192,192,86276,128,0,88606:0:0:0:0:
320,192,86276,1,0,0:0:0:0:
448,192,86567,1,0,0:0:0:0:
64,192,86567,1,0,0:0:0:0:
320,192,86859,1,0,0:0:0:0:
64,192,87150,1,0,0:0:0:0:
448,192,87150,1,0,0:0:0:0:
64,192,87441,1,0,0:0:0:0:
320,192,87732,1,0,0:0:0:0:
448,192,87732,1,0,0:0:0:0:
320,192,88024,1,0,0:0:0:0:
64,192,88315,1,0,0:0:0:0:
448,192,88315,1,0,0:0:0:0:
448,192,88606,128,0,90936:0:0:0:0:
320,192,88606,1,0,0:0:0:0:
64,192,88897,1,0,0:0:0:0:
320,192,89189,1,0,0:0:0:0:
192,192,89189,1,0,0:0:0:0:
192,192,89480,1,0,0:0:0:0:
64,192,89771,1,0,0:0:0:0:
320,192,89771,1,0,0:0:0:0:
320,192,90062,1,0,0:0:0:0:
320,192,90208,1,0,0:0:0:0:
64,192,90499,1,0,0:0:0:0:
64,192,90645,1,0,0:0:0:0:
192,192,90790,1,0,0:0:0:0:
64,192,90936,128,0,93120:0:0:0:0:
192,192,90936,1,0,0:0:0:0:
320,192,91227,1,0,0:0:0:0:
448,192,91518,1,0,0:0:0:0:
192,192,91518,1,0,0:0:0:0:
320,192,91810,1,0,0:0:0:0:
192,192,92101,1,0,0:0:0:0:
320,192,92101,1,0,0:0:0:0:
448,192,92392,1,0,0:0:0:0:
448,192,92683,1,0,0:0:0:0:
320,192,92683,1,0,0:0:0:0:
320,192,92975,1,0,0:0:0:0:
192,192,93120,128,0,95596:0:0:0:0:
320,192,93266,1,0,0:0:0:0:
320,192,93557,1,0,0:0:0:0:
64,192,93557,1,0,0:0:0:0:
448,192,93848,1,0,0:0:0:0:
320,192,94139,1,0,0:0:0:0:
448,192,94139,1,0,0:0:0:0:
64,192,94431,1,0,0:0:0:0:
320,192,94431,1,0,0:0:0:0:
320,192,94722,1,0,0:0:0:0:
448,192,94868,1,0,0:0:0:0:
320,192,95304,1,0,0:0:0:0:
448,192,95450,1,0,0:0:0:0:
320,192,95596,1,0,0:0:0:0:
448,192,95596,128,0,97925:0:0:0:0:
64,192,95887,1,0,0:0:0:0:
192,192,95887,1,0,0:0:0:0:
320,192,96178,1,0,0:0:0:0:
192,192,96178,1,0,0:0:0:0:
64,192,96469,1,0,0:0:0:0:
192,192,96469,1,0,0:0:0:0:
320,192,96761,1,0,0:0:0:0:
192,192,96761,1,0,0:0:0:0:
64,192,97052,1,0,0:0:0:0:
320,192,97197,1,0,0:0:0:0:
64,192,97343,1,0,0:0:0:0:
192,192,97634,1,0,0:0:0:0:
320,192,97634,1,0,0:0:0:0:
64,192,97925,1,0,0:0:0:0:
192,192,97925,128,0,100255:0:0:0:0:
320,192,98217,1,0,0:0:0:0:
448,192,98217,1,0,0:0:0:0:
64,192,98508,1,0,0:0:0:0:
320,192,98799,1,0,0:0:0:0:
64,192,98799,1,0,0:0:0:0:
448,192,99090,1,0,0:0:0:0:
320,192,99382,1,0,0:0:0:0:
64,192,99382,1,0,0:0:0:0:
64,192,99673,1,0,0:0:0:0:
64,192,99964,1,0,0:0:0:0:
448,192,99964,1,0,0:0:0:0:
320,192,100255,128,0,102440:0:0:0:0:
448,192,100255,1,0,0:0:0:0:
192,192,100547,1,0,0:0:0:0:
64,192,100838,1,0,0:0:0:0:
192,192,100838,1,0,0:0:0:0:
448,192,101129,1,0,0:0:0:0:
192,192,101420,1,0,0:0:0:0:
64,192,101420,1,0,0:0:0:0:
192,192,101712,1,0,0:0:0:0:
448,192,101712,1,0,0:0:0:0:
192,192,102003,1,0,0:0:0:0:
64,192,102003,1,0,0:0:0:0:
448,192,102294,1,0,0:0:0:0:
64,192,102440,128,0,104915:0:0:0:0:
192,192,102585,1,0,0:0:0:0:
320,192,102876,1,0,0:0:0:0:
448,192,103168,1,0,0:0:0:0:
320,192,103168,1,0,0:0:0:0:
192,192,103459,1,0,0:0:0:0:
192,192,103750,1,0,0:0:0:0:
448,192,103750,1,0,0:0:0:0:
320,192,104041,1,0,0:0:0:0:
448,192,104333,1,0,0:0:0:0:
320,192,104333,1,0,0:0:0:0:
320,192,104624,1,0,0:0:0:0:
192,192,104624,1,0,0:0:0:0:
448,192,104915,128,0,107245:0:0:0:0:
192,192,104915,1,0,0:0:0:0:
64,192,105206,1,0,0:0:0:0:
320,192,105498,1,0,0:0:0:0:
192,192,105498,1,0,0:0:0:0:
64,192,105789,1,0,0:0:0:0:
320,192,106080,1,0,0:0:0:0:
192,192,106080,1,0,0:0:0:0:
64,192,106371,1,0,0:0:0:0:
192,192,106371,1,0,0:0:0:0:
320,192,106662,1,0,0:0:0:0:
64,192,106662,1,0,0:0:0:0:
192,192,106954,1,0,0:0:0:0:
192,192,107245,128,0,109575:0:0:0:0:
320,192,107245,1,0,0:0:0:0:
64,192,107536,1,0,0:0:0:0:
320,192,107827,1,0,0:0:0:0:
448,192,107973,1,0,0:0:0:0:
320,192,108119,1,0,0:0:0:0:
64,192,108410,1,0,0:0:0:0:
320,192,108410,1,0,0:0:0:0:
320,192,108701,1,0,0:0:0:0:
448,192,108701,1,0,0:0:0:0:
64,192,108992,1,0,0:0:0:0:
448,192,108992,1,0,0:0:0:0:
320,192,109284,1,0,0:0:0:0:
64,192,109575,128,0,110594:0:0:0:0:
320,192,109575,1,0,0:0:0:0:
448,192,109866,1,0,0:0:0:0:
320,192,109866,1,0,0:0:0:0:
192,192,110157,1,0,0:0:0:0:
320,192,110157,1,0,0:0:0:0:
448,192,110448,1,0,0:0:0:0:
320,192,110448,1,0,0:0:0:0:
192,192,110594,128,0,111905:0:0:0:0:
448,192,110740,1,0,0:0:0:0:
320,192,111031,1,0,0:0:0:0:
448,192,111031,1,0,0:0:0:0:
320,192,111322,1,0,0:0:0:0:
64,192,111613,1,0,0:0:0:0:
448,192,111613,1,0,0:0:0:0:
448,192,111905,128,0,114234:0:0:0:0:
320,192,112778,128,0,113215:0:0:0:0:
192,192,113215,128,0,113506:0:0:0:0:
64,192,113506,128,0,114089:0:0:0:0:
320,192,114089,128,0,114234:0:0:0:0:
192,192,114234,128,0,116564:0:0:0:0:
320,192,114817,1,0,0:0:0:0:
448,192,115108,1,0,0:0:0:0:
320,192,115399,1,0,0:0:0:0:
64,192,115472,1,0,0:0:0:0:
320,192,115836,128,0,116564:0:0:0:0:
448,192,116564,128,0,117729:0:0:0:0:
320,192,117438,1,0,0:0:0:0:
192,192,117729,1,0,0:0:0:0:
320,192,118166,1,0,0:0:0:0:
64,192,118166,1,0,0:0:0:0:
64,192,118603,1,0,0:0:0:0:
320,192,118603,1,0,0:0:0:0:
448,192,118894,128,0,120059:0:0:0:0:
192,192,119185,1,0,0:0:0:0:
192,192,119477,1,0,0:0:0:0:
320,192,119768,1,0,0:0:0:0:
192,192,120059,1,0,0:0:0:0:
64,192,120132,1,0,0:0:0:0:
