osu file format v8

[General]
AudioFilename: Heart of Witch.mp3
AudioLeadIn: 2000
PreviewTime: 431
Countdown: 0
SampleSet: Soft
StackLeniency: 0.6
Mode: 0
LetterboxInBreaks: 1

[Editor]
Bookmarks: 34490,40137
DistanceSpacing: 1
BeatDivisor: 4
GridSize: 8

[Metadata]
Title:Heart of Witch
Artist:Rex
Creator:yeahyeahyeahhh
Version:Normal
Source:DJMAX
Tags:inozuma Rokodo Roko-Don

[Difficulty]
HPDrainRate:4
CircleSize:3
OverallDifficulty:4
ApproachRate:4
SliderMultiplier:0.999999999999999
SliderTickRate:1

[Events]
//Background and Video events
Video,-800,"HeartOfWitchBga.avi"
0,0,"BG1.jpg"
//Break Periods
2,34715,38843
//Storyboard Layer 0 (Background)
//Storyboard Layer 1 (Fail)
//Storyboard Layer 2 (Pass)
//Storyboard Layer 3 (Foreground)
//Storyboard Sound Samples
//Background Colour Transformations
3,100,163,162,255

[TimingPoints]
634,352.941176470588,4,2,1,100,1,0
634,-100,4,1,1,100,0,0
810,-100,4,2,1,100,0,0
2045,-100,4,1,1,100,0,0
2222,-100,4,2,0,100,0,0
3281,-100,4,1,0,100,0,0
5045,-100,4,2,1,100,0,0
6281,-100,4,1,0,100,0,1
6457,-100,4,2,0,100,0,1
6810,-100,4,1,0,100,0,1
6986,-100,4,2,0,100,0,1
7339,-100,4,1,0,100,0,1
7516,-100,4,2,0,100,0,1
7869,-100,4,1,0,100,0,1
8045,-100,4,2,0,100,0,1
8222,-100,4,2,1,100,0,1
9104,-100,4,1,0,100,0,1
9281,-100,4,2,0,100,0,1
9633,-100,4,1,0,100,0,1
9810,-100,4,2,0,100,0,1
10163,-100,4,1,0,100,0,1
10692,-100,4,1,0,100,0,1
11045,-100,4,2,1,100,0,1
11928,-100,4,2,1,100,0,0
15986,-100,4,1,0,100,0,0
17398,-100,4,2,1,100,0,0
34516,-100,4,2,1,49,0,0
39810,-100,4,2,1,100,0,0
48634,-100,4,2,0,80,0,0
48986,-100,4,2,0,70,0,0
49339,-100,4,2,0,60,0,0
49692,-100,4,2,0,50,0,0
50398,-100,4,2,0,60,0,0
50751,-100,4,2,0,70,0,0
51104,-100,4,2,0,80,0,0
51457,-100,4,2,1,100,0,0
55692,-100,4,1,0,100,0,0
57104,-100,4,2,1,100,0,0
61163,-100,4,1,0,100,0,0
62575,-100,4,2,1,100,0,0
72633,-100,4,1,1,100,0,0
74045,-100,4,2,0,100,0,1
74222,-100,4,2,1,100,0,1
84016,-100,4,2,1,100,0,0
84633,-100,4,2,1,91,0,0
85339,-100,4,2,1,80,0,0
86045,-100,4,2,1,65,0,0
86751,-100,4,2,1,51,0,0
87457,-100,4,2,1,36,0,0
88163,-100,4,2,1,20,0,0
88869,-100,4,2,1,10,0,0
89575,-100,4,2,1,0,0,0

[Colours]
Combo1 : 208,50,208
Combo2 : 255,6,13

[HitObjects]
256,96,281,2,0,B|256:64,4,25,0|0|0|0|0
80,192,1339,1,0
400,192,2045,1,0
400,288,2398,2,0,B|304:336,1,99.9999999999999,2|0
201,332,3104,2,0,B|112:288,1,99.9999999999999,2|4
64,96,4163,5,0
256,160,4869,5,4
160,128,5222,2,0,B|208:80,1,50,8|8
352,127,5751,2,0,B|316:92,2,50,8|8|8
448,192,6281,6,0,B|384:288,1,99.9999999999999,4|2
344,280,6810,2,0,B|264:192,1,99.9999999999999,0|2
235,206,7339,2,0,B|168:280,1,99.9999999999999,0|2
119,275,7869,2,0,B|64:192,1,99.9999999999999,0|2
32,152,8398,2,8,B|0:104,2,50,8|8|10
144,96,9104,6,0,B|248:40,1,99.9999999999999,4|2
280,48,9633,2,8,B|368:95,1,99.9999999999999,0|2
416,120,10163,1,0
96,120,10692,1,0
256,144,11222,2,8,B|256:200,2,50,8|8|10
168,192,11928,5,8
40,272,12457,1,8
256,192,12986,5,4
344,192,13339,5,8
472,272,13869,1,8
256,192,14398,5,4
128,144,14751,6,8,B|217:99,1,99.9999999999999,8|0
256,72,15281,2,8,B|345:116,1,99.9999999999999,8|2
384,144,15810,1,4
400,240,16163,5,0
304,208,16516,1,0
208,208,16869,1,0
112,240,17222,1,0
128,144,17575,6,0,B|32:144|16:240,1,150,10|10
64,320,18633,2,0,B|176:344,1,99.9999999999999,6|8
256,224,19516,5,8
350,340,20045,2,0,B|448:320,1,99.9999999999999,4|8
493,226,20928,2,0,B|480:144|384:144,1,150,8|4
304,88,21810,5,8
304,88,22163,1,8
208,88,22516,1,8
208,88,22869,1,8
112,88,23222,6,0,B|8:128,1,99.9999999999999,4|8
64,216,23928,5,2
160,176,24281,1,8
200,264,24633,1,2
112,304,24986,1,8
192,360,25339,1,2
192,360,25692,1,8
256,288,26045,6,0,B|256:176,1,99.9999999999999,4|8
160,176,26751,5,2
112,88,27104,1,8
208,88,27457,1,2
304,88,27810,1,8
352,176,28163,1,2
352,176,28516,1,8
400,88,28869,6,8,B|504:128,1,99.9999999999999,4|8
448,216,29575,5,2
352,176,29928,1,8
312,264,30280,1,2
400,304,30633,1,8
320,360,30986,1,2
320,360,31339,1,8
256,288,31692,6,0,B|256:176,1,99.9999999999999,4|8
168,144,32398,6,0,B|208:40,1,99.9999999999999,2|8
308,50,33104,2,0,B|344:144,1,99.9999999999999,2|8
256,192,33810,2,0,B|256:256,4,50,2|0|8|0|4
48,192,40163,5,8
144,192,40516,1,2
96,280,40869,2,0,B|200:320,1,99.9999999999999,2|2
256,240,41575,5,8
256,240,41928,1,2
328,312,42281,2,2,B|421:276,1,99.9999999999999
368,192,42986,5,8
464,192,43339,1,2
416,104,43692,2,2,B|320:48,1,99.9999999999999
232,48,44398,6,0,B|32:96,1,200,8|2
80,192,45457,1,2
40,288,45810,1,4
256,80,46869,5,2
256,80,47222,1,8
432,192,47928,5,2
472,288,48281,1,2
376,272,48633,6,2,B|384:344,2,50
272,280,49339,2,2,B|280:208,2,50
168,272,50045,2,2,B|176:344,2,50
64,272,50751,2,2,B|56:200,3,50
40,176,51457,6,0,B|144:56,1,150,8|8
208,192,52516,1,4
208,192,52869,6,0,B|296:328,1,150,8|8
368,192,53928,1,4
368,192,54281,6,0,B|456:56,2,150,8|8|4
304,112,55692,5,0
304,112,56045,1,0
208,112,56398,1,0
208,112,56751,1,0
144,192,57104,6,0,B|56:328,2,150,8|8|4
256,200,58516,6,0,B|256:352,2,150,8|8|4
368,192,59928,6,0,B|456:328,2,150,8|8|4
304,112,61339,5,0
304,112,61692,1,0
208,112,62045,1,0
208,112,62398,1,0
136,176,62751,5,8
56,128,63104,1,8
56,128,63457,2,0,B|48:136|16:152|80:184|32:200|40:240,1,99.9999999999999,8|8
120,280,64163,5,8
208,232,64516,1,8
208,328,64869,2,8,B|256:336|320:328,1,99.9999999999999
304,232,65575,5,8
392,280,65928,1,8
471,222,66281,2,0,B|480:200|432:184|496:152|464:136|456:128,1,99.9999999999999,8|8
384,64,66986,5,8
384,64,67339,2,8,B|280:96,3,99.9999999999999
192,112,68751,5,8
96,144,69104,2,8,B|64:256|176:320,1,200
256,264,70163,1,8
345,314,70516,2,8,B|448:256|416:144,1,200
328,192,71575,5,8
256,128,71928,1,8
184,192,72281,1,8
256,264,72633,6,0,B|256:328,8,50,0|0|0|0|0|0|0|0|4
136,192,74398,5,8
136,192,74751,1,0
208,264,75104,5,8
208,264,75457,1,0
304,264,75810,5,8
304,264,76163,1,0
392,320,76516,6,8,B|472:240,1,99.9999999999999,8|4
376,192,77222,5,8
376,192,77575,1,0
304,264,77928,5,8
304,264,78281,1,0
208,264,78634,5,8
208,264,78987,1,0
120,320,79340,6,8,B|40:240,1,99.9999999999999,8|4
80,152,80045,5,8
160,96,80398,1,8
192,192,80751,5,8
272,128,81104,1,8
304,224,81457,5,8
392,176,81810,1,8
424,272,82163,5,8
424,272,82516,1,8
88,272,83222,1,8
256,64,83928,1,8
256,192,84016,12,0,89575
