osu file format v8

[General]
AudioFilename: Heart of Witch.mp3
AudioLeadIn: 2000
PreviewTime: 431
Countdown: 0
SampleSet: Soft
StackLeniency: 0.5
Mode: 0
LetterboxInBreaks: 1

[Editor]
DistanceSpacing: 0
BeatDivisor: 4
GridSize: 8

[Metadata]
Title:Heart of Witch
Artist:Rex
Creator:yeahyeahyeahhh
Version:MXStyle
Source:DJMAX
Tags:inozuma Rokodo Roko-Don

[Difficulty]
HPDrainRate:7
CircleSize:4
OverallDifficulty:8
ApproachRate:8
SliderMultiplier:2.2
SliderTickRate:1

[Events]
//Background and Video events
Video,-800,"HeartOfWitchBga.avi"
0,0,"BG1.jpg"
//Break Periods
2,34715,39589
//Storyboard Layer 0 (Background)
//Storyboard Layer 1 (Fail)
//Storyboard Layer 2 (Pass)
//Storyboard Layer 3 (Foreground)
//Storyboard Sound Samples
//Background Colour Transformations
3,100,163,162,255

[TimingPoints]
634,352.941176470588,4,2,1,100,1,0
1957,-100,4,1,1,100,0,0
2133,-100,4,2,1,100,0,0
3545,-100,4,2,1,100,0,0
4075,-100,4,1,1,100,0,0
4251,-100,4,2,1,100,0,0
4781,-100,4,1,1,100,0,0
6281,-100,4,1,1,100,0,1
6369,-100,4,2,1,100,0,1
6722,-100,4,1,1,100,0,1
6898,-100,4,2,1,100,0,1
7251,-100,4,1,1,100,0,1
7428,-100,4,2,1,100,0,1
7781,-100,4,1,1,100,0,1
8045,-100,4,2,1,100,0,1
8839,-100,4,1,1,100,0,1
9192,-100,4,2,1,100,0,1
9545,-100,4,1,1,100,0,1
9722,-100,4,2,1,100,0,1
10075,-100,4,1,1,100,0,1
10251,-100,4,2,1,100,0,1
10604,-100,4,1,1,100,0,1
10781,-100,4,2,1,100,0,1
11663,-100,4,1,1,100,0,0
12016,-100,4,2,1,100,0,0
12369,-100,4,1,1,100,0,0
12545,-100,4,2,1,100,0,0
13075,-100,4,1,1,100,0,0
13428,-100,4,2,1,100,0,0
13781,-100,4,1,1,100,0,0
13957,-100,4,2,1,100,0,0
14486,-100,4,1,1,100,0,0
14839,-100,4,2,1,100,0,0
15192,-100,4,1,1,100,0,0
15369,-100,4,2,1,100,0,0
15898,-100,4,1,1,100,0,0
17575,-100,4,1,1,100,0,0
17663,-100,4,2,1,100,0,0
18016,-100,4,1,1,100,0,0
18192,-100,4,2,1,100,0,0
18722,-100,4,2,1,100,0,0
18986,-100,4,1,1,100,0,0
19075,-100,4,2,1,100,0,0
19428,-100,4,1,1,100,0,0
19604,-100,4,2,1,100,0,0
20133,-100,4,2,1,100,0,0
20310,-100,4,1,1,100,0,0
20486,-100,4,2,1,100,0,0
21016,-100,4,2,1,100,0,0
21545,-100,4,2,1,100,0,0
21986,-100,4,2,1,100,0,0
31781,-100,4,1,1,19,0,0
31957,-100,4,1,1,31,0,0
32310,-100,4,1,1,40,0,0
32663,-100,4,1,1,51,0,0
33016,-100,4,1,1,59,0,0
33369,-100,4,1,1,69,0,0
33545,-100,4,1,1,80,0,0
33722,-100,4,1,1,71,0,0
34516,-100,4,2,1,50,0,0
39986,-200,4,2,1,100,0,0
40692,-100,4,2,1,100,0,0
42016,-200,4,2,1,100,0,0
42457,-100,4,2,1,100,0,0
43075,-200,4,2,1,100,0,0
43516,-100,4,2,1,100,0,0
44398,-200,4,2,1,100,0,0
44751,-100,4,2,1,100,0,0
45810,-100,4,2,1,54,0,0
45898,-100,4,2,1,100,0,0
47133,-100,4,2,1,50,0,0
47310,-100,4,2,1,100,0,0
48192,-100,4,2,1,100,0,0
51545,-100,4,2,1,100,0,0
51898,-100,4,1,1,100,0,0
52075,-100,4,2,1,100,0,0
52604,-100,4,2,1,100,0,0
52781,-100,4,1,1,100,0,0
52957,-100,4,2,1,100,0,0
53310,-100,4,1,1,100,0,0
53486,-100,4,2,1,100,0,0
54016,-100,4,2,1,100,0,0
54192,-100,4,1,1,100,0,0
54369,-100,4,2,1,100,0,0
54722,-100,4,1,1,100,0,0
54898,-100,4,2,1,100,0,0
55428,-100,4,2,1,100,0,0
55604,-100,4,2,1,100,0,0
57016,-100,4,1,1,100,0,0
57192,-100,4,2,1,100,0,0
57545,-100,4,1,1,100,0,0
57722,-100,4,2,1,100,0,0
58251,-100,4,2,1,100,0,0
58428,-100,4,1,1,100,0,0
58604,-100,4,2,1,100,0,0
58957,-100,4,1,1,100,0,0
59133,-100,4,2,1,100,0,0
59663,-100,4,2,1,100,0,0
61075,-100,4,2,1,100,0,0
71133,-100,4,2,1,100,0,0
71486,-100,4,2,1,95,0,0
71839,-100,4,2,1,91,0,0
72192,-100,4,2,1,85,0,0
72728,-100,4,2,1,89,0,0
72898,-100,4,2,1,94,0,0
73075,-100,4,2,1,100,0,0
73251,-100,4,1,0,100,0,0
73957,-100,4,1,1,100,0,0
74045,-100,4,2,1,100,0,1
74222,-100,4,2,1,100,0,1
79869,-100,4,1,1,100,0,1
84016,-100,4,2,1,100,0,1
84633,-100,4,2,1,91,0,0
85339,-100,4,2,1,80,0,0
86045,-100,4,2,1,65,0,0
86751,-100,4,2,1,51,0,0
87457,-100,4,2,1,36,0,0
88163,-100,4,2,1,20,0,0
88869,-100,4,2,1,10,0,0
89575,-100,4,2,1,0,0,0

[Colours]
Combo1 : 208,50,208
Combo2 : 255,6,13

[HitObjects]
72,104,281,1,0
72,104,369,1,0
72,104,457,1,0
72,104,545,1,0
72,104,634,1,8
160,152,986,5,0
256,104,1163,1,2
160,64,1339,1,0
256,104,1516,1,2
352,64,1692,1,0
256,104,1869,1,2
352,152,2045,1,2
352,152,2222,1,0
440,104,2398,1,2
440,104,2575,1,0
440,192,2751,5,0
440,192,2839,1,0
440,192,2928,1,2
440,192,3016,1,0
440,192,3104,1,0
440,192,3192,1,0
440,192,3281,1,8
440,192,3369,1,0
440,192,3457,1,8
128,152,3810,5,2
176,88,3986,1,0
104,48,4163,1,4
384,232,4516,5,2
336,296,4692,1,0
408,336,4869,1,4
56,240,5222,5,2
200,216,5398,1,0
456,144,5751,5,2
312,168,5927,1,0
256,280,6104,5,0
256,280,6192,1,0
256,280,6281,2,0,B|128:312,1,110,2|0
149,306,6545,1,0
149,306,6633,1,0
56,240,6810,2,0,B|208:200,1,110,2|0
162,212,7075,1,0
162,212,7163,1,0
256,104,7339,6,0,B|384:72,1,110,2|0
363,78,7603,1,0
363,78,7691,1,0
456,144,7868,2,0,B|304:184,1,110,2|0
350,172,8133,1,0
350,172,8221,1,0
184,88,8398,1,8
213,61,8486,1,0
256,48,8575,1,0
296,64,8663,1,0
328,88,8751,1,10
256,152,8928,5,0
160,304,9104,2,0,B|48:304,1,110,2|0
50,304,9457,1,0
96,224,9633,2,0,B|216:224,1,110,2|0
206,224,9986,1,0
256,304,10163,6,0,B|366:304,1,110,2|0
366,304,10516,1,0
416,224,10692,2,0,B|296:224,1,110,2|0
256,304,11045,1,0
368,304,11222,1,8
384,304,11310,1,0
400,304,11398,1,0
416,304,11486,1,0
432,304,11575,1,8
504,256,11751,5,0
504,256,11839,1,0
504,256,11928,1,0
512,152,12104,1,2
432,96,12281,1,2
344,128,12457,1,0
320,224,12633,1,2
408,288,12810,1,2
408,288,12986,1,4
504,256,13163,5,0
504,256,13251,1,0
504,256,13339,1,0
408,288,13516,1,2
320,224,13692,1,2
256,152,13869,1,0
256,152,14045,1,2
192,224,14222,1,2
104,288,14398,1,4
8,256,14575,5,0
8,256,14663,1,0
8,256,14751,1,0
104,288,14928,1,2
192,224,15104,1,2
168,128,15281,1,0
80,96,15457,1,2
0,152,15634,1,2
0,152,15810,1,4
8,256,15986,5,0
8,256,16075,1,0
8,256,16163,1,0
504,128,16516,1,0
128,272,16869,1,0
381,110,17222,1,0
392,192,17398,5,0
392,192,17486,1,0
392,192,17575,1,2
299,121,17751,1,2
299,121,17928,1,2
368,32,18104,1,2
460,103,18281,1,2
460,103,18457,1,2
392,192,18634,1,6
136,192,18810,5,8
136,192,18898,1,8
136,192,18987,1,2
39,262,19163,1,2
39,262,19340,1,2
108,351,19516,1,2
204,281,19693,1,2
204,281,19869,1,2
136,192,20046,1,6
120,272,20222,1,0
304,272,20398,5,2
328,272,20486,1,2
352,272,20575,1,2
376,272,20663,1,2
400,272,20751,1,2
424,272,20839,1,2
448,272,20928,1,10
368,184,21104,1,2
368,184,21281,1,2
256,104,21457,1,6
184,208,21633,6,0,L|160:256,2,55,0|0|8
328,176,21986,2,0,L|352:224,2,55,0|0|8
120,192,22339,2,0,L|56:208,2,55,0|0|8
376,128,22692,2,2,B|440:152,5,55
427,147,23222,6,2,B|488:208|440:320|344:304,1,220,4|8
336,304,23663,1,0
312,304,23751,1,0
288,304,23839,1,0
264,304,23928,1,2
240,304,24016,1,0
216,304,24104,1,0
192,304,24192,1,0
168,304,24281,1,8
144,304,24369,1,0
120,304,24457,1,0
96,304,24545,1,0
72,304,24633,2,0,B|24:344,3,55,2|0|0|0
8,296,24986,2,0,B|-47:256,3,55,8|0|0|0
8,232,25339,2,0,B|0:176,3,55,2|0|2|0
56,192,25692,2,0,B|64:136,3,55,8|0|8|0
96,240,26045,6,2,B|81:320|193:368|264:328,1,220,4|8
272,336,26486,1,0
294,343,26575,1,0
316,346,26663,1,0
338,345,26751,1,2
360,339,26839,1,0
381,330,26928,1,0
400,317,27016,1,0
415,300,27104,1,8
426,280,27192,1,0
430,258,27281,1,0
430,236,27369,1,0
429,214,27457,2,0,B|429:144,3,55,2|0|0|0
368,200,27810,2,0,B|368:270,3,55,8|0|0|0
312,208,28163,2,0,B|312:138,3,55,2|0|2|0
256,200,28516,2,0,B|256:255,3,55,8|0|8|0
256,280,28869,6,2,B|195:341|83:293|99:197,1,220,4|8
96,192,29310,1,0
96,168,29398,1,0
104,144,29486,1,0
120,128,29575,1,2
144,120,29663,1,0
168,120,29751,1,0
192,120,29839,1,0
216,120,29928,1,8
240,120,30016,1,0
264,120,30104,1,0
288,120,30192,1,0
312,120,30281,2,0,L|376:120,3,55,2|0|0|0
392,128,30633,2,0,L|432:176,3,55,8|0|0|0
432,192,30986,2,0,L|432:280,3,55,2|0|2|0
432,272,31339,2,0,L|396:314,3,55,8|0|8|0
376,328,31692,5,4
376,328,31869,1,0
296,328,32045,5,0
296,328,32222,1,0
216,328,32398,5,0
216,328,32575,1,0
136,328,32751,5,0
136,328,32928,1,0
80,272,33104,5,0
80,192,33281,1,0
80,176,33369,1,0
80,160,33457,1,0
80,144,33545,1,0
80,128,33633,1,0
80,112,33722,1,0
80,96,33810,2,0,B|80:48,16,27.5,0|0|0|0|0|0|0|0|0|0|0|0|0|0|0|0|4
256,112,40339,6,0,L|144:72,1,110,2|2
128,80,40781,1,0
104,88,40869,1,0
80,96,40957,1,0
56,104,41045,1,2
32,112,41133,1,0
56,128,41222,1,0
80,144,41310,1,0
104,160,41398,1,2
128,176,41486,1,0
152,192,41575,1,0
256,232,41751,1,2
360,192,41928,1,0
256,112,42104,6,0,L|368:72,1,110,2|2
384,80,42546,1,0
408,88,42634,1,0
432,96,42722,1,0
456,104,42810,1,2
480,112,42898,1,0
456,128,42986,1,0
360,192,43163,6,0,L|480:240,1,110,2|2
488,248,43604,1,0
464,264,43692,1,0
440,280,43781,1,0
416,296,43869,1,2
392,288,43957,1,0
368,280,44045,1,0
344,272,44133,1,0
320,264,44222,1,2
296,256,44310,1,0
272,248,44398,6,0,L|169:288,1,110,0|0
144,296,44839,1,0
120,288,44927,1,2
96,280,45016,1,0
72,272,45104,1,0
48,264,45192,1,0
24,248,45280,1,2
48,240,45368,1,0
72,232,45457,1,0
96,224,45545,1,0
120,216,45633,1,2
144,208,45722,1,0
168,200,45810,1,4
256,128,45986,5,2
200,96,46163,1,0
136,80,46339,1,2
72,104,46516,1,0
40,160,46692,1,2
40,224,46869,1,0
72,280,47045,1,2
136,304,47222,1,8
200,288,47398,1,2
256,256,47575,5,0
312,288,47751,1,2
376,304,47928,1,0
440,280,48104,1,2
472,224,48281,1,8
472,192,48369,1,8
472,160,48457,1,10
472,80,48633,5,2
448,72,48722,1,0
424,64,48810,1,0
400,56,48898,1,0
376,48,48986,1,2
352,56,49075,1,0
328,64,49163,1,0
304,72,49251,1,0
280,80,49339,1,2
248,88,49428,1,0
224,96,49516,1,0
200,104,49604,1,0
176,112,49693,1,2
152,104,49781,1,0
128,96,49869,1,0
104,88,49957,1,0
80,80,50045,6,0,L|24:56,3,55,2|0|0|0
40,120,50398,2,0,L|-23:144,3,55,2|0|0|0
80,160,50751,2,0,L|64:216,3,55,2|0|0|0
136,168,51104,2,0,L|152:224,3,55,2|0|0|0
136,168,51457,5,8
136,168,51545,1,8
136,168,51633,1,8
136,168,51722,1,8
136,168,51810,1,8
120,96,51986,5,0
200,208,52163,1,2
64,168,52339,1,2
120,240,52516,1,6
200,120,52692,5,8
208,88,52781,1,0
224,64,52869,1,0
256,48,52957,1,8
288,64,53045,1,8
304,88,53133,1,8
312,120,53222,1,8
392,240,53398,5,0
448,168,53575,1,2
312,208,53751,1,2
392,96,53928,1,6
376,168,54104,5,8
376,168,54192,1,0
376,168,54281,1,0
376,168,54369,1,8
376,168,54457,1,8
376,168,54545,1,8
376,168,54633,1,8
200,208,54810,5,0
312,208,54986,1,2
168,312,55163,1,2
344,312,55339,1,6
256,352,55516,5,8
256,320,55604,1,8
256,288,55692,1,8
88,192,56045,1,8
256,96,56398,1,8
424,192,56751,1,8
256,192,56928,5,8
256,192,57016,1,0
256,192,57104,1,2
355,232,57281,1,2
289,95,57457,1,2
159,158,57633,1,2
222,288,57810,1,2
256,192,57986,1,2
256,192,58163,1,6
240,80,58339,5,0
216,96,58428,1,0
192,112,58516,1,2
272,304,58692,1,2
296,288,58781,1,0
320,272,58869,1,2
456,240,59045,5,2
512,136,59222,1,2
409,83,59398,1,2
355,182,59575,1,6
456,240,59751,5,2
472,272,59839,1,0
464,304,59928,1,2
448,328,60016,1,2
416,344,60104,1,2
384,352,60192,1,2
352,344,60281,1,2
320,320,60369,1,2
304,288,60457,1,8
256,192,60633,5,2
256,192,60810,1,2
256,368,60986,1,6
208,288,61163,5,8
208,288,61251,1,8
208,288,61339,2,0,B|168:392|16:352|40:240,1,220,8|8
128,256,61869,1,0
56,208,62045,6,2,B|8:184,3,55
72,152,62398,2,2,B|40:96,3,55
128,128,62751,5,8
248,96,62928,1,2
280,96,63016,1,0
312,104,63104,1,8
344,112,63192,1,0
376,128,63281,1,2
400,144,63369,1,0
424,168,63457,1,8
488,224,63633,2,2,B|440:272,2,55,2|0|8
168,96,63986,2,2,B|176:160,2,55,2|0|8
96,48,64339,1,2
80,128,64516,5,8
88,160,64604,1,0
112,192,64692,1,2
144,208,64781,1,0
184,216,64869,1,8
168,304,65045,1,2
256,328,65222,1,8
256,328,65398,1,10
344,304,65575,1,8
328,216,65751,5,2
368,208,65839,1,0
400,192,65928,1,8
424,160,66016,1,0
432,128,66104,1,2
432,88,66192,1,0
416,48,66281,1,8
344,120,66457,2,0,B|272:72,2,55,2|0|8
128,184,66810,2,0,B|168:128,2,55,2|0|8
128,184,67163,5,2
328,216,67339,1,8
184,216,67516,1,10
256,112,67692,1,8
256,280,67869,1,10
136,128,68045,1,8
376,128,68222,1,2
256,280,68398,1,8
104,288,68575,5,2
184,336,68751,1,8
216,360,68839,1,0
256,368,68928,1,2
296,360,69016,1,0
328,336,69104,1,8
408,288,69281,1,2
328,224,69457,1,8
256,280,69633,1,2
184,224,69810,1,8
104,288,69986,5,2
72,264,70075,1,0
56,232,70163,1,8
48,192,70251,1,0
56,152,70339,1,2
72,120,70428,1,0
104,96,70516,1,8
184,160,70692,1,2
256,104,70869,1,8
328,160,71045,1,10
176,72,71222,5,10
192,96,71310,1,2
208,120,71398,1,2
328,160,71575,2,2,B|392:160,2,55,10|2|2
184,224,71928,2,2,B|120:224,2,55,8|2|2
304,264,72281,1,8
320,288,72369,1,2
336,312,72457,1,2
424,272,72633,5,8
472,192,72810,1,8
416,96,72986,1,8
304,40,73163,1,8
168,40,73339,1,4
56,128,73516,1,4
56,280,73692,1,4
200,360,73869,1,4
376,360,74045,1,4
472,56,74398,5,8
472,56,74575,1,2
392,64,74751,1,0
392,64,74928,1,2
440,128,75104,1,8
440,128,75281,1,2
360,136,75457,1,0
360,136,75633,1,2
408,200,75810,1,8
408,200,75986,1,2
328,208,76163,1,0
328,208,76339,1,2
376,264,76516,1,8
376,264,76692,1,8
256,48,76869,5,4
40,56,77222,5,8
40,56,77399,1,2
120,64,77575,1,0
120,64,77752,1,2
72,128,77928,1,8
72,128,78105,1,2
152,136,78281,1,0
152,136,78457,1,2
104,200,78634,1,8
104,200,78810,1,2
184,208,78987,1,0
184,208,79163,1,2
136,264,79340,1,8
136,264,79516,1,8
256,48,79692,5,4
256,320,80045,5,0
256,320,80222,1,0
136,264,80398,1,0
136,264,80575,1,0
376,264,80751,1,0
376,264,80928,2,0,L|432:312,18,55
136,120,83222,5,0
256,192,83751,1,0
256,192,83839,1,0
256,192,83928,1,0
256,192,84016,12,0,89575
