osu file format v8

[General]
AudioFilename: Heart of Witch.mp3
AudioLeadIn: 2000
PreviewTime: 431
Countdown: 0
SampleSet: Soft
StackLeniency: 0.4
Mode: 0
LetterboxInBreaks: 1

[Editor]
Bookmarks: 34490,40137
DistanceSpacing: 1
BeatDivisor: 4
GridSize: 16

[Metadata]
Title:Heart of Witch
Artist:Rex
Creator:yeahyeahyeahhh
Version:InoStyle
Source:DJMAX
Tags:inozuma Rokodo Roko-Don

[Difficulty]
HPDrainRate:7
CircleSize:4
OverallDifficulty:8
ApproachRate:8
SliderMultiplier:1.8
SliderTickRate:1

[Events]
//Background and Video events
Video,-800,"HeartOfWitchBga.avi"
0,0,"BG1.jpg"
//Break Periods
2,34539,39413
//Storyboard Layer 0 (Background)
//Storyboard Layer 1 (Fail)
//Storyboard Layer 2 (Pass)
//Storyboard Layer 3 (Foreground)
//Storyboard Sound Samples
//Background Colour Transformations
3,100,163,162,255

[TimingPoints]
634,352.941176470588,4,2,1,100,1,0
634,-100,4,1,1,100,0,0
810,-100,4,2,1,100,0,0
2045,-100,4,1,1,100,0,0
2222,-100,4,2,0,100,0,0
3281,-100,4,1,0,100,0,0
5045,-100,4,2,1,100,0,0
6281,-100,4,1,0,100,0,0
6457,-100,4,2,0,100,0,0
6810,-100,4,1,0,100,0,0
6986,-100,4,2,0,100,0,0
7339,-100,4,1,0,100,0,0
7516,-100,4,2,0,100,0,0
7869,-100,4,1,0,100,0,0
8045,-100,4,2,0,100,0,0
8222,-100,4,2,1,100,0,0
9104,-100,4,1,0,100,0,0
9281,-100,4,2,0,100,0,0
9633,-100,4,1,0,100,0,0
9810,-100,4,2,0,100,0,0
10163,-100,4,1,0,100,0,0
10339,-100,4,2,0,100,0,0
10692,-100,4,1,0,100,0,0
10869,-100,4,2,0,100,0,0
11045,-100,4,2,1,100,0,0
15986,-100,4,1,0,100,0,0
17398,-100,4,2,1,100,0,0
48634,-100,4,2,0,80,0,0
48986,-100,4,2,0,70,0,0
49339,-100,4,2,0,60,0,0
49692,-100,4,2,0,50,0,0
50398,-100,4,2,0,60,0,0
50751,-100,4,2,0,70,0,0
51104,-100,4,2,0,80,0,0
51457,-100,4,2,1,100,0,0
55692,-100,4,1,0,100,0,0
57104,-100,4,2,1,100,0,0
61163,-100,4,1,0,100,0,0
62575,-100,4,2,1,100,0,0
72633,-100,4,1,1,100,0,0
74045,-100,4,2,0,100,0,0
74222,-100,4,2,1,100,0,0
79869,-100,4,1,0,60,0,0
80751,-100,4,1,0,80,0,0
81457,-100,4,1,0,100,0,0
82516,-100,4,2,1,100,0,0
89575,-100,4,1,0,0,0,0

[Colours]
Combo1 : 208,50,208
Combo2 : 255,6,13

[HitObjects]
256,96,281,2,0,B|256:48,4,45,0|0|0|0|0
176,128,810,6,0,B|192:176|256:192,1,90,2|0
336,256,1163,2,0,B|320:208|256:192,1,90,2|0
176,128,1516,2,0,B|160:176|176:224,1,90,2|0
336,256,1869,2,0,B|352:208|336:160,1,90,2|0
320,96,2222,5,0
256,160,2398,1,8
176,128,2575,1,0
192,288,2751,5,2
256,224,2928,1,0
336,256,3104,1,8
400,192,3281,5,0
112,192,3457,1,4
96,224,4163,5,0
80,256,4869,5,4
256,224,5045,1,0
432,256,5222,1,8
432,144,5398,5,8
256,224,5575,1,0
80,144,5751,1,8
80,144,5928,5,8
80,160,6016,1,2
80,176,6104,1,2
80,192,6192,1,2
80,208,6281,6,0,B|112:304,2,90,0|8|8
160,192,6810,2,0,B|240:240,2,90,0|8|0
224,144,7339,2,0,B|320:160,2,90,0|8|8
240,64,7869,2,0,B|336:64,1,90,0|8
144,64,8398,6,0,B|192:48|240:64,1,90,8|0
304,304,8751,2,0,B|352:320|400:304,1,90,8|0
432,208,9104,6,0,B|400:304,2,90,0|8|8
352,192,9633,2,0,B|272:240,2,90,0|8|0
288,144,10163,2,0,B|192:160,2,90,0|8|8
272,64,10692,2,0,B|176:64,1,90,0|8
368,64,11222,6,0,B|320:48|272:64,1,90,8|0
208,304,11575,2,0,B|160:320|112:304,1,90,8|0
48,272,11928,5,8
64,192,12104,1,2
80,112,12281,1,2
144,208,12457,5,8
160,128,12633,1,2
176,48,12810,1,2
256,192,12986,5,4
464,272,13339,5,8
448,192,13516,1,2
432,112,13692,1,2
368,208,13869,5,8
352,128,14045,1,2
336,48,14222,1,2
256,192,14398,5,4
368,208,14751,5,8
256,192,14928,1,2
144,208,15104,1,2
352,128,15281,5,8
256,192,15457,1,2
160,128,15633,1,2
256,272,15810,5,4
416,80,16163,5,0
96,80,16516,1,0
368,208,16869,1,0
144,208,17222,1,0
416,80,17575,6,0,B|384:112|336:128,1,90,8|2
256,144,17928,1,2
96,80,18104,6,0,B|128:112|176:128,1,90,8|2
256,144,18457,1,2
256,320,18633,5,4
96,304,18986,6,0,B|128:272|176:256,1,90,8|2
256,240,19339,1,2
416,304,19516,6,0,B|384:272|336:256,1,90,8|2
256,240,19869,1,2
256,64,20045,5,4
176,144,20398,6,0,B|160:192|176:240|176:240|224:256|256:240,1,180,8|2
336,144,20928,2,0,B|352:192|336:240|336:240|288:256|256:240,1,180,8|2
256,64,21457,2,0,B|256:160,1,90,8|0
256,64,21810,6,0,B|240:16,2,45,8|0|2
336,144,22163,2,0,B|384:128,2,45,8|0|2
176,144,22516,2,0,B|128:160,2,45,8|0|2
256,224,22869,2,0,B|272:272,2,45,8|0|2
256,224,23222,6,0,B|352:192|432:224,1,180,4|8
448,320,23751,5,0
448,320,23839,1,0
448,320,23928,1,2
352,272,24104,5,0
352,272,24192,1,0
352,272,24281,1,8
256,224,24457,5,0
256,224,24545,1,0
256,224,24633,1,2
160,176,24810,5,0
160,176,24898,1,0
160,176,24986,1,8
64,128,25163,5,0
64,128,25251,1,0
64,128,25339,1,2
80,224,25516,5,2
160,176,25692,1,8
176,272,25869,1,8
256,224,26045,6,0,B|352:192|432:224,1,180,4|8
448,320,26575,1,0
448,304,26663,1,0
448,288,26751,1,2
352,272,26928,5,0
352,256,27016,1,0
352,240,27104,1,8
256,224,27281,5,0
256,208,27369,1,0
256,192,27457,1,2
160,176,27633,5,0
160,160,27722,1,0
160,144,27810,1,8
64,128,27986,5,0
64,112,28075,1,0
64,96,28163,1,2
80,224,28339,5,2
160,176,28516,1,8
176,272,28692,1,8
256,224,28869,6,0,B|352:192|432:224,1,180,4|8
448,320,29398,5,0
448,288,29486,1,0
448,256,29575,1,2
352,272,29751,5,0
352,240,29839,1,0
352,208,29928,1,8
256,224,30104,5,0
256,192,30192,1,0
256,160,30281,1,2
160,176,30457,5,0
160,144,30545,1,0
160,112,30633,1,8
64,128,30810,5,0
64,96,30898,1,0
64,64,30986,1,2
80,224,31163,5,2
160,176,31339,1,8
176,272,31516,1,8
256,224,31692,6,0,B|352:192|432:224,1,180,4|8
448,320,32222,5,0
448,272,32310,1,0
448,224,32398,1,2
352,272,32575,5,0
352,224,32663,1,0
352,176,32751,1,8
256,224,32928,5,0
256,176,33016,1,0
256,128,33104,1,2
160,176,33281,5,0
160,128,33369,1,0
160,80,33457,1,8
64,128,33633,5,0
64,80,33722,1,0
64,32,33810,1,2
80,224,33986,5,2
160,176,34163,1,8
176,272,34339,1,8
208,144,40163,6,0,B|256:128|304:144,1,90,8|2
208,240,40516,2,0,B|192:192|208:144,1,90,0|2
304,240,40869,2,0,B|256:256|208:240,1,90,0|2
304,144,41222,2,0,B|320:192|304:240,1,90,0|2
230,102,41575,6,0,B|280:99|323:127,1,90,8|2
166,217,41928,2,0,B|163:167|191:124,1,90,0|2
281,281,42281,2,0,B|231:284|188:256,1,90,0|2
345,166,42634,2,0,B|348:216|320:259,1,90,0|2
270,71,42986,6,0,B|320:81|353:119,1,90,8|2
135,177,43339,2,0,B|145:128|183:94,1,90,0|2
241,312,43692,2,0,B|192:302|158:264,1,90,0|2
376,206,44045,2,0,B|366:256|328:289,1,90,0|2
323,56,44398,6,0,B|369:78|391:124,1,90,8|2
120,124,44751,2,0,B|142:78|188:56,1,90,0|2
188,327,45104,2,0,B|142:305|120:259,1,90,0|2
391,259,45457,2,0,B|369:305|323:327,1,90,0|2
256,272,45810,5,8
320,224,45986,1,0
320,144,46163,1,0
256,96,46339,1,0
192,48,46516,1,2
256,96,46692,1,0
320,48,46869,1,0
256,96,47045,1,0
256,272,47222,5,8
192,224,47398,1,0
192,144,47575,1,0
256,96,47751,1,0
320,48,47928,1,2
256,96,48104,1,8
192,48,48281,1,8
256,96,48457,1,8
320,144,48634,6,2,B|336:192,3,45
304,192,48986,6,2,B|320:240,3,45
288,240,49339,6,2,B|304:288,3,45
272,288,49692,6,2,B|288:336,3,45
256,336,50045,5,2
224,320,50134,1,2
192,336,50222,1,2
160,320,50310,1,2
128,336,50398,5,2
112,304,50486,1,2
128,272,50575,1,2
112,240,50663,1,2
128,208,50751,6,2,B|80:192,1,45
128,176,50928,2,2,B|176:160,1,45
128,144,51104,2,2,B|80:128,1,45
128,112,51281,2,2,B|176:96,1,45
208,80,51457,5,8
240,96,51545,1,8
272,112,51634,1,8
304,128,51722,1,8
336,144,51810,2,0,B|416:96,1,90,2|2
480,192,52163,2,0,B|400:240,1,90,2|10
208,240,52516,1,4
144,336,52692,5,8
176,320,52781,1,8
208,304,52869,1,8
240,288,52957,1,8
272,272,53045,1,8
304,256,53134,1,8
336,240,53222,2,0,B|416:288,1,90,10|10
480,192,53575,2,0,B|400:144,1,90,2|10
208,144,53928,1,4
208,144,54104,5,8
176,160,54193,1,8
144,176,54281,1,8
144,208,54369,1,8
176,224,54457,1,8
208,240,54546,1,8
240,256,54634,2,0,B|336:304,1,90,2|10
240,128,54986,2,0,B|336:80,1,90,2|2
64,192,55339,1,4
64,192,55516,5,2
64,192,55692,1,0
112,320,56045,1,0
240,128,56398,1,0
288,256,56751,1,0
288,256,56928,1,4
288,256,57104,5,8
368,272,57281,1,2
448,288,57457,1,2
384,192,57634,5,8
368,272,57810,1,2
352,352,57986,1,2
256,64,58163,5,4
224,256,58516,5,8
144,272,58693,1,2
64,288,58869,1,2
128,192,59046,5,8
144,272,59222,1,2
160,352,59398,1,2
256,64,59575,5,4
128,192,59928,5,8
224,256,60104,1,2
352,192,60281,1,2
160,352,60457,5,8
224,256,60633,1,2
352,352,60810,1,2
240,144,60986,5,4
352,192,61339,5,0
128,192,61692,1,0
336,352,62045,1,0
160,352,62398,1,0
352,192,62751,5,8
336,96,62928,1,2
432,96,63104,1,8
432,96,63192,1,0
432,96,63281,1,2
432,96,63369,1,0
432,96,63457,2,0,B|448:128|448:128|464:160|432:208|448:240|448:240|464:272,1,180,8|8
160,192,64163,5,8
176,96,64340,1,2
80,96,64516,1,8
80,96,64604,1,0
80,96,64693,1,2
80,96,64781,1,0
80,96,64869,2,0,B|64:128|64:128|48:160|80:208|64:240|64:240|48:272,1,180,8|8
144,288,65398,1,8
240,272,65575,1,8
288,192,65751,6,0,B|336:208,2,45,2|0|8
208,128,66104,1,2
208,128,66192,1,0
208,128,66281,2,0,B|240:144|240:144|288:96|336:144|336:144|368:128,1,180,8|8
288,192,66810,6,0,B|336:176,2,45,0|0|8
208,256,67163,1,0
208,256,67251,1,0
208,256,67339,5,8
304,288,67516,1,8
400,256,67692,1,8
432,160,67869,1,8
400,64,68045,1,8
304,32,68222,1,8
208,64,68398,5,12
176,160,68575,2,0,B|128:144,2,45,2|0|8
288,144,68928,2,0,B|336:128,2,45,2|0|8
256,240,69281,1,0
256,240,69457,1,8
256,240,69810,5,8
288,144,69986,2,0,B|336:128,2,45,2|0|8
176,160,70339,2,0,B|128:144,2,45,2|0|8
256,240,70692,1,0
256,240,70869,5,8
352,272,71045,1,8
448,240,71222,1,8
448,240,71398,5,2
400,144,71575,1,8
400,144,71751,5,2
304,144,71928,1,8
304,144,72104,5,2
256,240,72281,1,8
256,240,72457,5,2
352,240,72633,5,0
160,240,72810,1,0
304,144,72986,5,0
208,144,73163,1,0
352,48,73339,5,4
160,48,73516,1,4
448,48,73692,5,4
64,48,73869,1,4
64,48,74045,1,4
400,144,74398,5,8
480,144,74575,1,2
352,208,74751,5,0
400,144,74928,1,2
272,208,75104,5,8
352,208,75281,1,2
224,272,75457,5,0
272,208,75633,1,2
144,272,75810,5,8
224,272,75986,1,2
96,336,76163,5,0
144,272,76339,1,2
16,336,76516,5,8
96,336,76692,1,8
256,64,76869,5,4
112,144,77222,5,8
32,144,77399,1,2
160,208,77575,5,0
112,144,77751,1,2
240,208,77928,5,8
160,208,78105,1,2
288,272,78281,5,0
240,208,78457,1,2
368,272,78633,5,8
288,272,78810,1,2
416,336,78987,5,0
368,272,79163,1,2
496,336,79340,5,8
416,336,79516,1,8
256,64,79692,5,4
256,64,80045,5,0
304,144,80222,1,0
256,64,80398,5,0
208,160,80575,1,0
256,64,80751,5,0
304,176,80928,1,0
256,64,81104,5,0
208,192,81281,1,0
256,64,81457,5,0
304,208,81633,1,0
256,64,81810,5,0
208,224,81986,1,0
256,64,82163,5,0
304,240,82339,1,0
256,64,82516,5,12
256,64,83222,1,4
256,64,83751,1,2
256,64,83839,1,2
256,64,83928,1,8
256,192,84016,12,0,89575
