osu file format v8

[General]
AudioFilename: Heart of Witch.mp3
AudioLeadIn: 2000
PreviewTime: 431
Countdown: 0
SampleSet: Normal
StackLeniency: 0.6
Mode: 0
LetterboxInBreaks: 1

[Editor]
Bookmarks: 34490,40137
DistanceSpacing: 1
BeatDivisor: 4
GridSize: 8

[Metadata]
Title:Heart of Witch
Artist:Rex
Creator:yeahyeahyeahhh
Version:Easy
Source:DJMAX
Tags:inozuma Rokodo Roko-Don

[Difficulty]
HPDrainRate:4
CircleSize:3
OverallDifficulty:4
ApproachRate:4
SliderMultiplier:0.700000005960464
SliderTickRate:1

[Events]
//Background and Video events
Video,-800,"HeartOfWitchBga.avi"
0,0,"BG1.jpg"
//Break Periods
2,34715,38843
//Storyboard Layer 0 (Background)
//Storyboard Layer 1 (Fail)
//Storyboard Layer 2 (Pass)
//Storyboard Layer 3 (Foreground)
//Storyboard Sound Samples
//Background Colour Transformations
3,100,163,162,255

[TimingPoints]
634,352.941176470588,4,1,1,100,1,0
810,-100,4,2,1,100,0,0
2045,-100,4,1,1,100,0,0
2222,-100,4,2,0,100,0,0
3281,-100,4,1,0,100,0,0
5045,-100,4,2,2,100,0,0
6281,-100,4,2,2,100,0,1
8398,-100,4,1,2,100,0,1
9104,-100,4,2,2,100,0,1
11222,-100,4,1,2,100,0,1
11928,-100,4,2,1,100,0,0
34516,-100,4,2,1,49,0,0
39810,-100,4,2,1,100,0,0
48634,-100,4,2,0,80,0,0
48986,-100,4,2,0,70,0,0
49339,-100,4,2,0,60,0,0
49692,-100,4,2,0,50,0,0
50398,-100,4,2,0,60,0,0
50751,-100,4,2,0,70,0,0
51104,-100,4,2,0,80,0,0
51457,-100,4,2,1,100,0,0
55692,-100,4,1,0,100,0,0
57104,-100,4,2,1,100,0,0
61163,-100,4,1,0,100,0,0
62575,-100,4,2,1,100,0,0
72633,-100,4,1,1,100,0,0
74045,-100,4,2,0,100,0,1
74222,-100,4,2,1,100,0,1
84016,-100,4,2,1,100,0,0
84633,-100,4,2,1,91,0,0
85339,-100,4,2,1,80,0,0
86045,-100,4,2,1,65,0,0
86751,-100,4,2,1,51,0,0
87457,-100,4,2,1,36,0,0
88163,-100,4,2,1,20,0,0
88869,-100,4,2,1,10,0,0
89575,-100,4,2,1,0,0,0

[Colours]
Combo1 : 208,50,208
Combo2 : 255,6,13 CCombo1 : 208,50,208

[HitObjects]
152,232,634,2,0,B|176:312|256:352|344:296|361:225,1,280.000002384186
480,64,3104,6,0,B|400:32,1,70.0000005960464,2|4
256,88,4163,1,0
96,38,4869,2,0,B|32:64,3,70.0000005960464,0|2|2|2
48,136,6281,6,0,B|0:232|8:360|192:392|272:288,1,420.000003576278,4|0
408,248,9104,6,0,B|456:152|448:24|264:-8|184:96,1,420.000003576278,4|0
200,232,11928,6,0,B|80:232,2,105.00000089407,8|8|4
256,192,13339,6,8,B|256:72,2,105.00000089407,8|8|4
312,232,14751,6,0,B|432:232,2,105.00000089407,8|8|4
256,192,16163,12,8,17575
120,192,18633,6,0,B|176:136,1,70.0000005960464,8|4
392,192,20045,2,0,B|336:136,1,70.0000005960464,8|4
256,336,21457,1,8
256,192,21810,12,4,23222
48,192,23928,5,2
184,192,24633,1,2
112,304,25339,1,2
256,304,26045,6,0,B|408:304,1,140.000001192093,4|2
328,192,27457,1,2
464,192,28163,1,2
400,72,28869,6,8,B|248:48,1,140.000001192093,4|2
128,32,30281,2,8,B|40:32|16:112,1,140.000001192093,2|2
112,208,31692,6,8,B|256:208,1,140.000001192093,4|2
392,208,33104,1,0
256,168,33810,6,0,B|256:120,4,35.0000002980232,2|0|8|0|4
48,192,40163,5,8
120,192,40516,1,2
144,256,40869,2,0,B|216:288,1,70.0000005960464,2|2
256,240,41575,5,8
256,240,41928,2,0,B|256:160,2,70.0000005960464,2|2|2
304,284,42986,6,0,B|368:256,1,70.0000005960464,8|2
392,192,43691,1,2
464,192,44044,1,2
464,120,44398,6,0,B|248:72,1,210.000001788139,8|2
192,64,45810,1,4
24,192,46869,5,2
24,192,47222,1,8
152,296,47928,5,2
152,296,48281,1,2
152,296,48633,2,0,B|256:352|368:288,1,210.000001788139,4|2
416,264,50045,2,0,B|480:320,4,70.0000005960464,0|2|0|2|4
256,128,52516,5,4
256,128,52869,1,8
96,264,53928,6,0,B|32:320,1,70.0000005960464,4|8
256,304,55339,5,4
256,192,55692,12,8,57104
256,40,58163,5,4
256,40,58516,2,0,B|144:104|240:216,1,210.000001788139,8|4
288,256,59928,2,8,B|304:312|248:360,2,105.00000089407,8|8|4
256,192,61339,12,8,62751
56,128,63457,6,0,B|8:176|112:192|56:264,1,140.000001192093,8|8
184,320,64869,5,8
320,320,65575,1,8
440,256,66281,6,8,B|489:193|385:177|433:129,1,140.000001192093,8|8
408,64,67339,2,8,B|480:32,2,70.0000005960464
336,48,68398,5,8
176,48,69104,1,8
256,160,69810,1,8
256,160,70516,1,8
384,184,71222,6,8,B|352:248,1,70.0000005960464
288,280,71928,2,8,B|208:280,1,70.0000005960464
159,246,72633,2,0,B|128:184,5,70.0000005960464,0|0|0|0|4|8
64,312,75104,5,8
208,336,75810,1,8
256,208,76516,6,8,B|256:128,2,70.0000005960464,8|4|8
304,336,77928,5,8
448,312,78634,1,8
352,246,79339,2,0,B|384:184,2,70.0000005960464,8|4|8
288,248,80398,5,8
224,248,80751,1,8
224,176,81104,5,8
288,176,81457,1,8
288,104,81810,5,8
224,104,82163,1,8
256,40,82516,5,8
168,152,83222,1,8
344,152,83928,1,8
256,192,84016,12,0,89575
