osu file format v13

[General]
AudioFilename: Heart of Witch.mp3
AudioLeadIn: 0
PreviewTime: 23242
Countdown: 0
SampleSet: Soft
StackLeniency: 0.7
Mode: 3
LetterboxInBreaks: 0
SpecialStyle: 0
WidescreenStoryboard: 1

[Editor]
DistanceSpacing: 0.8
BeatDivisor: 8
GridSize: 32
TimelineZoom: 2.2

[Metadata]
Title:Heart of Witch
TitleUnicode:Heart of Witch
Artist:Rex
ArtistUnicode:Rex
Creator:nowsmart
Version:7K HD
Source:DJMAX
Tags:marirose Simple_Star Remillion_Cross
BeatmapID:440843
BeatmapSetID:184097

[Difficulty]
HPDrainRate:8
CircleSize:7
OverallDifficulty:7
ApproachRate:5
SliderMultiplier:1.4
SliderTickRate:1

[Events]
//Background and Video events
0,0,"BG.jpg",0,0
//Break Periods
//Storyboard Layer 0 (Background)
//Storyboard Layer 1 (Fail)
//Storyboard Layer 2 (Pass)
//Storyboard Layer 3 (Foreground)
//Storyboard Sound Samples
//Background Colour Transformations
3,100,163,162,255

[TimingPoints]
654,352.941176470588,4,2,0,100,1,0
23242,-100,4,2,0,100,0,1
34536,-100,4,2,0,100,0,0
51477,-100,4,2,0,100,0,1
62771,-100,4,2,0,100,0,0

[HitObjects]
475,192,301,5,0,0:0:0:30:OH00.wav
402,192,389,1,0,0:0:0:30:OH00.wav
329,192,477,1,0,0:0:0:30:OH00.wav
256,192,565,1,0,0:0:0:30:OH00.wav
182,192,654,1,0,0:0:0:30:OH00.wav
109,192,654,128,0,1359:0:0:0:40:normal-hitnormal.wav
36,192,1006,1,0,0:0:0:70:normal-hitclap.wav
256,192,1359,1,0,0:0:0:40:normal-hitnormal.wav
329,192,1359,1,0,0:0:0:40:normal-hitnormal.wav
109,192,1712,1,0,0:0:0:70:normal-hitclap.wav
329,192,1889,1,0,0:0:0:40:normal-hitnormal.wav
475,192,2065,1,0,0:0:0:40:normal-hitnormal.wav
36,192,2065,1,0,0:0:0:40:normal-hitnormal.wav
256,192,2242,1,0,0:0:0:40:normal-hitnormal.wav
402,192,2418,1,0,0:0:0:70:normal-hitclap.wav
182,192,2595,1,0,0:0:0:40:normal-hitnormal.wav
329,192,2771,1,0,0:0:0:40:normal-hitnormal.wav
109,192,2948,1,0,0:0:0:40:normal-hitnormal.wav
256,192,3124,1,0,0:0:0:70:normal-hitclap.wav
36,192,3301,1,0,0:0:0:30:OH00.wav
109,192,3389,1,0,0:0:0:30:OH00.wav
402,192,3477,128,0,4183:0:0:0:40:normal-hitnormal.wav
182,192,3477,1,0,0:0:0:30:OH00.wav
475,192,3477,1,0,0:0:0:40:normal-hitnormal.wav
329,192,3830,1,0,0:0:0:70:normal-hitclap.wav
109,192,4183,1,0,0:0:0:40:normal-hitnormal.wav
256,192,4183,1,0,0:0:0:40:normal-hitnormal.wav
182,192,4536,1,0,0:0:0:70:normal-hitclap.wav
36,192,4889,1,0,0:0:0:40:normal-hitnormal.wav
256,192,4889,1,0,0:0:0:40:normal-hitnormal.wav
475,192,4889,1,0,0:0:0:40:normal-hitnormal.wav
109,192,5242,1,0,0:0:0:70:normal-hitclap.wav
182,192,5242,1,0,0:0:0:40:normal-hitnormal.wav
402,192,5418,1,0,0:0:0:40:normal-hitnormal.wav
475,192,5418,1,0,0:0:0:70:normal-hitclap.wav
36,192,5771,1,0,0:0:0:70:normal-hitclap.wav
109,192,5771,1,0,0:0:0:40:normal-hitnormal.wav
402,192,5948,1,0,0:0:0:40:normal-hitnormal.wav
329,192,5948,1,0,0:0:0:70:normal-hitclap.wav
475,192,5948,128,0,6301:0:0:0:40:normal-hitnormal.wav
109,192,6301,1,0,0:0:0:40:normal-hitnormal.wav
182,192,6301,1,0,0:0:0:40:normal-hitnormal.wav
329,192,6477,1,0,0:0:0:30:OH00.wav
402,192,6565,1,0,0:0:0:30:OH00.wav
329,192,6653,1,0,0:0:0:30:OH00.wav
402,192,6830,1,0,0:0:0:40:normal-hitnormal.wav
475,192,6830,1,0,0:0:0:40:normal-hitnormal.wav
182,192,7006,1,0,0:0:0:30:OH00.wav
109,192,7095,1,0,0:0:0:30:OH00.wav
182,192,7183,1,0,0:0:0:30:OH00.wav
256,192,7359,1,0,0:0:0:40:normal-hitnormal.wav
329,192,7359,1,0,0:0:0:40:normal-hitnormal.wav
402,192,7536,1,0,0:0:0:30:OH00.wav
329,192,7624,1,0,0:0:0:30:OH00.wav
402,192,7712,1,0,0:0:0:30:OH00.wav
182,192,7889,1,0,0:0:0:40:normal-hitnormal.wav
256,192,7889,1,0,0:0:0:40:normal-hitnormal.wav
109,192,8065,1,0,0:0:0:30:OH00.wav
182,192,8153,1,0,0:0:0:30:OH00.wav
109,192,8242,1,0,0:0:0:30:OH00.wav
402,192,8418,1,0,0:0:0:40:normal-hitnormal.wav
256,192,8418,1,0,0:0:0:40:normal-hitnormal.wav
475,192,8418,1,0,0:0:0:40:normal-hitnormal.wav
329,192,8771,1,0,0:0:0:40:normal-hitnormal.wav
182,192,8771,1,0,0:0:0:40:normal-hitnormal.wav
402,192,8771,1,0,0:0:0:40:normal-hitnormal.wav
256,192,9124,1,0,0:0:0:40:normal-hitnormal.wav
109,192,9124,1,0,0:0:0:40:normal-hitnormal.wav
36,192,9124,1,0,0:0:0:40:normal-hitnormal.wav
329,192,9301,1,0,0:0:0:30:OH00.wav
475,192,9389,1,0,0:0:0:30:OH00.wav
329,192,9477,1,0,0:0:0:30:OH00.wav
256,192,9653,1,0,0:0:0:40:normal-hitnormal.wav
402,192,9653,1,0,0:0:0:40:normal-hitnormal.wav
182,192,9830,1,0,0:0:0:30:OH00.wav
36,192,9918,1,0,0:0:0:30:OH00.wav
182,192,10006,1,0,0:0:0:30:OH00.wav
402,192,10183,1,0,0:0:0:40:normal-hitnormal.wav
475,192,10183,1,0,0:0:0:40:normal-hitnormal.wav
329,192,10359,1,0,0:0:0:30:OH00.wav
402,192,10448,1,0,0:0:0:30:OH00.wav
329,192,10536,1,0,0:0:0:30:OH00.wav
36,192,10712,1,0,0:0:0:40:normal-hitnormal.wav
109,192,10712,1,0,0:0:0:40:normal-hitnormal.wav
182,192,10889,1,0,0:0:0:30:OH00.wav
109,192,10977,1,0,0:0:0:30:OH00.wav
182,192,11065,1,0,0:0:0:30:OH00.wav
256,192,11242,1,0,0:0:0:40:normal-hitnormal.wav
402,192,11242,1,0,0:0:0:40:normal-hitnormal.wav
475,192,11242,1,0,0:0:0:40:normal-hitnormal.wav
182,192,11595,1,0,0:0:0:40:normal-hitnormal.wav
329,192,11595,1,0,0:0:0:40:normal-hitnormal.wav
109,192,11595,1,0,0:0:0:40:normal-hitnormal.wav
256,192,11948,1,0,0:0:0:40:normal-hitnormal.wav
402,192,11948,1,0,0:0:0:40:normal-hitnormal.wav
475,192,11948,1,0,0:0:0:70:normal-hitclap.wav
256,192,12124,1,0,0:0:0:40:normal-hitnormal.wav
256,192,12301,1,0,0:0:0:40:normal-hitnormal.wav
329,192,12477,1,0,0:0:0:40:normal-hitnormal.wav
36,192,12477,1,0,0:0:0:70:normal-hitclap.wav
109,192,12477,1,0,0:0:0:40:normal-hitnormal.wav
256,192,12653,1,0,0:0:0:40:normal-hitnormal.wav
256,192,12830,1,0,0:0:0:40:normal-hitnormal.wav
256,192,13006,1,0,0:0:0:40:normal-hitnormal.wav
109,192,13006,128,0,13359:0:0:0:40:normal-hitnormal.wav
402,192,13006,1,0,0:0:0:70:normal-hitclap.wav
475,192,13006,1,0,0:0:0:70:normal-hitclap.wav
182,192,13359,1,0,0:0:0:40:normal-hitnormal.wav
329,192,13359,1,0,0:0:0:40:normal-hitnormal.wav
402,192,13359,1,0,0:0:0:70:normal-hitclap.wav
182,192,13536,1,0,0:0:0:40:normal-hitnormal.wav
182,192,13712,1,0,0:0:0:40:normal-hitnormal.wav
256,192,13889,1,0,0:0:0:40:normal-hitnormal.wav
36,192,13889,1,0,0:0:0:70:normal-hitclap.wav
109,192,13889,1,0,0:0:0:40:normal-hitnormal.wav
182,192,14065,1,0,0:0:0:40:normal-hitnormal.wav
182,192,14242,1,0,0:0:0:40:normal-hitnormal.wav
182,192,14418,1,0,0:0:0:40:normal-hitnormal.wav
329,192,14418,1,0,0:0:0:70:normal-hitclap.wav
402,192,14418,1,0,0:0:0:70:normal-hitclap.wav
36,192,14418,128,0,14771:0:0:0:40:normal-hitnormal.wav
256,192,14771,1,0,0:0:0:40:normal-hitnormal.wav
329,192,14771,1,0,0:0:0:70:normal-hitclap.wav
109,192,14771,1,0,0:0:0:40:normal-hitnormal.wav
109,192,14948,1,0,0:0:0:40:normal-hitnormal.wav
109,192,15124,1,0,0:0:0:40:normal-hitnormal.wav
36,192,15301,1,0,0:0:0:40:normal-hitnormal.wav
402,192,15301,1,0,0:0:0:40:normal-hitnormal.wav
475,192,15301,1,0,0:0:0:70:normal-hitclap.wav
109,192,15477,1,0,0:0:0:40:normal-hitnormal.wav
109,192,15653,1,0,0:0:0:40:normal-hitnormal.wav
109,192,15830,1,0,0:0:0:40:normal-hitnormal.wav
256,192,15830,1,0,0:0:0:70:normal-hitclap.wav
329,192,15830,1,0,0:0:0:70:normal-hitclap.wav
182,192,15830,128,0,16183:0:0:0:40:normal-hitnormal.wav
475,192,16183,1,0,0:0:0:40:normal-hitnormal.wav
402,192,16271,1,0,0:0:0:40:normal-hitnormal.wav
329,192,16359,1,0,0:0:0:40:normal-hitnormal.wav
256,192,16448,1,0,0:0:0:40:normal-hitnormal.wav
402,192,16536,1,0,0:0:0:90:SD0010.wav
329,192,16624,1,0,0:0:0:40:normal-hitnormal.wav
256,192,16712,1,0,0:0:0:40:normal-hitnormal.wav
182,192,16801,1,0,0:0:0:40:normal-hitnormal.wav
329,192,16889,1,0,0:0:0:40:normal-hitnormal.wav
256,192,16977,1,0,0:0:0:40:normal-hitnormal.wav
182,192,17065,1,0,0:0:0:40:normal-hitnormal.wav
109,192,17153,1,0,0:0:0:40:normal-hitnormal.wav
256,192,17242,1,0,0:0:0:90:SD0010.wav
182,192,17330,1,0,0:0:0:40:normal-hitnormal.wav
109,192,17418,1,0,0:0:0:40:normal-hitnormal.wav
36,192,17506,1,0,0:0:0:40:normal-hitnormal.wav
256,192,17595,1,0,0:0:0:40:normal-hitnormal.wav
329,192,17595,1,0,0:0:0:70:normal-hitclap.wav
402,192,17595,1,0,0:0:0:40:normal-hitnormal.wav
256,192,17771,1,0,0:0:0:40:normal-hitnormal.wav
256,192,17948,1,0,0:0:0:40:normal-hitnormal.wav
329,192,18124,1,0,0:0:0:40:normal-hitnormal.wav
109,192,18124,1,0,0:0:0:40:normal-hitnormal.wav
182,192,18124,1,0,0:0:0:70:normal-hitclap.wav
256,192,18301,1,0,0:0:0:40:normal-hitnormal.wav
256,192,18477,1,0,0:0:0:40:normal-hitnormal.wav
256,192,18653,1,0,0:0:0:40:normal-hitnormal.wav
402,192,18653,128,0,19006:0:0:0:40:normal-hitnormal.wav
329,192,18653,1,0,0:0:0:70:normal-hitclap.wav
475,192,18653,1,0,0:0:0:70:normal-hitclap.wav
329,192,19006,1,0,0:0:0:40:normal-hitnormal.wav
36,192,19006,1,0,0:0:0:40:normal-hitnormal.wav
109,192,19006,1,0,0:0:0:70:normal-hitclap.wav
329,192,19183,1,0,0:0:0:40:normal-hitnormal.wav
329,192,19359,1,0,0:0:0:40:normal-hitnormal.wav
402,192,19536,1,0,0:0:0:40:normal-hitnormal.wav
182,192,19536,1,0,0:0:0:70:normal-hitclap.wav
256,192,19536,1,0,0:0:0:40:normal-hitnormal.wav
329,192,19712,1,0,0:0:0:40:normal-hitnormal.wav
329,192,19889,1,0,0:0:0:40:normal-hitnormal.wav
329,192,20065,1,0,0:0:0:40:normal-hitnormal.wav
36,192,20065,1,0,0:0:0:70:normal-hitclap.wav
109,192,20065,1,0,0:0:0:70:normal-hitclap.wav
475,192,20065,128,0,20418:0:0:0:40:normal-hitnormal.wav
402,192,20418,1,0,0:0:0:40:normal-hitnormal.wav
182,192,20418,1,0,0:0:0:40:normal-hitnormal.wav
329,192,20418,1,0,0:0:0:70:normal-hitclap.wav
109,192,20506,1,0,0:0:0:40:normal-hitnormal.wav
182,192,20595,1,0,0:0:0:40:normal-hitnormal.wav
256,192,20683,1,0,0:0:0:40:normal-hitnormal.wav
329,192,20771,1,0,0:0:0:40:normal-hitnormal.wav
402,192,20859,1,0,0:0:0:40:normal-hitnormal.wav
109,192,20948,1,0,0:0:0:70:normal-hitclap.wav
36,192,20948,1,0,0:0:0:40:normal-hitnormal.wav
329,192,20948,1,0,0:0:0:40:normal-hitnormal.wav
402,192,21124,1,0,0:0:0:40:normal-hitnormal.wav
402,192,21301,1,0,0:0:0:40:normal-hitnormal.wav
402,192,21477,1,0,0:0:0:40:normal-hitnormal.wav
329,192,21477,1,0,0:0:0:70:normal-hitclap.wav
256,192,21477,128,0,21830:0:0:0:40:normal-hitnormal.wav
182,192,21477,1,0,0:0:0:70:normal-hitclap.wav
36,192,21830,1,0,0:0:0:40:normal-hitnormal.wav
109,192,21918,1,0,0:0:0:40:normal-hitnormal.wav
182,192,22006,1,0,0:0:0:40:normal-hitnormal.wav
256,192,22095,1,0,0:0:0:40:normal-hitnormal.wav
109,192,22183,1,0,0:0:0:90:SD0010.wav
182,192,22271,1,0,0:0:0:40:normal-hitnormal.wav
256,192,22359,1,0,0:0:0:40:normal-hitnormal.wav
329,192,22448,1,0,0:0:0:40:normal-hitnormal.wav
182,192,22536,1,0,0:0:0:40:normal-hitnormal.wav
256,192,22624,1,0,0:0:0:40:normal-hitnormal.wav
329,192,22712,1,0,0:0:0:40:normal-hitnormal.wav
402,192,22801,1,0,0:0:0:40:normal-hitnormal.wav
256,192,22889,1,0,0:0:0:90:SD0010.wav
329,192,22977,1,0,0:0:0:40:normal-hitnormal.wav
402,192,23065,1,0,0:0:0:40:normal-hitnormal.wav
475,192,23153,1,0,0:0:0:40:normal-hitnormal.wav
256,192,23242,128,0,23595:0:0:0:40:normal-hitnormal.wav
402,192,23242,128,0,23595:0:0:0:40:normal-hitnormal.wav
36,192,23595,1,0,0:0:0:70:normal-hitclap.wav
182,192,23683,1,0,0:0:0:40:normal-hitnormal.wav
256,192,23771,1,0,0:0:0:40:normal-hitnormal.wav
109,192,23859,1,0,0:0:0:40:normal-hitnormal.wav
402,192,23948,1,0,0:0:0:40:normal-hitnormal.wav
329,192,24036,1,0,0:0:0:40:normal-hitnormal.wav
182,192,24124,1,0,0:0:0:40:normal-hitnormal.wav
475,192,24212,1,0,0:0:0:40:normal-hitnormal.wav
402,192,24301,1,0,0:0:0:70:normal-hitclap.wav
256,192,24389,1,0,0:0:0:40:normal-hitnormal.wav
36,192,24477,1,0,0:0:0:40:normal-hitnormal.wav
109,192,24565,1,0,0:0:0:40:normal-hitnormal.wav
329,192,24653,1,0,0:0:0:40:normal-hitnormal.wav
256,192,24742,1,0,0:0:0:40:normal-hitnormal.wav
402,192,24830,1,0,0:0:0:40:normal-hitnormal.wav
182,192,24918,1,0,0:0:0:40:normal-hitnormal.wav
256,192,25006,1,0,0:0:0:70:normal-hitclap.wav
36,192,25095,1,0,0:0:0:40:normal-hitnormal.wav
475,192,25183,1,0,0:0:0:40:normal-hitnormal.wav
182,192,25271,1,0,0:0:0:40:normal-hitnormal.wav
109,192,25359,1,0,0:0:0:40:normal-hitnormal.wav
329,192,25448,1,0,0:0:0:40:normal-hitnormal.wav
402,192,25536,1,0,0:0:0:40:normal-hitnormal.wav
475,192,25624,1,0,0:0:0:40:normal-hitnormal.wav
256,192,25712,1,0,0:0:0:70:normal-hitclap.wav
182,192,25801,1,0,0:0:0:40:normal-hitnormal.wav
109,192,25889,1,0,0:0:0:40:normal-hitnormal.wav
36,192,25977,1,0,0:0:0:40:normal-hitnormal.wav
109,192,26065,128,0,26418:0:0:0:40:normal-hitnormal.wav
256,192,26065,128,0,26418:0:0:0:40:normal-hitnormal.wav
475,192,26418,1,0,0:0:0:70:normal-hitclap.wav
402,192,26506,1,0,0:0:0:40:normal-hitnormal.wav
256,192,26595,1,0,0:0:0:40:normal-hitnormal.wav
36,192,26683,1,0,0:0:0:40:normal-hitnormal.wav
182,192,26771,1,0,0:0:0:40:normal-hitnormal.wav
256,192,26859,1,0,0:0:0:40:normal-hitnormal.wav
109,192,26948,1,0,0:0:0:40:normal-hitnormal.wav
329,192,27036,1,0,0:0:0:40:normal-hitnormal.wav
475,192,27124,1,0,0:0:0:70:normal-hitclap.wav
402,192,27212,1,0,0:0:0:40:normal-hitnormal.wav
256,192,27301,1,0,0:0:0:40:normal-hitnormal.wav
109,192,27389,1,0,0:0:0:40:normal-hitnormal.wav
329,192,27477,1,0,0:0:0:40:normal-hitnormal.wav
475,192,27565,1,0,0:0:0:40:normal-hitnormal.wav
402,192,27653,1,0,0:0:0:40:normal-hitnormal.wav
109,192,27742,1,0,0:0:0:40:normal-hitnormal.wav
36,192,27830,1,0,0:0:0:70:normal-hitclap.wav
182,192,27918,1,0,0:0:0:40:normal-hitnormal.wav
256,192,28006,1,0,0:0:0:40:normal-hitnormal.wav
402,192,28095,1,0,0:0:0:40:normal-hitnormal.wav
475,192,28183,1,0,0:0:0:40:normal-hitnormal.wav
182,192,28271,1,0,0:0:0:40:normal-hitnormal.wav
109,192,28359,1,0,0:0:0:40:normal-hitnormal.wav
36,192,28448,1,0,0:0:0:40:normal-hitnormal.wav
256,192,28536,1,0,0:0:0:70:normal-hitclap.wav
329,192,28624,1,0,0:0:0:40:normal-hitnormal.wav
402,192,28712,1,0,0:0:0:40:normal-hitnormal.wav
475,192,28801,1,0,0:0:0:40:normal-hitnormal.wav
329,192,28889,128,0,29242:0:0:0:40:normal-hitnormal.wav
402,192,28889,128,0,29242:0:0:0:40:normal-hitnormal.wav
109,192,29242,1,0,0:0:0:70:normal-hitclap.wav
182,192,29330,1,0,0:0:0:40:normal-hitnormal.wav
329,192,29418,1,0,0:0:0:40:normal-hitnormal.wav
36,192,29506,1,0,0:0:0:40:normal-hitnormal.wav
256,192,29595,1,0,0:0:0:40:normal-hitnormal.wav
182,192,29683,1,0,0:0:0:40:normal-hitnormal.wav
475,192,29771,1,0,0:0:0:40:normal-hitnormal.wav
109,192,29859,1,0,0:0:0:40:normal-hitnormal.wav
402,192,29948,1,0,0:0:0:70:normal-hitclap.wav
329,192,30036,1,0,0:0:0:40:normal-hitnormal.wav
182,192,30124,1,0,0:0:0:40:normal-hitnormal.wav
36,192,30212,1,0,0:0:0:40:normal-hitnormal.wav
109,192,30301,1,0,0:0:0:40:normal-hitnormal.wav
402,192,30389,1,0,0:0:0:40:normal-hitnormal.wav
256,192,30477,1,0,0:0:0:40:normal-hitnormal.wav
329,192,30565,1,0,0:0:0:40:normal-hitnormal.wav
475,192,30653,1,0,0:0:0:70:normal-hitclap.wav
109,192,30742,1,0,0:0:0:40:normal-hitnormal.wav
182,192,30830,1,0,0:0:0:40:normal-hitnormal.wav
36,192,30918,1,0,0:0:0:40:normal-hitnormal.wav
329,192,31006,1,0,0:0:0:40:normal-hitnormal.wav
256,192,31095,1,0,0:0:0:40:normal-hitnormal.wav
402,192,31183,1,0,0:0:0:40:normal-hitnormal.wav
475,192,31271,1,0,0:0:0:40:normal-hitnormal.wav
256,192,31359,1,0,0:0:0:70:normal-hitclap.wav
182,192,31448,1,0,0:0:0:40:normal-hitnormal.wav
109,192,31536,1,0,0:0:0:40:normal-hitnormal.wav
36,192,31624,1,0,0:0:0:40:normal-hitnormal.wav
109,192,31712,128,0,32065:0:0:0:40:normal-hitnormal.wav
182,192,31712,128,0,32065:0:0:0:40:normal-hitnormal.wav
475,192,32065,1,0,0:0:0:70:normal-hitclap.wav
329,192,32153,1,0,0:0:0:40:normal-hitnormal.wav
256,192,32242,1,0,0:0:0:40:normal-hitnormal.wav
109,192,32330,1,0,0:0:0:40:normal-hitnormal.wav
329,192,32418,1,0,0:0:0:40:normal-hitnormal.wav
182,192,32506,1,0,0:0:0:40:normal-hitnormal.wav
256,192,32595,1,0,0:0:0:40:normal-hitnormal.wav
36,192,32683,1,0,0:0:0:40:normal-hitnormal.wav
329,192,32771,1,0,0:0:0:70:normal-hitclap.wav
475,192,32859,1,0,0:0:0:40:normal-hitnormal.wav
402,192,32948,1,0,0:0:0:40:normal-hitnormal.wav
256,192,33036,1,0,0:0:0:40:normal-hitnormal.wav
109,192,33124,1,0,0:0:0:40:normal-hitnormal.wav
182,192,33212,1,0,0:0:0:40:normal-hitnormal.wav
329,192,33301,1,0,0:0:0:40:normal-hitnormal.wav
36,192,33389,1,0,0:0:0:40:normal-hitnormal.wav
256,192,33477,1,0,0:0:0:70:normal-hitclap.wav
182,192,33565,1,0,0:0:0:40:normal-hitnormal.wav
402,192,33653,1,0,0:0:0:40:normal-hitnormal.wav
109,192,33742,1,0,0:0:0:40:normal-hitnormal.wav
329,192,33830,1,0,0:0:0:40:normal-hitnormal.wav
402,192,33918,1,0,0:0:0:40:normal-hitnormal.wav
182,192,34006,1,0,0:0:0:40:normal-hitnormal.wav
36,192,34095,1,0,0:0:0:40:normal-hitnormal.wav
256,192,34183,1,0,0:0:0:70:normal-hitclap.wav
329,192,34271,1,0,0:0:0:40:normal-hitnormal.wav
402,192,34359,1,0,0:0:0:40:normal-hitnormal.wav
475,192,34448,1,0,0:0:0:40:normal-hitnormal.wav
182,192,34536,128,0,34712:0:0:0:40:normal-hitnormal.wav
256,192,34712,128,0,35065:0:0:0:40:normal-hitnormal.wav
402,192,34712,128,0,35065:0:0:0:30:OH00.wav
109,192,35065,1,0,0:0:0:30:OH00.wav
36,192,35153,1,0,0:0:0:40:normal-hitnormal.wav
109,192,35242,1,0,0:0:0:30:OH00.wav
182,192,35330,1,0,0:0:0:40:normal-hitnormal.wav
475,192,35418,1,0,0:0:0:30:OH00.wav
402,192,35506,1,0,0:0:0:40:normal-hitnormal.wav
329,192,35595,1,0,0:0:0:30:OH00.wav
36,192,35683,1,0,0:0:0:40:normal-hitnormal.wav
109,192,35771,1,0,0:0:0:30:OH00.wav
182,192,35859,1,0,0:0:0:40:normal-hitnormal.wav
402,192,35948,1,0,0:0:0:30:OH00.wav
109,192,36124,1,0,0:0:0:40:normal-hitnormal.wav
329,192,36301,1,0,0:0:0:30:OH00.wav
256,192,36477,128,0,36830:0:0:0:30:OH00.wav
475,192,36830,1,0,0:0:0:40:normal-hitnormal.wav
402,192,36918,1,0,0:0:0:40:normal-hitnormal.wav
329,192,37006,1,0,0:0:0:40:normal-hitnormal.wav
256,192,37095,1,0,0:0:0:40:normal-hitnormal.wav
182,192,37183,1,0,0:0:0:40:normal-hitnormal.wav
109,192,37271,1,0,0:0:0:40:normal-hitnormal.wav
329,192,37359,128,0,37536:0:0:0:40:normal-hitnormal.wav
256,192,37536,128,0,37889:0:0:0:40:normal-hitnormal.wav
109,192,37536,128,0,37889:0:0:0:30:OH00.wav
475,192,37889,1,0,0:0:0:30:OH00.wav
402,192,37977,1,0,0:0:0:40:normal-hitnormal.wav
329,192,38065,1,0,0:0:0:30:OH00.wav
256,192,38153,1,0,0:0:0:40:normal-hitnormal.wav
36,192,38242,1,0,0:0:0:30:OH00.wav
109,192,38330,1,0,0:0:0:40:normal-hitnormal.wav
182,192,38418,1,0,0:0:0:30:OH00.wav
256,192,38506,1,0,0:0:0:40:normal-hitnormal.wav
329,192,38595,1,0,0:0:0:30:OH00.wav
402,192,38683,1,0,0:0:0:40:normal-hitnormal.wav
475,192,38771,128,0,39124:0:0:0:30:OH00.wav
256,192,39124,1,0,0:0:0:30:OH00.wav
182,192,39212,1,0,0:0:0:40:normal-hitnormal.wav
109,192,39301,1,0,0:0:0:40:normal-hitnormal.wav
36,192,39389,1,0,0:0:0:40:normal-hitnormal.wav
329,192,39477,1,0,0:0:0:30:OH00.wav
256,192,39565,1,0,0:0:0:40:normal-hitnormal.wav
182,192,39653,1,0,0:0:0:40:normal-hitnormal.wav
109,192,39742,1,0,0:0:0:40:normal-hitnormal.wav
402,192,39830,1,0,0:0:0:30:OH00.wav
329,192,39918,1,0,0:0:0:40:normal-hitnormal.wav
256,192,40006,1,0,0:0:0:40:normal-hitnormal.wav
182,192,40095,1,0,0:0:0:40:normal-hitnormal.wav
329,192,40183,128,0,40359:0:0:0:40:normal-hitnormal.wav
402,192,40183,1,0,0:0:0:40:normal-hitnormal.wav
109,192,40183,1,0,0:0:0:40:normal-hitnormal.wav
256,192,40359,128,0,40712:0:0:0:40:normal-hitnormal.wav
109,192,40359,128,0,40712:0:0:0:30:OH00.wav
402,192,40712,1,0,0:0:0:30:OH00.wav
475,192,40801,1,0,0:0:0:40:normal-hitnormal.wav
402,192,40889,1,0,0:0:0:30:OH00.wav
329,192,40977,1,0,0:0:0:40:normal-hitnormal.wav
36,192,41065,1,0,0:0:0:30:OH00.wav
109,192,41153,1,0,0:0:0:40:normal-hitnormal.wav
182,192,41242,1,0,0:0:0:30:OH00.wav
475,192,41330,1,0,0:0:0:40:normal-hitnormal.wav
402,192,41418,1,0,0:0:0:40:normal-hitnormal.wav
329,192,41506,1,0,0:0:0:40:normal-hitnormal.wav
182,192,41595,1,0,0:0:0:30:OH00.wav
402,192,41771,1,0,0:0:0:40:normal-hitnormal.wav
109,192,41948,1,0,0:0:0:30:OH00.wav
256,192,42124,128,0,42477:0:0:0:30:OH00.wav
36,192,42477,1,0,0:0:0:40:normal-hitnormal.wav
109,192,42565,1,0,0:0:0:40:normal-hitnormal.wav
182,192,42653,1,0,0:0:0:40:normal-hitnormal.wav
256,192,42742,1,0,0:0:0:40:normal-hitnormal.wav
329,192,42830,1,0,0:0:0:40:normal-hitnormal.wav
402,192,42918,1,0,0:0:0:40:normal-hitnormal.wav
182,192,43006,128,0,43183:0:0:0:40:normal-hitnormal.wav
475,192,43183,128,0,43536:0:0:0:30:OH00.wav
256,192,43183,128,0,43536:0:0:0:40:normal-hitnormal.wav
36,192,43536,1,0,0:0:0:30:OH00.wav
109,192,43624,1,0,0:0:0:40:normal-hitnormal.wav
182,192,43712,1,0,0:0:0:30:OH00.wav
256,192,43801,1,0,0:0:0:40:normal-hitnormal.wav
475,192,43889,1,0,0:0:0:30:OH00.wav
402,192,43977,1,0,0:0:0:40:normal-hitnormal.wav
329,192,44065,1,0,0:0:0:30:OH00.wav
256,192,44153,1,0,0:0:0:40:normal-hitnormal.wav
182,192,44242,1,0,0:0:0:30:OH00.wav
109,192,44330,1,0,0:0:0:40:normal-hitnormal.wav
36,192,44418,128,0,44771:0:0:0:30:OH00.wav
256,192,44771,1,0,0:0:0:30:OH00.wav
329,192,44859,1,0,0:0:0:40:normal-hitnormal.wav
402,192,44948,1,0,0:0:0:40:normal-hitnormal.wav
475,192,45036,1,0,0:0:0:40:normal-hitnormal.wav
182,192,45124,1,0,0:0:0:30:OH00.wav
256,192,45212,1,0,0:0:0:40:normal-hitnormal.wav
329,192,45301,1,0,0:0:0:40:normal-hitnormal.wav
402,192,45389,1,0,0:0:0:40:normal-hitnormal.wav
109,192,45477,1,0,0:0:0:30:OH00.wav
182,192,45565,1,0,0:0:0:40:normal-hitnormal.wav
256,192,45653,1,0,0:0:0:40:normal-hitnormal.wav
329,192,45742,1,0,0:0:0:40:normal-hitnormal.wav
182,192,45830,128,0,46006:0:0:0:40:normal-hitnormal.wav
109,192,45830,1,0,0:0:0:40:normal-hitnormal.wav
402,192,45830,1,0,0:0:0:40:normal-hitnormal.wav
256,192,46006,128,0,46359:0:0:0:40:normal-hitnormal.wav
402,192,46006,128,0,46359:0:0:0:30:OH00.wav
182,192,46359,1,0,0:0:0:30:OH00.wav
109,192,46448,1,0,0:0:0:40:normal-hitnormal.wav
36,192,46536,1,0,0:0:0:30:OH00.wav
329,192,46624,1,0,0:0:0:40:normal-hitnormal.wav
402,192,46712,1,0,0:0:0:30:OH00.wav
475,192,46801,1,0,0:0:0:40:normal-hitnormal.wav
109,192,46889,1,0,0:0:0:30:OH00.wav
182,192,46977,1,0,0:0:0:40:normal-hitnormal.wav
256,192,47065,1,0,0:0:0:30:OH00.wav
329,192,47153,1,0,0:0:0:40:normal-hitnormal.wav
402,192,47242,128,0,47595:0:0:0:30:OH00.wav
109,192,47595,1,0,0:0:0:30:OH00.wav
182,192,47683,1,0,0:0:0:40:normal-hitnormal.wav
256,192,47771,1,0,0:0:0:40:normal-hitnormal.wav
329,192,47859,1,0,0:0:0:40:normal-hitnormal.wav
475,192,47948,1,0,0:0:0:30:OH00.wav
402,192,48036,1,0,0:0:0:40:normal-hitnormal.wav
329,192,48124,1,0,0:0:0:40:normal-hitnormal.wav
256,192,48212,1,0,0:0:0:40:normal-hitnormal.wav
36,192,48301,1,0,0:0:0:30:OH00.wav
109,192,48389,1,0,0:0:0:40:normal-hitnormal.wav
182,192,48477,1,0,0:0:0:40:normal-hitnormal.wav
256,192,48565,1,0,0:0:0:40:normal-hitnormal.wav
475,192,48653,1,0,0:0:0:70:normal-hitclap.wav
109,192,48742,1,0,0:0:0:40:normal-hitnormal.wav
402,192,48830,1,0,0:0:0:40:normal-hitnormal.wav
182,192,48918,1,0,0:0:0:40:normal-hitnormal.wav
329,192,49006,1,0,0:0:0:70:normal-hitclap.wav
256,192,49095,1,0,0:0:0:40:normal-hitnormal.wav
109,192,49183,1,0,0:0:0:40:normal-hitnormal.wav
329,192,49271,1,0,0:0:0:40:normal-hitnormal.wav
182,192,49359,1,0,0:0:0:70:normal-hitclap.wav
402,192,49448,1,0,0:0:0:40:normal-hitnormal.wav
36,192,49536,1,0,0:0:0:40:normal-hitnormal.wav
475,192,49624,1,0,0:0:0:40:normal-hitnormal.wav
182,192,49712,1,0,0:0:0:70:normal-hitclap.wav
402,192,49801,1,0,0:0:0:40:normal-hitnormal.wav
256,192,49889,1,0,0:0:0:70:normal-hitclap.wav
329,192,49977,1,0,0:0:0:40:normal-hitnormal.wav
109,192,50065,1,0,0:0:0:70:normal-hitclap.wav
402,192,50153,1,0,0:0:0:40:normal-hitnormal.wav
182,192,50242,1,0,0:0:0:40:normal-hitnormal.wav
329,192,50330,1,0,0:0:0:40:normal-hitnormal.wav
36,192,50418,1,0,0:0:0:70:normal-hitclap.wav
475,192,50506,1,0,0:0:0:40:normal-hitnormal.wav
109,192,50595,1,0,0:0:0:40:normal-hitnormal.wav
402,192,50683,1,0,0:0:0:40:normal-hitnormal.wav
256,192,50771,1,0,0:0:0:70:normal-hitclap.wav
36,192,50859,1,0,0:0:0:40:normal-hitnormal.wav
109,192,50948,1,0,0:0:0:70:normal-hitclap.wav
182,192,51036,1,0,0:0:0:40:normal-hitnormal.wav
256,192,51124,1,0,0:0:0:70:normal-hitclap.wav
329,192,51212,1,0,0:0:0:40:normal-hitnormal.wav
402,192,51301,1,0,0:0:0:70:normal-hitclap.wav
475,192,51389,1,0,0:0:0:40:normal-hitnormal.wav
109,192,51477,1,0,0:0:0:40:normal-hitnormal.wav
182,192,51477,1,0,0:0:0:90:SD0010.wav
329,192,51565,1,0,0:0:0:90:SD0010.wav
402,192,51565,1,0,0:0:0:40:normal-hitnormal.wav
109,192,51653,1,0,0:0:0:40:normal-hitnormal.wav
182,192,51653,1,0,0:0:0:90:SD0010.wav
329,192,51742,1,0,0:0:0:90:SD0010.wav
402,192,51742,1,0,0:0:0:40:normal-hitnormal.wav
109,192,51830,1,0,0:0:0:40:normal-hitnormal.wav
182,192,51830,1,0,0:0:0:90:SD0010.wav
402,192,52006,1,0,0:0:0:40:normal-hitnormal.wav
329,192,52006,1,0,0:0:0:40:normal-hitnormal.wav
475,192,52006,1,0,0:0:0:90:SD0010.wav
109,192,52183,1,0,0:0:0:40:normal-hitnormal.wav
109,192,52359,1,0,0:0:0:40:normal-hitnormal.wav
109,192,52536,1,0,0:0:0:70:normal-hitclap.wav
256,192,52536,128,0,52889:0:0:0:40:normal-hitnormal.wav
402,192,52536,1,0,0:0:0:70:normal-hitclap.wav
402,192,52889,1,0,0:0:0:90:SD0010.wav
475,192,52889,1,0,0:0:0:40:normal-hitnormal.wav
36,192,52977,1,0,0:0:0:40:normal-hitnormal.wav
109,192,52977,1,0,0:0:0:90:SD0010.wav
402,192,53065,1,0,0:0:0:90:SD0010.wav
475,192,53065,1,0,0:0:0:40:normal-hitnormal.wav
109,192,53153,1,0,0:0:0:90:SD0010.wav
36,192,53153,1,0,0:0:0:40:normal-hitnormal.wav
402,192,53242,1,0,0:0:0:90:SD0010.wav
475,192,53242,1,0,0:0:0:40:normal-hitnormal.wav
109,192,53418,1,0,0:0:0:40:normal-hitnormal.wav
36,192,53418,1,0,0:0:0:40:normal-hitnormal.wav
182,192,53418,1,0,0:0:0:90:SD0010.wav
475,192,53595,1,0,0:0:0:40:normal-hitnormal.wav
475,192,53771,1,0,0:0:0:40:normal-hitnormal.wav
256,192,53948,128,0,54301:0:0:0:40:normal-hitnormal.wav
475,192,53948,1,0,0:0:0:70:normal-hitclap.wav
36,192,53948,1,0,0:0:0:70:normal-hitclap.wav
182,192,54301,1,0,0:0:0:90:SD0010.wav
109,192,54301,1,0,0:0:0:40:normal-hitnormal.wav
329,192,54389,1,0,0:0:0:90:SD0010.wav
402,192,54389,1,0,0:0:0:40:normal-hitnormal.wav
182,192,54477,1,0,0:0:0:90:SD0010.wav
109,192,54477,1,0,0:0:0:40:normal-hitnormal.wav
329,192,54565,1,0,0:0:0:90:SD0010.wav
402,192,54565,1,0,0:0:0:40:normal-hitnormal.wav
182,192,54653,1,0,0:0:0:90:SD0010.wav
109,192,54653,1,0,0:0:0:40:normal-hitnormal.wav
329,192,54830,1,0,0:0:0:40:normal-hitnormal.wav
402,192,54830,1,0,0:0:0:40:normal-hitnormal.wav
475,192,54830,1,0,0:0:0:90:SD0010.wav
109,192,55006,1,0,0:0:0:40:normal-hitnormal.wav
109,192,55183,1,0,0:0:0:40:normal-hitnormal.wav
256,192,55359,128,0,55712:0:0:0:40:normal-hitnormal.wav
109,192,55359,1,0,0:0:0:70:normal-hitclap.wav
402,192,55359,1,0,0:0:0:70:normal-hitclap.wav
475,192,55712,1,0,0:0:0:40:normal-hitnormal.wav
402,192,55801,1,0,0:0:0:40:normal-hitnormal.wav
329,192,55889,1,0,0:0:0:40:normal-hitnormal.wav
256,192,55977,1,0,0:0:0:40:normal-hitnormal.wav
402,192,56065,1,0,0:0:0:90:SD0010.wav
329,192,56153,1,0,0:0:0:40:normal-hitnormal.wav
256,192,56242,1,0,0:0:0:40:normal-hitnormal.wav
182,192,56330,1,0,0:0:0:40:normal-hitnormal.wav
329,192,56418,1,0,0:0:0:40:normal-hitnormal.wav
256,192,56506,1,0,0:0:0:40:normal-hitnormal.wav
182,192,56595,1,0,0:0:0:40:normal-hitnormal.wav
109,192,56683,1,0,0:0:0:40:normal-hitnormal.wav
256,192,56771,1,0,0:0:0:90:SD0010.wav
182,192,56859,1,0,0:0:0:40:normal-hitnormal.wav
109,192,56948,1,0,0:0:0:40:normal-hitnormal.wav
36,192,57036,1,0,0:0:0:40:normal-hitnormal.wav
402,192,57124,1,0,0:0:0:90:SD0010.wav
475,192,57124,1,0,0:0:0:40:normal-hitnormal.wav
109,192,57212,1,0,0:0:0:40:normal-hitnormal.wav
182,192,57212,1,0,0:0:0:90:SD0010.wav
402,192,57301,1,0,0:0:0:90:SD0010.wav
475,192,57301,1,0,0:0:0:40:normal-hitnormal.wav
182,192,57389,1,0,0:0:0:90:SD0010.wav
109,192,57389,1,0,0:0:0:40:normal-hitnormal.wav
402,192,57477,1,0,0:0:0:90:SD0010.wav
475,192,57477,1,0,0:0:0:40:normal-hitnormal.wav
182,192,57653,1,0,0:0:0:40:normal-hitnormal.wav
109,192,57653,1,0,0:0:0:40:normal-hitnormal.wav
36,192,57653,1,0,0:0:0:90:SD0010.wav
475,192,57830,1,0,0:0:0:40:normal-hitnormal.wav
475,192,58006,1,0,0:0:0:40:normal-hitnormal.wav
475,192,58183,1,0,0:0:0:70:normal-hitclap.wav
256,192,58183,128,0,58536:0:0:0:40:normal-hitnormal.wav
36,192,58183,1,0,0:0:0:70:normal-hitclap.wav
36,192,58536,1,0,0:0:0:40:normal-hitnormal.wav
109,192,58536,1,0,0:0:0:90:SD0010.wav
329,192,58624,1,0,0:0:0:40:normal-hitnormal.wav
402,192,58624,1,0,0:0:0:90:SD0010.wav
36,192,58712,1,0,0:0:0:40:normal-hitnormal.wav
109,192,58712,1,0,0:0:0:90:SD0010.wav
329,192,58801,1,0,0:0:0:40:normal-hitnormal.wav
402,192,58801,1,0,0:0:0:90:SD0010.wav
36,192,58889,1,0,0:0:0:40:normal-hitnormal.wav
109,192,58889,1,0,0:0:0:90:SD0010.wav
402,192,59065,1,0,0:0:0:40:normal-hitnormal.wav
329,192,59065,1,0,0:0:0:40:normal-hitnormal.wav
475,192,59065,1,0,0:0:0:90:SD0010.wav
36,192,59242,1,0,0:0:0:40:normal-hitnormal.wav
36,192,59418,1,0,0:0:0:40:normal-hitnormal.wav
36,192,59595,1,0,0:0:0:70:normal-hitclap.wav
256,192,59595,128,0,59948:0:0:0:40:normal-hitnormal.wav
475,192,59595,1,0,0:0:0:70:normal-hitclap.wav
402,192,59948,1,0,0:0:0:90:SD0010.wav
475,192,59948,1,0,0:0:0:40:normal-hitnormal.wav
109,192,60036,1,0,0:0:0:40:normal-hitnormal.wav
182,192,60036,1,0,0:0:0:90:SD0010.wav
402,192,60124,1,0,0:0:0:90:SD0010.wav
475,192,60124,1,0,0:0:0:40:normal-hitnormal.wav
109,192,60212,1,0,0:0:0:40:normal-hitnormal.wav
182,192,60212,1,0,0:0:0:90:SD0010.wav
402,192,60301,1,0,0:0:0:90:SD0010.wav
475,192,60301,1,0,0:0:0:40:normal-hitnormal.wav
109,192,60477,1,0,0:0:0:40:normal-hitnormal.wav
182,192,60477,1,0,0:0:0:40:normal-hitnormal.wav
36,192,60477,1,0,0:0:0:90:SD0010.wav
475,192,60653,1,0,0:0:0:40:normal-hitnormal.wav
475,192,60830,1,0,0:0:0:40:normal-hitnormal.wav
475,192,61006,1,0,0:0:0:70:normal-hitclap.wav
256,192,61006,128,0,61359:0:0:0:40:normal-hitnormal.wav
36,192,61006,1,0,0:0:0:70:normal-hitclap.wav
36,192,61359,1,0,0:0:0:40:normal-hitnormal.wav
109,192,61448,1,0,0:0:0:40:normal-hitnormal.wav
182,192,61536,1,0,0:0:0:40:normal-hitnormal.wav
256,192,61624,1,0,0:0:0:40:normal-hitnormal.wav
109,192,61712,1,0,0:0:0:90:SD0010.wav
182,192,61801,1,0,0:0:0:40:normal-hitnormal.wav
256,192,61889,1,0,0:0:0:40:normal-hitnormal.wav
329,192,61977,1,0,0:0:0:40:normal-hitnormal.wav
182,192,62065,1,0,0:0:0:40:normal-hitnormal.wav
256,192,62153,1,0,0:0:0:40:normal-hitnormal.wav
329,192,62242,1,0,0:0:0:40:normal-hitnormal.wav
402,192,62330,1,0,0:0:0:40:normal-hitnormal.wav
256,192,62418,1,0,0:0:0:90:SD0010.wav
329,192,62506,1,0,0:0:0:40:normal-hitnormal.wav
402,192,62595,1,0,0:0:0:40:normal-hitnormal.wav
475,192,62683,1,0,0:0:0:40:normal-hitnormal.wav
36,192,62771,128,0,63124:0:0:0:40:normal-hitnormal.wav
109,192,62771,128,0,63124:0:0:0:40:normal-hitnormal.wav
329,192,63124,1,0,0:0:0:70:normal-hitclap.wav
256,192,63212,1,0,0:0:0:40:normal-hitnormal.wav
475,192,63301,1,0,0:0:0:40:normal-hitnormal.wav
402,192,63389,1,0,0:0:0:40:normal-hitnormal.wav
182,192,63477,1,0,0:0:0:40:normal-hitnormal.wav
109,192,63565,1,0,0:0:0:40:normal-hitnormal.wav
402,192,63653,1,0,0:0:0:40:normal-hitnormal.wav
329,192,63742,1,0,0:0:0:40:normal-hitnormal.wav
109,192,63830,1,0,0:0:0:70:normal-hitclap.wav
36,192,63918,1,0,0:0:0:40:normal-hitnormal.wav
256,192,64006,1,0,0:0:0:40:normal-hitnormal.wav
182,192,64095,1,0,0:0:0:40:normal-hitnormal.wav
475,192,64183,128,0,64536:0:0:0:40:normal-hitnormal.wav
402,192,64183,128,0,64536:0:0:0:40:normal-hitnormal.wav
182,192,64536,1,0,0:0:0:70:normal-hitclap.wav
256,192,64624,1,0,0:0:0:40:normal-hitnormal.wav
36,192,64712,1,0,0:0:0:40:normal-hitnormal.wav
109,192,64801,1,0,0:0:0:40:normal-hitnormal.wav
329,192,64889,1,0,0:0:0:40:normal-hitnormal.wav
402,192,64977,1,0,0:0:0:40:normal-hitnormal.wav
182,192,65065,1,0,0:0:0:40:normal-hitnormal.wav
256,192,65153,1,0,0:0:0:40:normal-hitnormal.wav
402,192,65242,1,0,0:0:0:70:normal-hitclap.wav
475,192,65330,1,0,0:0:0:40:normal-hitnormal.wav
182,192,65418,1,0,0:0:0:40:normal-hitnormal.wav
256,192,65506,1,0,0:0:0:40:normal-hitnormal.wav
36,192,65595,128,0,65948:0:0:0:40:normal-hitnormal.wav
109,192,65595,128,0,65948:0:0:0:40:normal-hitnormal.wav
329,192,65948,1,0,0:0:0:70:normal-hitclap.wav
256,192,66036,1,0,0:0:0:40:normal-hitnormal.wav
475,192,66124,1,0,0:0:0:40:normal-hitnormal.wav
402,192,66212,1,0,0:0:0:40:normal-hitnormal.wav
109,192,66301,1,0,0:0:0:40:normal-hitnormal.wav
36,192,66389,1,0,0:0:0:40:normal-hitnormal.wav
329,192,66477,1,0,0:0:0:40:normal-hitnormal.wav
256,192,66565,1,0,0:0:0:40:normal-hitnormal.wav
475,192,66653,1,0,0:0:0:70:normal-hitclap.wav
402,192,66742,1,0,0:0:0:40:normal-hitnormal.wav
182,192,66830,1,0,0:0:0:40:normal-hitnormal.wav
109,192,66918,1,0,0:0:0:40:normal-hitnormal.wav
475,192,67006,128,0,67359:0:0:0:40:normal-hitnormal.wav
402,192,67006,128,0,67359:0:0:0:40:normal-hitnormal.wav
109,192,67359,1,0,0:0:0:70:normal-hitclap.wav
182,192,67448,1,0,0:0:0:40:normal-hitnormal.wav
329,192,67536,1,0,0:0:0:40:normal-hitnormal.wav
402,192,67624,1,0,0:0:0:40:normal-hitnormal.wav
182,192,67712,1,0,0:0:0:40:normal-hitnormal.wav
256,192,67801,1,0,0:0:0:40:normal-hitnormal.wav
36,192,67889,1,0,0:0:0:40:normal-hitnormal.wav
109,192,67977,1,0,0:0:0:40:normal-hitnormal.wav
402,192,68065,1,0,0:0:0:70:normal-hitclap.wav
475,192,68153,1,0,0:0:0:40:normal-hitnormal.wav
256,192,68242,1,0,0:0:0:40:normal-hitnormal.wav
329,192,68330,1,0,0:0:0:40:normal-hitnormal.wav
36,192,68418,128,0,68771:0:0:0:40:normal-hitnormal.wav
109,192,68418,128,0,68771:0:0:0:40:normal-hitnormal.wav
402,192,68418,1,0,0:0:0:40:normal-hitnormal.wav
475,192,68771,1,0,0:0:0:70:normal-hitclap.wav
402,192,68859,1,0,0:0:0:40:normal-hitnormal.wav
182,192,68948,1,0,0:0:0:40:normal-hitnormal.wav
109,192,69036,1,0,0:0:0:40:normal-hitnormal.wav
329,192,69124,1,0,0:0:0:40:normal-hitnormal.wav
256,192,69212,1,0,0:0:0:40:normal-hitnormal.wav
475,192,69301,1,0,0:0:0:40:normal-hitnormal.wav
402,192,69389,1,0,0:0:0:40:normal-hitnormal.wav
109,192,69477,1,0,0:0:0:70:normal-hitclap.wav
36,192,69565,1,0,0:0:0:40:normal-hitnormal.wav
256,192,69653,1,0,0:0:0:40:normal-hitnormal.wav
182,192,69742,1,0,0:0:0:40:normal-hitnormal.wav
475,192,69830,128,0,70183:0:0:0:40:normal-hitnormal.wav
402,192,69830,128,0,70183:0:0:0:40:normal-hitnormal.wav
36,192,70183,1,0,0:0:0:70:normal-hitclap.wav
109,192,70271,1,0,0:0:0:40:normal-hitnormal.wav
256,192,70359,1,0,0:0:0:40:normal-hitnormal.wav
329,192,70448,1,0,0:0:0:40:normal-hitnormal.wav
109,192,70536,1,0,0:0:0:40:normal-hitnormal.wav
182,192,70624,1,0,0:0:0:40:normal-hitnormal.wav
402,192,70712,1,0,0:0:0:40:normal-hitnormal.wav
475,192,70801,1,0,0:0:0:40:normal-hitnormal.wav
182,192,70889,1,0,0:0:0:70:normal-hitclap.wav
256,192,70977,1,0,0:0:0:40:normal-hitnormal.wav
36,192,71065,1,0,0:0:0:40:normal-hitnormal.wav
109,192,71153,1,0,0:0:0:40:normal-hitnormal.wav
402,192,71242,1,0,0:0:0:40:normal-hitnormal.wav
329,192,71330,1,0,0:0:0:40:normal-hitnormal.wav
256,192,71418,1,0,0:0:0:40:normal-hitnormal.wav
182,192,71506,1,0,0:0:0:40:normal-hitnormal.wav
256,192,71595,1,0,0:0:0:70:normal-hitclap.wav
182,192,71683,1,0,0:0:0:40:normal-hitnormal.wav
109,192,71771,1,0,0:0:0:40:normal-hitnormal.wav
36,192,71859,1,0,0:0:0:40:normal-hitnormal.wav
109,192,71948,1,0,0:0:0:40:normal-hitnormal.wav
182,192,72036,1,0,0:0:0:40:normal-hitnormal.wav
256,192,72124,1,0,0:0:0:40:normal-hitnormal.wav
329,192,72212,1,0,0:0:0:40:normal-hitnormal.wav
182,192,72301,1,0,0:0:0:70:normal-hitclap.wav
256,192,72389,1,0,0:0:0:40:normal-hitnormal.wav
329,192,72477,1,0,0:0:0:40:normal-hitnormal.wav
402,192,72565,1,0,0:0:0:40:normal-hitnormal.wav
475,192,72653,1,0,0:0:0:70:normal-hitclap.wav
182,192,72742,1,0,0:0:0:40:normal-hitnormal.wav
402,192,72830,1,0,0:0:0:40:normal-hitnormal.wav
109,192,72918,1,0,0:0:0:40:normal-hitnormal.wav
329,192,73006,1,0,0:0:0:70:normal-hitclap.wav
36,192,73095,1,0,0:0:0:40:normal-hitnormal.wav
256,192,73183,1,0,0:0:0:40:normal-hitnormal.wav
109,192,73271,1,0,0:0:0:40:normal-hitnormal.wav
329,192,73359,1,0,0:0:0:70:normal-hitclap.wav
182,192,73448,1,0,0:0:0:40:normal-hitnormal.wav
402,192,73536,1,0,0:0:0:70:normal-hitclap.wav
256,192,73624,1,0,0:0:0:40:normal-hitnormal.wav
475,192,73712,1,0,0:0:0:70:normal-hitclap.wav
182,192,73801,1,0,0:0:0:40:normal-hitnormal.wav
329,192,73889,1,0,0:0:0:70:normal-hitclap.wav
109,192,73977,1,0,0:0:0:40:normal-hitnormal.wav
182,192,74065,128,0,74418:0:0:0:40:normal-hitnormal.wav
329,192,74065,128,0,74418:0:0:0:40:normal-hitnormal.wav
402,192,74065,1,0,0:0:0:40:normal-hitnormal.wav
475,192,74418,1,0,0:0:0:70:normal-hitclap.wav
256,192,74506,1,0,0:0:0:40:normal-hitnormal.wav
402,192,74595,1,0,0:0:0:40:normal-hitnormal.wav
109,192,74683,1,0,0:0:0:40:normal-hitnormal.wav
256,192,74771,1,0,0:0:0:40:normal-hitnormal.wav
36,192,74859,1,0,0:0:0:40:normal-hitnormal.wav
329,192,74948,1,0,0:0:0:40:normal-hitnormal.wav
109,192,75036,1,0,0:0:0:40:normal-hitnormal.wav
402,192,75124,1,0,0:0:0:70:normal-hitclap.wav
182,192,75212,1,0,0:0:0:40:normal-hitnormal.wav
475,192,75301,1,0,0:0:0:40:normal-hitnormal.wav
256,192,75389,1,0,0:0:0:40:normal-hitnormal.wav
402,192,75477,1,0,0:0:0:40:normal-hitnormal.wav
109,192,75565,1,0,0:0:0:40:normal-hitnormal.wav
329,192,75653,1,0,0:0:0:40:normal-hitnormal.wav
36,192,75742,1,0,0:0:0:40:normal-hitnormal.wav
256,192,75830,1,0,0:0:0:70:normal-hitclap.wav
109,192,75918,1,0,0:0:0:40:normal-hitnormal.wav
329,192,76006,1,0,0:0:0:40:normal-hitnormal.wav
182,192,76095,1,0,0:0:0:40:normal-hitnormal.wav
475,192,76183,1,0,0:0:0:40:normal-hitnormal.wav
256,192,76271,1,0,0:0:0:40:normal-hitnormal.wav
402,192,76359,1,0,0:0:0:40:normal-hitnormal.wav
182,192,76448,1,0,0:0:0:40:normal-hitnormal.wav
329,192,76536,1,0,0:0:0:70:normal-hitclap.wav
109,192,76624,1,0,0:0:0:40:normal-hitnormal.wav
256,192,76712,1,0,0:0:0:40:normal-hitnormal.wav
36,192,76801,1,0,0:0:0:40:normal-hitnormal.wav
182,192,76889,128,0,77242:0:0:0:40:normal-hitnormal.wav
329,192,76889,128,0,77242:0:0:0:40:normal-hitnormal.wav
402,192,76889,1,0,0:0:0:40:normal-hitnormal.wav
36,192,77242,1,0,0:0:0:70:normal-hitclap.wav
256,192,77330,1,0,0:0:0:40:normal-hitnormal.wav
109,192,77418,1,0,0:0:0:40:normal-hitnormal.wav
402,192,77506,1,0,0:0:0:40:normal-hitnormal.wav
182,192,77595,1,0,0:0:0:40:normal-hitnormal.wav
475,192,77683,1,0,0:0:0:40:normal-hitnormal.wav
256,192,77771,1,0,0:0:0:40:normal-hitnormal.wav
402,192,77859,1,0,0:0:0:40:normal-hitnormal.wav
109,192,77948,1,0,0:0:0:70:normal-hitclap.wav
329,192,78036,1,0,0:0:0:40:normal-hitnormal.wav
36,192,78124,1,0,0:0:0:40:normal-hitnormal.wav
256,192,78212,1,0,0:0:0:40:normal-hitnormal.wav
109,192,78301,1,0,0:0:0:40:normal-hitnormal.wav
402,192,78389,1,0,0:0:0:40:normal-hitnormal.wav
182,192,78477,1,0,0:0:0:40:normal-hitnormal.wav
475,192,78565,1,0,0:0:0:40:normal-hitnormal.wav
256,192,78653,1,0,0:0:0:70:normal-hitclap.wav
402,192,78742,1,0,0:0:0:40:normal-hitnormal.wav
109,192,78830,1,0,0:0:0:40:normal-hitnormal.wav
329,192,78918,1,0,0:0:0:40:normal-hitnormal.wav
36,192,79006,1,0,0:0:0:40:normal-hitnormal.wav
256,192,79095,1,0,0:0:0:40:normal-hitnormal.wav
109,192,79183,1,0,0:0:0:40:normal-hitnormal.wav
402,192,79271,1,0,0:0:0:40:normal-hitnormal.wav
182,192,79359,1,0,0:0:0:70:normal-hitclap.wav
475,192,79448,1,0,0:0:0:40:normal-hitnormal.wav
256,192,79536,1,0,0:0:0:40:normal-hitnormal.wav
402,192,79624,1,0,0:0:0:40:normal-hitnormal.wav
182,192,79712,128,0,80065:0:0:0:40:normal-hitnormal.wav
329,192,79712,128,0,80065:0:0:0:40:normal-hitnormal.wav
109,192,79712,1,0,0:0:0:40:normal-hitnormal.wav
36,192,80065,1,0,0:0:0:70:normal-hitclap.wav
109,192,80153,1,0,0:0:0:40:normal-hitnormal.wav
182,192,80242,1,0,0:0:0:90:SD0010.wav
256,192,80330,1,0,0:0:0:40:normal-hitnormal.wav
475,192,80418,1,0,0:0:0:40:normal-hitnormal.wav
402,192,80506,1,0,0:0:0:40:normal-hitnormal.wav
329,192,80595,1,0,0:0:0:90:SD0010.wav
256,192,80683,1,0,0:0:0:40:normal-hitnormal.wav
109,192,80771,1,0,0:0:0:70:normal-hitclap.wav
182,192,80859,1,0,0:0:0:40:normal-hitnormal.wav
256,192,80948,1,0,0:0:0:90:SD0010.wav
329,192,81036,1,0,0:0:0:40:normal-hitnormal.wav
475,192,81124,1,0,0:0:0:40:normal-hitnormal.wav
402,192,81212,1,0,0:0:0:40:normal-hitnormal.wav
329,192,81301,1,0,0:0:0:90:SD0010.wav
256,192,81389,1,0,0:0:0:40:normal-hitnormal.wav
36,192,81477,1,0,0:0:0:70:normal-hitclap.wav
109,192,81565,1,0,0:0:0:40:normal-hitnormal.wav
182,192,81653,1,0,0:0:0:90:SD0010.wav
256,192,81742,1,0,0:0:0:40:normal-hitnormal.wav
402,192,81830,1,0,0:0:0:40:normal-hitnormal.wav
329,192,81918,1,0,0:0:0:40:normal-hitnormal.wav
256,192,82006,1,0,0:0:0:90:SD0010.wav
182,192,82095,1,0,0:0:0:40:normal-hitnormal.wav
36,192,82183,1,0,0:0:0:90:SD0010.wav
109,192,82271,1,0,0:0:0:40:normal-hitnormal.wav
182,192,82359,1,0,0:0:0:90:SD0010.wav
256,192,82448,1,0,0:0:0:40:normal-hitnormal.wav
329,192,82536,128,0,82889:0:0:0:40:normal-hitnormal.wav
402,192,82536,128,0,82889:0:0:0:40:normal-hitnormal.wav
402,192,83242,128,0,83595:0:0:0:40:normal-hitnormal.wav
475,192,83242,128,0,83595:0:0:0:40:normal-hitnormal.wav
36,192,83771,1,0,0:0:0:40:normal-hitnormal.wav
109,192,83859,1,0,0:0:0:40:normal-hitnormal.wav
402,192,83948,128,0,89595:0:0:0:40:normal-hitnormal.wav
182,192,83948,128,0,89595:0:0:0:40:normal-hitnormal.wav
