osu file format v12

[General]
AudioFilename: Heart Of Witch.mp3
AudioLeadIn: 2
PreviewTime: 11900
Countdown: 0
SampleSet: None
StackLeniency: 0.7
Mode: 3
LetterboxInBreaks: 0
SpecialStyle: 0
WidescreenStoryboard: 0

[Editor]
DistanceSpacing: 0.8
BeatDivisor: 4
GridSize: 8
TimelineZoom: 1

[Metadata]
Title:Heart of Witch
TitleUnicode:Heart of Witch
Artist:Rex
ArtistUnicode:Rex
Creator:MasterSonic10
Version:4k NM
Source:Stepmania
Tags:Stepmania
BeatmapID:432542
BeatmapSetID:179961

[Difficulty]
HPDrainRate:5
CircleSize:4
OverallDifficulty:7
ApproachRate:10
SliderMultiplier:1.4
SliderTickRate:1

[Events]
//Background and Video events
0,0,"background.jpg",0,0
//Break Periods
//Storyboard Layer 0 (Background)
//Storyboard Layer 1 (Fail)
//Storyboard Layer 2 (Pass)
//Storyboard Layer 3 (Foreground)
//Storyboard Sound Samples
//Background Colour Transformations
3,100,163,162,255

[TimingPoints]
-2910,352.8997,4,1,0,15,1,0

[HitObjects]
64,192,266,5,0,0:0:0:0:
448,192,442,1,0,0:0:0:0:
64,192,618,1,0,0:0:0:0:
64,192,1324,1,0,0:0:0:0:
192,192,1677,1,0,0:0:0:0:
192,192,2030,1,0,0:0:0:0:
64,192,2207,1,0,0:0:0:0:
320,192,2383,1,0,0:0:0:0:
192,192,2559,1,0,0:0:0:0:
448,192,2736,1,0,0:0:0:0:
320,192,2912,1,0,0:0:0:0:
448,192,3089,1,0,0:0:0:0:
64,192,3265,1,0,0:0:0:0:
448,192,3442,1,0,0:0:0:0:
448,192,4147,1,0,0:0:0:0:
320,192,4500,1,0,0:0:0:0:
320,192,4853,1,0,0:0:0:0:
448,192,5030,1,0,0:0:0:0:
192,192,5206,1,0,0:0:0:0:
320,192,5383,1,0,0:0:0:0:
64,192,5559,1,0,0:0:0:0:
192,192,5736,1,0,0:0:0:0:
64,192,5912,1,0,0:0:0:0:
64,192,6265,1,0,0:0:0:0:
192,192,6265,1,0,0:0:0:0:
64,192,6794,1,0,0:0:0:0:
320,192,6794,1,0,0:0:0:0:
64,192,7324,1,0,0:0:0:0:
448,192,7324,1,0,0:0:0:0:
192,192,7853,1,0,0:0:0:0:
448,192,7853,1,0,0:0:0:0:
320,192,8382,1,0,0:0:0:0:
448,192,8382,1,0,0:0:0:0:
320,192,9088,1,0,0:0:0:0:
448,192,9088,1,0,0:0:0:0:
192,192,9617,1,0,0:0:0:0:
448,192,9617,1,0,0:0:0:0:
64,192,10147,1,0,0:0:0:0:
448,192,10147,1,0,0:0:0:0:
64,192,10676,1,0,0:0:0:0:
320,192,10676,1,0,0:0:0:0:
64,192,11205,1,0,0:0:0:0:
192,192,11205,1,0,0:0:0:0:
64,192,11911,1,0,0:0:0:0:
192,192,12088,1,0,0:0:0:0:
448,192,12264,1,0,0:0:0:0:
192,192,12441,1,0,0:0:0:0:
64,192,12617,1,0,0:0:0:0:
192,192,12794,1,0,0:0:0:0:
448,192,12970,1,0,0:0:0:0:
448,192,13323,1,0,0:0:0:0:
192,192,13499,1,0,0:0:0:0:
64,192,13676,1,0,0:0:0:0:
192,192,13852,1,0,0:0:0:0:
448,192,14029,1,0,0:0:0:0:
192,192,14205,1,0,0:0:0:0:
64,192,14382,1,0,0:0:0:0:
64,192,14734,1,0,0:0:0:0:
192,192,14911,1,0,0:0:0:0:
448,192,15087,1,0,0:0:0:0:
192,192,15264,1,0,0:0:0:0:
64,192,15440,1,0,0:0:0:0:
192,192,15617,1,0,0:0:0:0:
448,192,15793,1,0,0:0:0:0:
64,192,16146,1,0,0:0:0:0:
192,192,16146,1,0,0:0:0:0:
192,192,16499,1,0,0:0:0:0:
320,192,16499,1,0,0:0:0:0:
320,192,16852,1,0,0:0:0:0:
448,192,16852,1,0,0:0:0:0:
64,192,17205,1,0,0:0:0:0:
448,192,17205,1,0,0:0:0:0:
448,192,17558,1,0,0:0:0:0:
320,192,17734,1,0,0:0:0:0:
64,192,17911,1,0,0:0:0:0:
320,192,18087,1,0,0:0:0:0:
448,192,18263,1,0,0:0:0:0:
320,192,18440,1,0,0:0:0:0:
64,192,18616,1,0,0:0:0:0:
64,192,18969,1,0,0:0:0:0:
320,192,19146,1,0,0:0:0:0:
448,192,19322,1,0,0:0:0:0:
320,192,19499,1,0,0:0:0:0:
64,192,19675,1,0,0:0:0:0:
320,192,19852,1,0,0:0:0:0:
448,192,20028,1,0,0:0:0:0:
448,192,20381,1,0,0:0:0:0:
320,192,20557,1,0,0:0:0:0:
64,192,20734,1,0,0:0:0:0:
320,192,20910,1,0,0:0:0:0:
448,192,21087,1,0,0:0:0:0:
320,192,21263,1,0,0:0:0:0:
64,192,21440,1,0,0:0:0:0:
64,192,21792,1,0,0:0:0:0:
192,192,21792,1,0,0:0:0:0:
192,192,22145,1,0,0:0:0:0:
320,192,22145,1,0,0:0:0:0:
320,192,22498,1,0,0:0:0:0:
448,192,22498,1,0,0:0:0:0:
64,192,22851,1,0,0:0:0:0:
448,192,22851,1,0,0:0:0:0:
448,192,23204,1,0,0:0:0:0:
320,192,23381,1,0,0:0:0:0:
448,192,23557,1,0,0:0:0:0:
320,192,23733,1,0,0:0:0:0:
448,192,23910,1,0,0:0:0:0:
192,192,24086,1,0,0:0:0:0:
448,192,24263,1,0,0:0:0:0:
192,192,24439,1,0,0:0:0:0:
448,192,24616,1,0,0:0:0:0:
64,192,24792,1,0,0:0:0:0:
448,192,24969,1,0,0:0:0:0:
64,192,25145,1,0,0:0:0:0:
192,192,25321,1,0,0:0:0:0:
320,192,25498,1,0,0:0:0:0:
448,192,25674,1,0,0:0:0:0:
320,192,25851,1,0,0:0:0:0:
64,192,26027,1,0,0:0:0:0:
192,192,26204,1,0,0:0:0:0:
64,192,26380,1,0,0:0:0:0:
192,192,26557,1,0,0:0:0:0:
64,192,26733,1,0,0:0:0:0:
320,192,26909,1,0,0:0:0:0:
64,192,27086,1,0,0:0:0:0:
320,192,27262,1,0,0:0:0:0:
64,192,27439,1,0,0:0:0:0:
448,192,27615,1,0,0:0:0:0:
64,192,27792,1,0,0:0:0:0:
448,192,27968,1,0,0:0:0:0:
320,192,28145,1,0,0:0:0:0:
192,192,28321,1,0,0:0:0:0:
64,192,28498,1,0,0:0:0:0:
192,192,28674,1,0,0:0:0:0:
448,192,28850,1,0,0:0:0:0:
320,192,29027,1,0,0:0:0:0:
448,192,29203,1,0,0:0:0:0:
320,192,29380,1,0,0:0:0:0:
448,192,29556,1,0,0:0:0:0:
192,192,29733,1,0,0:0:0:0:
448,192,29909,1,0,0:0:0:0:
192,192,30086,1,0,0:0:0:0:
448,192,30262,1,0,0:0:0:0:
64,192,30438,1,0,0:0:0:0:
448,192,30615,1,0,0:0:0:0:
64,192,30791,1,0,0:0:0:0:
192,192,30968,1,0,0:0:0:0:
320,192,31144,1,0,0:0:0:0:
448,192,31321,1,0,0:0:0:0:
320,192,31497,1,0,0:0:0:0:
64,192,31674,1,0,0:0:0:0:
192,192,31850,1,0,0:0:0:0:
64,192,32027,1,0,0:0:0:0:
192,192,32203,1,0,0:0:0:0:
64,192,32379,1,0,0:0:0:0:
320,192,32556,1,0,0:0:0:0:
64,192,32732,1,0,0:0:0:0:
320,192,32909,1,0,0:0:0:0:
64,192,33085,1,0,0:0:0:0:
448,192,33262,1,0,0:0:0:0:
64,192,33438,1,0,0:0:0:0:
448,192,33615,1,0,0:0:0:0:
320,192,33791,1,0,0:0:0:0:
192,192,33967,1,0,0:0:0:0:
64,192,34144,1,0,0:0:0:0:
192,192,34320,1,0,0:0:0:0:
320,192,34497,1,0,0:0:0:0:
448,192,34673,1,0,0:0:0:0:
448,192,35026,1,0,0:0:0:0:
320,192,35203,1,0,0:0:0:0:
192,192,35379,1,0,0:0:0:0:
64,192,35556,1,0,0:0:0:0:
320,192,35732,1,0,0:0:0:0:
192,192,35908,1,0,0:0:0:0:
448,192,36085,1,0,0:0:0:0:
320,192,36261,1,0,0:0:0:0:
448,192,36438,1,0,0:0:0:0:
448,192,37320,1,0,0:0:0:0:
320,192,37496,1,0,0:0:0:0:
320,192,37849,1,0,0:0:0:0:
448,192,38026,1,0,0:0:0:0:
64,192,38202,1,0,0:0:0:0:
192,192,38379,1,0,0:0:0:0:
320,192,38555,1,0,0:0:0:0:
448,192,38732,1,0,0:0:0:0:
448,192,39084,1,0,0:0:0:0:
320,192,39437,1,0,0:0:0:0:
192,192,39790,1,0,0:0:0:0:
192,192,40143,1,0,0:0:0:0:
64,192,40320,1,0,0:0:0:0:
64,192,40673,1,0,0:0:0:0:
192,192,40849,1,0,0:0:0:0:
320,192,41025,1,0,0:0:0:0:
448,192,41202,1,0,0:0:0:0:
192,192,41378,1,0,0:0:0:0:
320,192,41555,1,0,0:0:0:0:
64,192,41731,1,0,0:0:0:0:
192,192,41908,1,0,0:0:0:0:
64,192,42084,1,0,0:0:0:0:
64,192,42966,1,0,0:0:0:0:
192,192,43143,1,0,0:0:0:0:
192,192,43496,1,0,0:0:0:0:
64,192,43672,1,0,0:0:0:0:
448,192,43849,1,0,0:0:0:0:
320,192,44025,1,0,0:0:0:0:
192,192,44202,1,0,0:0:0:0:
64,192,44378,1,0,0:0:0:0:
64,192,44731,1,0,0:0:0:0:
192,192,45084,1,0,0:0:0:0:
320,192,45437,1,0,0:0:0:0:
448,192,45790,1,0,0:0:0:0:
320,192,45966,1,0,0:0:0:0:
320,192,46319,1,0,0:0:0:0:
448,192,46495,1,0,0:0:0:0:
64,192,46672,1,0,0:0:0:0:
192,192,46848,1,0,0:0:0:0:
320,192,47025,1,0,0:0:0:0:
448,192,47201,1,0,0:0:0:0:
448,192,47554,1,0,0:0:0:0:
320,192,47907,1,0,0:0:0:0:
192,192,48260,1,0,0:0:0:0:
64,192,48613,1,0,0:0:0:0:
192,192,48613,1,0,0:0:0:0:
192,192,48966,1,0,0:0:0:0:
320,192,48966,1,0,0:0:0:0:
320,192,49319,1,0,0:0:0:0:
448,192,49319,1,0,0:0:0:0:
192,192,49671,1,0,0:0:0:0:
320,192,49671,1,0,0:0:0:0:
64,192,50024,1,0,0:0:0:0:
192,192,50024,1,0,0:0:0:0:
192,192,50377,1,0,0:0:0:0:
320,192,50377,1,0,0:0:0:0:
320,192,50730,1,0,0:0:0:0:
448,192,50730,1,0,0:0:0:0:
64,192,51083,1,0,0:0:0:0:
448,192,51083,1,0,0:0:0:0:
64,192,51436,1,0,0:0:0:0:
192,192,51612,1,0,0:0:0:0:
448,192,51789,1,0,0:0:0:0:
192,192,51965,1,0,0:0:0:0:
64,192,52142,1,0,0:0:0:0:
192,192,52318,1,0,0:0:0:0:
448,192,52495,1,0,0:0:0:0:
448,192,52848,1,0,0:0:0:0:
192,192,53024,1,0,0:0:0:0:
64,192,53200,1,0,0:0:0:0:
192,192,53377,1,0,0:0:0:0:
448,192,53553,1,0,0:0:0:0:
192,192,53730,1,0,0:0:0:0:
64,192,53906,1,0,0:0:0:0:
64,192,54259,1,0,0:0:0:0:
192,192,54436,1,0,0:0:0:0:
448,192,54612,1,0,0:0:0:0:
192,192,54788,1,0,0:0:0:0:
64,192,54965,1,0,0:0:0:0:
192,192,55141,1,0,0:0:0:0:
448,192,55318,1,0,0:0:0:0:
64,192,55671,1,0,0:0:0:0:
192,192,55671,1,0,0:0:0:0:
192,192,56024,1,0,0:0:0:0:
320,192,56024,1,0,0:0:0:0:
320,192,56377,1,0,0:0:0:0:
448,192,56377,1,0,0:0:0:0:
64,192,56729,1,0,0:0:0:0:
448,192,56729,1,0,0:0:0:0:
448,192,57082,1,0,0:0:0:0:
320,192,57259,1,0,0:0:0:0:
64,192,57435,1,0,0:0:0:0:
320,192,57612,1,0,0:0:0:0:
448,192,57788,1,0,0:0:0:0:
320,192,57965,1,0,0:0:0:0:
64,192,58141,1,0,0:0:0:0:
64,192,58494,1,0,0:0:0:0:
320,192,58670,1,0,0:0:0:0:
448,192,58847,1,0,0:0:0:0:
320,192,59023,1,0,0:0:0:0:
64,192,59200,1,0,0:0:0:0:
320,192,59376,1,0,0:0:0:0:
448,192,59553,1,0,0:0:0:0:
448,192,59906,1,0,0:0:0:0:
320,192,60082,1,0,0:0:0:0:
64,192,60258,1,0,0:0:0:0:
320,192,60435,1,0,0:0:0:0:
448,192,60611,1,0,0:0:0:0:
320,192,60788,1,0,0:0:0:0:
64,192,60964,1,0,0:0:0:0:
64,192,61317,1,0,0:0:0:0:
192,192,61317,1,0,0:0:0:0:
192,192,61670,1,0,0:0:0:0:
320,192,61670,1,0,0:0:0:0:
320,192,62023,1,0,0:0:0:0:
448,192,62023,1,0,0:0:0:0:
64,192,62376,1,0,0:0:0:0:
448,192,62376,1,0,0:0:0:0:
448,192,62729,1,0,0:0:0:0:
320,192,62905,1,0,0:0:0:0:
448,192,63082,1,0,0:0:0:0:
320,192,63258,1,0,0:0:0:0:
192,192,63434,1,0,0:0:0:0:
320,192,63787,1,0,0:0:0:0:
320,192,64140,1,0,0:0:0:0:
192,192,64317,1,0,0:0:0:0:
320,192,64493,1,0,0:0:0:0:
192,192,64670,1,0,0:0:0:0:
64,192,64846,1,0,0:0:0:0:
448,192,65199,1,0,0:0:0:0:
64,192,65552,1,0,0:0:0:0:
448,192,65728,1,0,0:0:0:0:
64,192,65905,1,0,0:0:0:0:
448,192,66081,1,0,0:0:0:0:
192,192,66258,1,0,0:0:0:0:
320,192,66611,1,0,0:0:0:0:
192,192,66964,1,0,0:0:0:0:
448,192,67140,1,0,0:0:0:0:
192,192,67316,1,0,0:0:0:0:
448,192,67493,1,0,0:0:0:0:
64,192,67669,1,0,0:0:0:0:
320,192,68022,1,0,0:0:0:0:
64,192,68375,1,0,0:0:0:0:
192,192,68552,1,0,0:0:0:0:
64,192,68728,1,0,0:0:0:0:
192,192,68904,1,0,0:0:0:0:
320,192,69081,1,0,0:0:0:0:
192,192,69434,1,0,0:0:0:0:
320,192,69787,1,0,0:0:0:0:
192,192,69963,1,0,0:0:0:0:
320,192,70140,1,0,0:0:0:0:
192,192,70316,1,0,0:0:0:0:
448,192,70493,1,0,0:0:0:0:
320,192,70845,1,0,0:0:0:0:
448,192,71198,1,0,0:0:0:0:
320,192,71375,1,0,0:0:0:0:
448,192,71551,1,0,0:0:0:0:
192,192,71728,1,0,0:0:0:0:
448,192,71904,1,0,0:0:0:0:
64,192,72081,1,0,0:0:0:0:
448,192,72257,1,0,0:0:0:0:
192,192,72434,1,0,0:0:0:0:
448,192,72610,1,0,0:0:0:0:
320,192,72786,1,0,0:0:0:0:
192,192,72963,1,0,0:0:0:0:
64,192,73139,1,0,0:0:0:0:
448,192,73316,1,0,0:0:0:0:
64,192,73492,1,0,0:0:0:0:
448,192,73669,1,0,0:0:0:0:
64,192,73845,1,0,0:0:0:0:
448,192,74022,1,0,0:0:0:0:
64,192,74375,1,0,0:0:0:0:
192,192,74551,1,0,0:0:0:0:
64,192,74727,1,0,0:0:0:0:
192,192,74904,1,0,0:0:0:0:
64,192,75080,1,0,0:0:0:0:
320,192,75257,1,0,0:0:0:0:
64,192,75433,1,0,0:0:0:0:
320,192,75610,1,0,0:0:0:0:
64,192,75786,1,0,0:0:0:0:
448,192,75963,1,0,0:0:0:0:
64,192,76139,1,0,0:0:0:0:
448,192,76316,1,0,0:0:0:0:
192,192,76492,1,0,0:0:0:0:
448,192,76668,1,0,0:0:0:0:
192,192,76845,1,0,0:0:0:0:
448,192,77198,1,0,0:0:0:0:
320,192,77374,1,0,0:0:0:0:
448,192,77551,1,0,0:0:0:0:
320,192,77727,1,0,0:0:0:0:
448,192,77904,1,0,0:0:0:0:
192,192,78080,1,0,0:0:0:0:
448,192,78257,1,0,0:0:0:0:
192,192,78433,1,0,0:0:0:0:
448,192,78609,1,0,0:0:0:0:
64,192,78786,1,0,0:0:0:0:
448,192,78962,1,0,0:0:0:0:
64,192,79139,1,0,0:0:0:0:
320,192,79315,1,0,0:0:0:0:
64,192,79492,1,0,0:0:0:0:
320,192,79668,1,0,0:0:0:0:
192,192,79845,1,0,0:0:0:0:
320,192,80021,1,0,0:0:0:0:
192,192,80197,1,0,0:0:0:0:
320,192,80374,1,0,0:0:0:0:
192,192,80550,1,0,0:0:0:0:
320,192,80727,1,0,0:0:0:0:
192,192,80903,1,0,0:0:0:0:
448,192,81080,1,0,0:0:0:0:
64,192,81256,1,0,0:0:0:0:
448,192,81433,1,0,0:0:0:0:
64,192,81609,1,0,0:0:0:0:
448,192,81786,1,0,0:0:0:0:
64,192,81874,1,0,0:0:0:0:
448,192,81962,1,0,0:0:0:0:
64,192,82050,1,0,0:0:0:0:
448,192,82138,1,0,0:0:0:0:
64,192,82227,1,0,0:0:0:0:
448,192,82315,1,0,0:0:0:0:
64,192,82403,1,0,0:0:0:0:
448,192,82491,1,0,0:0:0:0:
64,192,83197,1,0,0:0:0:0:
448,192,83197,1,0,0:0:0:0:
64,0,83903,128,0,87432:1:0:0:0:
448,0,83903,128,0,87432:1:0:0:0:
