osu file format v12

[General]
AudioFilename: Heart Of Witch.mp3
AudioLeadIn: 2
PreviewTime: 11900
Countdown: 0
SampleSet: None
StackLeniency: 0.7
Mode: 3
LetterboxInBreaks: 0
SpecialStyle: 0
WidescreenStoryboard: 0

[Editor]
DistanceSpacing: 0.8
BeatDivisor: 4
GridSize: 8
TimelineZoom: 1

[Metadata]
Title:Heart of Witch
TitleUnicode:Heart of Witch
Artist:Rex
ArtistUnicode:Rex
Creator:MasterSonic10
Version:4k MX
Source:Stepmania
Tags:Stepmania
BeatmapID:432541
BeatmapSetID:179961

[Difficulty]
HPDrainRate:5
CircleSize:4
OverallDifficulty:7
ApproachRate:10
SliderMultiplier:1.4
SliderTickRate:1

[Events]
//Background and Video events
0,0,"background.jpg",0,0
//Break Periods
//Storyboard Layer 0 (Background)
//Storyboard Layer 1 (Fail)
//Storyboard Layer 2 (Pass)
//Storyboard Layer 3 (Foreground)
//Storyboard Sound Samples
//Background Colour Transformations
3,100,163,162,255

[TimingPoints]
-2910,352.8997,4,1,0,15,1,0

[HitObjects]
64,192,266,5,0,0:0:0:0:
448,192,266,1,0,0:0:0:0:
192,192,354,1,0,0:0:0:0:
320,192,442,1,0,0:0:0:0:
448,192,530,1,0,0:0:0:0:
320,0,618,128,0,1148:1:0:0:0:
192,192,1324,1,0,0:0:0:0:
320,192,1677,1,0,0:0:0:0:
320,192,2030,1,0,0:0:0:0:
448,192,2030,1,0,0:0:0:0:
192,192,2207,1,0,0:0:0:0:
320,192,2207,1,0,0:0:0:0:
64,192,2383,1,0,0:0:0:0:
192,192,2383,1,0,0:0:0:0:
192,192,2559,1,0,0:0:0:0:
320,192,2559,1,0,0:0:0:0:
320,192,2736,1,0,0:0:0:0:
448,192,2736,1,0,0:0:0:0:
192,192,2912,1,0,0:0:0:0:
320,192,2912,1,0,0:0:0:0:
448,192,3089,1,0,0:0:0:0:
320,192,3177,1,0,0:0:0:0:
192,192,3265,1,0,0:0:0:0:
64,192,3353,1,0,0:0:0:0:
448,0,3442,128,0,4147:1:0:0:0:
64,192,4147,1,0,0:0:0:0:
192,192,4500,1,0,0:0:0:0:
64,192,4853,1,0,0:0:0:0:
192,192,4853,1,0,0:0:0:0:
192,192,5030,1,0,0:0:0:0:
320,192,5030,1,0,0:0:0:0:
320,192,5206,1,0,0:0:0:0:
448,192,5206,1,0,0:0:0:0:
192,192,5383,1,0,0:0:0:0:
320,192,5383,1,0,0:0:0:0:
64,192,5559,1,0,0:0:0:0:
192,192,5559,1,0,0:0:0:0:
192,192,5736,1,0,0:0:0:0:
320,192,5736,1,0,0:0:0:0:
320,192,5912,1,0,0:0:0:0:
448,192,5912,1,0,0:0:0:0:
320,192,6265,1,0,0:0:0:0:
448,192,6265,1,0,0:0:0:0:
448,192,6441,1,0,0:0:0:0:
320,192,6530,1,0,0:0:0:0:
320,192,6618,1,0,0:0:0:0:
448,192,6618,1,0,0:0:0:0:
192,192,6794,1,0,0:0:0:0:
320,192,6794,1,0,0:0:0:0:
448,192,6971,1,0,0:0:0:0:
192,192,7059,1,0,0:0:0:0:
192,192,7147,1,0,0:0:0:0:
448,192,7147,1,0,0:0:0:0:
64,192,7324,1,0,0:0:0:0:
192,192,7324,1,0,0:0:0:0:
448,192,7500,1,0,0:0:0:0:
64,192,7588,1,0,0:0:0:0:
64,192,7676,1,0,0:0:0:0:
448,192,7676,1,0,0:0:0:0:
192,192,7853,1,0,0:0:0:0:
320,192,7853,1,0,0:0:0:0:
448,192,8029,1,0,0:0:0:0:
192,192,8118,1,0,0:0:0:0:
192,192,8206,1,0,0:0:0:0:
448,192,8206,1,0,0:0:0:0:
320,192,8382,1,0,0:0:0:0:
448,192,8382,1,0,0:0:0:0:
448,192,8559,1,0,0:0:0:0:
320,192,8647,1,0,0:0:0:0:
320,192,8735,1,0,0:0:0:0:
448,192,8735,1,0,0:0:0:0:
64,192,9088,1,0,0:0:0:0:
192,192,9088,1,0,0:0:0:0:
64,192,9265,1,0,0:0:0:0:
192,192,9353,1,0,0:0:0:0:
64,192,9441,1,0,0:0:0:0:
192,192,9441,1,0,0:0:0:0:
192,192,9617,1,0,0:0:0:0:
320,192,9617,1,0,0:0:0:0:
64,192,9794,1,0,0:0:0:0:
320,192,9882,1,0,0:0:0:0:
64,192,9970,1,0,0:0:0:0:
320,192,9970,1,0,0:0:0:0:
320,192,10147,1,0,0:0:0:0:
448,192,10147,1,0,0:0:0:0:
64,192,10323,1,0,0:0:0:0:
448,192,10411,1,0,0:0:0:0:
64,192,10500,1,0,0:0:0:0:
448,192,10500,1,0,0:0:0:0:
192,192,10676,1,0,0:0:0:0:
320,192,10676,1,0,0:0:0:0:
64,192,10853,1,0,0:0:0:0:
320,192,10941,1,0,0:0:0:0:
64,192,11029,1,0,0:0:0:0:
320,192,11029,1,0,0:0:0:0:
64,192,11205,1,0,0:0:0:0:
192,192,11205,1,0,0:0:0:0:
64,192,11382,1,0,0:0:0:0:
192,192,11470,1,0,0:0:0:0:
64,192,11558,1,0,0:0:0:0:
192,192,11558,1,0,0:0:0:0:
64,192,11911,1,0,0:0:0:0:
192,192,11911,1,0,0:0:0:0:
64,192,12088,1,0,0:0:0:0:
320,192,12088,1,0,0:0:0:0:
64,192,12264,1,0,0:0:0:0:
448,192,12264,1,0,0:0:0:0:
64,192,12441,1,0,0:0:0:0:
192,192,12441,1,0,0:0:0:0:
64,192,12617,1,0,0:0:0:0:
320,192,12617,1,0,0:0:0:0:
64,192,12794,1,0,0:0:0:0:
448,192,12794,1,0,0:0:0:0:
64,192,12970,1,0,0:0:0:0:
448,192,12970,1,0,0:0:0:0:
192,192,13323,1,0,0:0:0:0:
448,192,13323,1,0,0:0:0:0:
64,192,13499,1,0,0:0:0:0:
192,192,13499,1,0,0:0:0:0:
192,192,13676,1,0,0:0:0:0:
320,192,13676,1,0,0:0:0:0:
192,192,13852,1,0,0:0:0:0:
448,192,13852,1,0,0:0:0:0:
64,192,14029,1,0,0:0:0:0:
192,192,14029,1,0,0:0:0:0:
192,192,14205,1,0,0:0:0:0:
320,192,14205,1,0,0:0:0:0:
192,192,14382,1,0,0:0:0:0:
320,192,14382,1,0,0:0:0:0:
64,192,14734,1,0,0:0:0:0:
320,192,14734,1,0,0:0:0:0:
320,192,14911,1,0,0:0:0:0:
448,192,14911,1,0,0:0:0:0:
192,192,15087,1,0,0:0:0:0:
320,192,15087,1,0,0:0:0:0:
64,192,15264,1,0,0:0:0:0:
320,192,15264,1,0,0:0:0:0:
320,192,15440,1,0,0:0:0:0:
448,192,15440,1,0,0:0:0:0:
192,192,15617,1,0,0:0:0:0:
320,192,15617,1,0,0:0:0:0:
192,192,15793,1,0,0:0:0:0:
320,192,15793,1,0,0:0:0:0:
64,192,16146,1,0,0:0:0:0:
320,192,16146,1,0,0:0:0:0:
192,192,16234,1,0,0:0:0:0:
448,192,16323,1,0,0:0:0:0:
320,192,16411,1,0,0:0:0:0:
192,192,16499,1,0,0:0:0:0:
448,192,16499,1,0,0:0:0:0:
320,192,16587,1,0,0:0:0:0:
64,192,16675,1,0,0:0:0:0:
192,192,16764,1,0,0:0:0:0:
64,192,16852,1,0,0:0:0:0:
320,192,16852,1,0,0:0:0:0:
192,192,16940,1,0,0:0:0:0:
448,192,17028,1,0,0:0:0:0:
320,192,17117,1,0,0:0:0:0:
192,192,17205,1,0,0:0:0:0:
448,192,17205,1,0,0:0:0:0:
320,192,17293,1,0,0:0:0:0:
64,192,17381,1,0,0:0:0:0:
192,192,17469,1,0,0:0:0:0:
320,192,17558,1,0,0:0:0:0:
448,192,17558,1,0,0:0:0:0:
192,192,17734,1,0,0:0:0:0:
448,192,17734,1,0,0:0:0:0:
64,192,17911,1,0,0:0:0:0:
448,192,17911,1,0,0:0:0:0:
320,192,18087,1,0,0:0:0:0:
448,192,18087,1,0,0:0:0:0:
192,192,18263,1,0,0:0:0:0:
448,192,18263,1,0,0:0:0:0:
64,192,18440,1,0,0:0:0:0:
448,192,18440,1,0,0:0:0:0:
64,192,18616,1,0,0:0:0:0:
448,192,18616,1,0,0:0:0:0:
64,192,18969,1,0,0:0:0:0:
320,192,18969,1,0,0:0:0:0:
320,192,19146,1,0,0:0:0:0:
448,192,19146,1,0,0:0:0:0:
192,192,19322,1,0,0:0:0:0:
320,192,19322,1,0,0:0:0:0:
64,192,19499,1,0,0:0:0:0:
320,192,19499,1,0,0:0:0:0:
320,192,19675,1,0,0:0:0:0:
448,192,19675,1,0,0:0:0:0:
192,192,19852,1,0,0:0:0:0:
320,192,19852,1,0,0:0:0:0:
192,192,20028,1,0,0:0:0:0:
320,192,20028,1,0,0:0:0:0:
192,192,20381,1,0,0:0:0:0:
448,192,20381,1,0,0:0:0:0:
64,192,20557,1,0,0:0:0:0:
192,192,20557,1,0,0:0:0:0:
192,192,20734,1,0,0:0:0:0:
320,192,20734,1,0,0:0:0:0:
192,192,20910,1,0,0:0:0:0:
448,192,20910,1,0,0:0:0:0:
64,192,21087,1,0,0:0:0:0:
192,192,21087,1,0,0:0:0:0:
192,192,21263,1,0,0:0:0:0:
320,192,21263,1,0,0:0:0:0:
192,192,21440,1,0,0:0:0:0:
320,192,21440,1,0,0:0:0:0:
192,192,21792,1,0,0:0:0:0:
448,192,21792,1,0,0:0:0:0:
320,192,21881,1,0,0:0:0:0:
64,192,21969,1,0,0:0:0:0:
192,192,22057,1,0,0:0:0:0:
64,192,22145,1,0,0:0:0:0:
320,192,22145,1,0,0:0:0:0:
192,192,22234,1,0,0:0:0:0:
448,192,22322,1,0,0:0:0:0:
320,192,22410,1,0,0:0:0:0:
192,192,22498,1,0,0:0:0:0:
448,192,22498,1,0,0:0:0:0:
320,192,22586,1,0,0:0:0:0:
64,192,22675,1,0,0:0:0:0:
192,192,22763,1,0,0:0:0:0:
64,192,22851,1,0,0:0:0:0:
320,192,22851,1,0,0:0:0:0:
192,192,22939,1,0,0:0:0:0:
448,192,23028,1,0,0:0:0:0:
320,192,23116,1,0,0:0:0:0:
64,192,23204,1,0,0:0:0:0:
192,192,23204,1,0,0:0:0:0:
320,192,23292,1,0,0:0:0:0:
448,192,23380,1,0,0:0:0:0:
192,192,23469,1,0,0:0:0:0:
64,192,23557,1,0,0:0:0:0:
320,192,23557,1,0,0:0:0:0:
192,192,23645,1,0,0:0:0:0:
320,192,23733,1,0,0:0:0:0:
192,192,23822,1,0,0:0:0:0:
64,192,23910,1,0,0:0:0:0:
448,192,23910,1,0,0:0:0:0:
192,192,23998,1,0,0:0:0:0:
320,192,24086,1,0,0:0:0:0:
448,192,24175,1,0,0:0:0:0:
64,192,24263,1,0,0:0:0:0:
320,192,24263,1,0,0:0:0:0:
192,192,24351,1,0,0:0:0:0:
448,192,24439,1,0,0:0:0:0:
320,192,24527,1,0,0:0:0:0:
64,192,24616,1,0,0:0:0:0:
192,192,24616,1,0,0:0:0:0:
448,192,24704,1,0,0:0:0:0:
320,192,24792,1,0,0:0:0:0:
192,192,24880,1,0,0:0:0:0:
64,192,24969,1,0,0:0:0:0:
320,192,24969,1,0,0:0:0:0:
192,192,25057,1,0,0:0:0:0:
320,192,25145,1,0,0:0:0:0:
192,192,25233,1,0,0:0:0:0:
64,192,25321,1,0,0:0:0:0:
448,192,25321,1,0,0:0:0:0:
192,192,25410,1,0,0:0:0:0:
320,192,25498,1,0,0:0:0:0:
448,192,25586,1,0,0:0:0:0:
64,192,25674,1,0,0:0:0:0:
320,192,25674,1,0,0:0:0:0:
192,192,25763,1,0,0:0:0:0:
320,192,25851,1,0,0:0:0:0:
192,192,25939,1,0,0:0:0:0:
320,192,26027,1,0,0:0:0:0:
448,192,26027,1,0,0:0:0:0:
192,192,26115,1,0,0:0:0:0:
64,192,26204,1,0,0:0:0:0:
320,192,26292,1,0,0:0:0:0:
192,192,26380,1,0,0:0:0:0:
448,192,26380,1,0,0:0:0:0:
320,192,26468,1,0,0:0:0:0:
192,192,26557,1,0,0:0:0:0:
320,192,26645,1,0,0:0:0:0:
64,192,26733,1,0,0:0:0:0:
448,192,26733,1,0,0:0:0:0:
320,192,26821,1,0,0:0:0:0:
192,192,26909,1,0,0:0:0:0:
64,192,26998,1,0,0:0:0:0:
192,192,27086,1,0,0:0:0:0:
448,192,27086,1,0,0:0:0:0:
320,192,27174,1,0,0:0:0:0:
64,192,27262,1,0,0:0:0:0:
192,192,27351,1,0,0:0:0:0:
320,192,27439,1,0,0:0:0:0:
448,192,27439,1,0,0:0:0:0:
64,192,27527,1,0,0:0:0:0:
192,192,27615,1,0,0:0:0:0:
320,192,27703,1,0,0:0:0:0:
192,192,27792,1,0,0:0:0:0:
448,192,27792,1,0,0:0:0:0:
320,192,27880,1,0,0:0:0:0:
192,192,27968,1,0,0:0:0:0:
320,192,28056,1,0,0:0:0:0:
64,192,28145,1,0,0:0:0:0:
448,192,28145,1,0,0:0:0:0:
320,192,28233,1,0,0:0:0:0:
192,192,28321,1,0,0:0:0:0:
64,192,28409,1,0,0:0:0:0:
192,192,28498,1,0,0:0:0:0:
448,192,28498,1,0,0:0:0:0:
320,192,28586,1,0,0:0:0:0:
192,192,28674,1,0,0:0:0:0:
320,192,28762,1,0,0:0:0:0:
64,192,28850,1,0,0:0:0:0:
192,192,28850,1,0,0:0:0:0:
320,192,28939,1,0,0:0:0:0:
448,192,29027,1,0,0:0:0:0:
192,192,29115,1,0,0:0:0:0:
64,192,29203,1,0,0:0:0:0:
320,192,29203,1,0,0:0:0:0:
192,192,29292,1,0,0:0:0:0:
320,192,29380,1,0,0:0:0:0:
192,192,29468,1,0,0:0:0:0:
64,192,29556,1,0,0:0:0:0:
448,192,29556,1,0,0:0:0:0:
192,192,29644,1,0,0:0:0:0:
320,192,29733,1,0,0:0:0:0:
448,192,29821,1,0,0:0:0:0:
64,192,29909,1,0,0:0:0:0:
320,192,29909,1,0,0:0:0:0:
192,192,29997,1,0,0:0:0:0:
448,192,30086,1,0,0:0:0:0:
320,192,30174,1,0,0:0:0:0:
64,192,30262,1,0,0:0:0:0:
192,192,30262,1,0,0:0:0:0:
448,192,30350,1,0,0:0:0:0:
320,192,30438,1,0,0:0:0:0:
192,192,30527,1,0,0:0:0:0:
64,192,30615,1,0,0:0:0:0:
320,192,30615,1,0,0:0:0:0:
192,192,30703,1,0,0:0:0:0:
320,192,30791,1,0,0:0:0:0:
192,192,30880,1,0,0:0:0:0:
64,192,30968,1,0,0:0:0:0:
448,192,30968,1,0,0:0:0:0:
192,192,31056,1,0,0:0:0:0:
320,192,31144,1,0,0:0:0:0:
448,192,31232,1,0,0:0:0:0:
64,192,31321,1,0,0:0:0:0:
320,192,31321,1,0,0:0:0:0:
192,192,31409,1,0,0:0:0:0:
320,192,31497,1,0,0:0:0:0:
192,192,31585,1,0,0:0:0:0:
320,192,31674,1,0,0:0:0:0:
448,192,31674,1,0,0:0:0:0:
192,192,31762,1,0,0:0:0:0:
64,192,31850,1,0,0:0:0:0:
320,192,31938,1,0,0:0:0:0:
192,192,32027,1,0,0:0:0:0:
448,192,32027,1,0,0:0:0:0:
320,192,32115,1,0,0:0:0:0:
192,192,32203,1,0,0:0:0:0:
320,192,32291,1,0,0:0:0:0:
64,192,32379,1,0,0:0:0:0:
448,192,32379,1,0,0:0:0:0:
320,192,32468,1,0,0:0:0:0:
192,192,32556,1,0,0:0:0:0:
64,192,32644,1,0,0:0:0:0:
192,192,32732,1,0,0:0:0:0:
448,192,32732,1,0,0:0:0:0:
320,192,32821,1,0,0:0:0:0:
64,192,32909,1,0,0:0:0:0:
192,192,32997,1,0,0:0:0:0:
320,192,33085,1,0,0:0:0:0:
448,192,33085,1,0,0:0:0:0:
64,192,33173,1,0,0:0:0:0:
192,192,33262,1,0,0:0:0:0:
320,192,33350,1,0,0:0:0:0:
192,192,33438,1,0,0:0:0:0:
448,192,33438,1,0,0:0:0:0:
320,192,33526,1,0,0:0:0:0:
192,192,33615,1,0,0:0:0:0:
320,192,33703,1,0,0:0:0:0:
64,192,33791,1,0,0:0:0:0:
448,192,33791,1,0,0:0:0:0:
320,192,33879,1,0,0:0:0:0:
192,192,33967,1,0,0:0:0:0:
64,192,34056,1,0,0:0:0:0:
192,192,34144,1,0,0:0:0:0:
448,192,34144,1,0,0:0:0:0:
320,192,34232,1,0,0:0:0:0:
192,192,34320,1,0,0:0:0:0:
320,192,34409,1,0,0:0:0:0:
64,192,34497,1,0,0:0:0:0:
192,192,34497,1,0,0:0:0:0:
192,192,34673,1,0,0:0:0:0:
320,192,34673,1,0,0:0:0:0:
192,192,35026,1,0,0:0:0:0:
448,192,35026,1,0,0:0:0:0:
320,192,35114,1,0,0:0:0:0:
192,192,35203,1,0,0:0:0:0:
64,192,35291,1,0,0:0:0:0:
448,192,35379,1,0,0:0:0:0:
320,192,35467,1,0,0:0:0:0:
192,192,35556,1,0,0:0:0:0:
64,192,35644,1,0,0:0:0:0:
448,192,35732,1,0,0:0:0:0:
320,192,35820,1,0,0:0:0:0:
64,192,35908,1,0,0:0:0:0:
192,192,35908,1,0,0:0:0:0:
192,192,36085,1,0,0:0:0:0:
320,192,36085,1,0,0:0:0:0:
320,192,36261,1,0,0:0:0:0:
448,192,36261,1,0,0:0:0:0:
192,192,36438,1,0,0:0:0:0:
320,192,36438,1,0,0:0:0:0:
64,192,36614,1,0,0:0:0:0:
192,192,36614,1,0,0:0:0:0:
320,192,36791,1,0,0:0:0:0:
448,192,36791,1,0,0:0:0:0:
192,192,36879,1,0,0:0:0:0:
64,192,36967,1,0,0:0:0:0:
192,192,37055,1,0,0:0:0:0:
320,192,37144,1,0,0:0:0:0:
448,192,37232,1,0,0:0:0:0:
64,192,37320,1,0,0:0:0:0:
320,192,37320,1,0,0:0:0:0:
64,192,37497,1,0,0:0:0:0:
192,192,37497,1,0,0:0:0:0:
64,192,37849,1,0,0:0:0:0:
448,192,37849,1,0,0:0:0:0:
192,192,37938,1,0,0:0:0:0:
320,192,38026,1,0,0:0:0:0:
192,192,38114,1,0,0:0:0:0:
64,192,38202,1,0,0:0:0:0:
448,192,38291,1,0,0:0:0:0:
320,192,38379,1,0,0:0:0:0:
192,192,38467,1,0,0:0:0:0:
320,192,38555,1,0,0:0:0:0:
448,192,38643,1,0,0:0:0:0:
192,192,38732,1,0,0:0:0:0:
320,192,38732,1,0,0:0:0:0:
192,192,39085,1,0,0:0:0:0:
448,192,39085,1,0,0:0:0:0:
320,192,39173,1,0,0:0:0:0:
448,192,39261,1,0,0:0:0:0:
320,192,39349,1,0,0:0:0:0:
64,192,39438,1,0,0:0:0:0:
448,192,39438,1,0,0:0:0:0:
192,192,39526,1,0,0:0:0:0:
448,192,39614,1,0,0:0:0:0:
192,192,39702,1,0,0:0:0:0:
320,192,39790,1,0,0:0:0:0:
448,192,39790,1,0,0:0:0:0:
64,192,39879,1,0,0:0:0:0:
448,192,39967,1,0,0:0:0:0:
64,192,40055,1,0,0:0:0:0:
320,192,40143,1,0,0:0:0:0:
448,192,40143,1,0,0:0:0:0:
192,192,40320,1,0,0:0:0:0:
320,192,40320,1,0,0:0:0:0:
64,192,40673,1,0,0:0:0:0:
320,192,40673,1,0,0:0:0:0:
192,192,40761,1,0,0:0:0:0:
320,192,40849,1,0,0:0:0:0:
448,192,40937,1,0,0:0:0:0:
64,192,41026,1,0,0:0:0:0:
192,192,41114,1,0,0:0:0:0:
320,192,41202,1,0,0:0:0:0:
448,192,41290,1,0,0:0:0:0:
64,192,41379,1,0,0:0:0:0:
192,192,41467,1,0,0:0:0:0:
320,192,41555,1,0,0:0:0:0:
448,192,41555,1,0,0:0:0:0:
192,192,41731,1,0,0:0:0:0:
320,192,41731,1,0,0:0:0:0:
64,192,41908,1,0,0:0:0:0:
192,192,41908,1,0,0:0:0:0:
192,192,42084,1,0,0:0:0:0:
320,192,42084,1,0,0:0:0:0:
320,192,42261,1,0,0:0:0:0:
448,192,42261,1,0,0:0:0:0:
64,192,42437,1,0,0:0:0:0:
192,192,42437,1,0,0:0:0:0:
320,192,42525,1,0,0:0:0:0:
448,192,42614,1,0,0:0:0:0:
320,192,42702,1,0,0:0:0:0:
192,192,42790,1,0,0:0:0:0:
64,192,42878,1,0,0:0:0:0:
192,192,42967,1,0,0:0:0:0:
448,192,42967,1,0,0:0:0:0:
320,192,43143,1,0,0:0:0:0:
448,192,43143,1,0,0:0:0:0:
64,192,43496,1,0,0:0:0:0:
448,192,43496,1,0,0:0:0:0:
320,192,43584,1,0,0:0:0:0:
192,192,43672,1,0,0:0:0:0:
320,192,43761,1,0,0:0:0:0:
448,192,43849,1,0,0:0:0:0:
64,192,43937,1,0,0:0:0:0:
192,192,44025,1,0,0:0:0:0:
320,192,44114,1,0,0:0:0:0:
192,192,44202,1,0,0:0:0:0:
64,192,44290,1,0,0:0:0:0:
192,192,44378,1,0,0:0:0:0:
320,192,44378,1,0,0:0:0:0:
64,192,44731,1,0,0:0:0:0:
320,192,44731,1,0,0:0:0:0:
192,192,44819,1,0,0:0:0:0:
64,192,44908,1,0,0:0:0:0:
192,192,44996,1,0,0:0:0:0:
64,192,45084,1,0,0:0:0:0:
448,192,45084,1,0,0:0:0:0:
320,192,45172,1,0,0:0:0:0:
64,192,45260,1,0,0:0:0:0:
320,192,45349,1,0,0:0:0:0:
64,192,45437,1,0,0:0:0:0:
192,192,45437,1,0,0:0:0:0:
448,192,45525,1,0,0:0:0:0:
64,192,45613,1,0,0:0:0:0:
448,192,45702,1,0,0:0:0:0:
64,192,45790,1,0,0:0:0:0:
192,192,45790,1,0,0:0:0:0:
192,192,45966,1,0,0:0:0:0:
320,192,45966,1,0,0:0:0:0:
64,192,46319,1,0,0:0:0:0:
320,192,46319,1,0,0:0:0:0:
192,192,46407,1,0,0:0:0:0:
320,192,46496,1,0,0:0:0:0:
448,192,46584,1,0,0:0:0:0:
320,192,46672,1,0,0:0:0:0:
192,192,46760,1,0,0:0:0:0:
64,192,46849,1,0,0:0:0:0:
192,192,46937,1,0,0:0:0:0:
320,192,47025,1,0,0:0:0:0:
448,192,47113,1,0,0:0:0:0:
192,192,47201,1,0,0:0:0:0:
320,192,47201,1,0,0:0:0:0:
64,192,47554,1,0,0:0:0:0:
320,192,47554,1,0,0:0:0:0:
192,192,47643,1,0,0:0:0:0:
64,192,47731,1,0,0:0:0:0:
192,192,47819,1,0,0:0:0:0:
320,192,47907,1,0,0:0:0:0:
448,192,47995,1,0,0:0:0:0:
320,192,48084,1,0,0:0:0:0:
192,192,48172,1,0,0:0:0:0:
320,192,48260,1,0,0:0:0:0:
448,192,48348,1,0,0:0:0:0:
64,192,48437,1,0,0:0:0:0:
192,192,48437,1,0,0:0:0:0:
192,192,48613,1,0,0:0:0:0:
448,192,48613,1,0,0:0:0:0:
320,192,48701,1,0,0:0:0:0:
192,192,48790,1,0,0:0:0:0:
448,192,48790,1,0,0:0:0:0:
64,192,48966,1,0,0:0:0:0:
320,192,48966,1,0,0:0:0:0:
192,192,49054,1,0,0:0:0:0:
64,192,49142,1,0,0:0:0:0:
320,192,49142,1,0,0:0:0:0:
192,192,49319,1,0,0:0:0:0:
448,192,49319,1,0,0:0:0:0:
64,192,49407,1,0,0:0:0:0:
192,192,49495,1,0,0:0:0:0:
448,192,49495,1,0,0:0:0:0:
64,192,49672,1,0,0:0:0:0:
320,192,49672,1,0,0:0:0:0:
448,192,49760,1,0,0:0:0:0:
64,192,49848,1,0,0:0:0:0:
320,192,49848,1,0,0:0:0:0:
192,192,50025,1,0,0:0:0:0:
448,192,50025,1,0,0:0:0:0:
320,192,50113,1,0,0:0:0:0:
192,192,50201,1,0,0:0:0:0:
448,192,50201,1,0,0:0:0:0:
64,192,50378,1,0,0:0:0:0:
320,192,50378,1,0,0:0:0:0:
192,192,50466,1,0,0:0:0:0:
64,192,50554,1,0,0:0:0:0:
320,192,50554,1,0,0:0:0:0:
192,192,50731,1,0,0:0:0:0:
448,192,50731,1,0,0:0:0:0:
64,192,50819,1,0,0:0:0:0:
320,192,50819,1,0,0:0:0:0:
192,192,50907,1,0,0:0:0:0:
448,192,50907,1,0,0:0:0:0:
64,192,50995,1,0,0:0:0:0:
320,192,50995,1,0,0:0:0:0:
192,192,51083,1,0,0:0:0:0:
448,192,51083,1,0,0:0:0:0:
64,192,51172,1,0,0:0:0:0:
320,192,51172,1,0,0:0:0:0:
192,192,51260,1,0,0:0:0:0:
448,192,51260,1,0,0:0:0:0:
64,192,51348,1,0,0:0:0:0:
320,192,51348,1,0,0:0:0:0:
192,192,51436,1,0,0:0:0:0:
448,192,51436,1,0,0:0:0:0:
192,192,51613,1,0,0:0:0:0:
320,192,51613,1,0,0:0:0:0:
64,192,51789,1,0,0:0:0:0:
192,192,51789,1,0,0:0:0:0:
192,192,51966,1,0,0:0:0:0:
448,192,51966,1,0,0:0:0:0:
192,192,52142,1,0,0:0:0:0:
320,192,52142,1,0,0:0:0:0:
64,192,52319,1,0,0:0:0:0:
192,192,52319,1,0,0:0:0:0:
192,192,52495,1,0,0:0:0:0:
448,192,52495,1,0,0:0:0:0:
320,192,52848,1,0,0:0:0:0:
448,192,52848,1,0,0:0:0:0:
64,192,53024,1,0,0:0:0:0:
448,192,53024,1,0,0:0:0:0:
192,192,53201,1,0,0:0:0:0:
448,192,53201,1,0,0:0:0:0:
320,192,53377,1,0,0:0:0:0:
448,192,53377,1,0,0:0:0:0:
64,192,53554,1,0,0:0:0:0:
448,192,53554,1,0,0:0:0:0:
192,192,53730,1,0,0:0:0:0:
448,192,53730,1,0,0:0:0:0:
320,192,53907,1,0,0:0:0:0:
448,192,53907,1,0,0:0:0:0:
64,192,54260,1,0,0:0:0:0:
192,192,54260,1,0,0:0:0:0:
64,192,54436,1,0,0:0:0:0:
448,192,54436,1,0,0:0:0:0:
64,192,54612,1,0,0:0:0:0:
320,192,54612,1,0,0:0:0:0:
64,192,54789,1,0,0:0:0:0:
192,192,54789,1,0,0:0:0:0:
64,192,54965,1,0,0:0:0:0:
448,192,54965,1,0,0:0:0:0:
64,192,55142,1,0,0:0:0:0:
320,192,55142,1,0,0:0:0:0:
64,192,55318,1,0,0:0:0:0:
192,192,55318,1,0,0:0:0:0:
64,192,55671,1,0,0:0:0:0:
320,192,55671,1,0,0:0:0:0:
192,192,55759,1,0,0:0:0:0:
448,192,55848,1,0,0:0:0:0:
320,192,55936,1,0,0:0:0:0:
192,192,56024,1,0,0:0:0:0:
448,192,56024,1,0,0:0:0:0:
320,192,56112,1,0,0:0:0:0:
64,192,56201,1,0,0:0:0:0:
192,192,56289,1,0,0:0:0:0:
64,192,56377,1,0,0:0:0:0:
320,192,56377,1,0,0:0:0:0:
192,192,56465,1,0,0:0:0:0:
448,192,56553,1,0,0:0:0:0:
320,192,56642,1,0,0:0:0:0:
192,192,56730,1,0,0:0:0:0:
448,192,56730,1,0,0:0:0:0:
320,192,56818,1,0,0:0:0:0:
448,192,56906,1,0,0:0:0:0:
192,192,56995,1,0,0:0:0:0:
64,192,57083,1,0,0:0:0:0:
320,192,57083,1,0,0:0:0:0:
192,192,57259,1,0,0:0:0:0:
320,192,57259,1,0,0:0:0:0:
320,192,57436,1,0,0:0:0:0:
448,192,57436,1,0,0:0:0:0:
64,192,57612,1,0,0:0:0:0:
320,192,57612,1,0,0:0:0:0:
192,192,57789,1,0,0:0:0:0:
320,192,57789,1,0,0:0:0:0:
320,192,57965,1,0,0:0:0:0:
448,192,57965,1,0,0:0:0:0:
64,192,58141,1,0,0:0:0:0:
320,192,58141,1,0,0:0:0:0:
64,192,58494,1,0,0:0:0:0:
192,192,58494,1,0,0:0:0:0:
64,192,58671,1,0,0:0:0:0:
448,192,58671,1,0,0:0:0:0:
64,192,58847,1,0,0:0:0:0:
320,192,58847,1,0,0:0:0:0:
64,192,59024,1,0,0:0:0:0:
192,192,59024,1,0,0:0:0:0:
64,192,59200,1,0,0:0:0:0:
448,192,59200,1,0,0:0:0:0:
64,192,59377,1,0,0:0:0:0:
320,192,59377,1,0,0:0:0:0:
64,192,59553,1,0,0:0:0:0:
192,192,59553,1,0,0:0:0:0:
320,192,59906,1,0,0:0:0:0:
448,192,59906,1,0,0:0:0:0:
64,192,60082,1,0,0:0:0:0:
448,192,60082,1,0,0:0:0:0:
192,192,60259,1,0,0:0:0:0:
448,192,60259,1,0,0:0:0:0:
320,192,60435,1,0,0:0:0:0:
448,192,60435,1,0,0:0:0:0:
64,192,60612,1,0,0:0:0:0:
448,192,60612,1,0,0:0:0:0:
192,192,60788,1,0,0:0:0:0:
448,192,60788,1,0,0:0:0:0:
320,192,60965,1,0,0:0:0:0:
448,192,60965,1,0,0:0:0:0:
192,192,61318,1,0,0:0:0:0:
448,192,61318,1,0,0:0:0:0:
320,192,61406,1,0,0:0:0:0:
64,192,61494,1,0,0:0:0:0:
192,192,61582,1,0,0:0:0:0:
64,192,61670,1,0,0:0:0:0:
320,192,61670,1,0,0:0:0:0:
192,192,61759,1,0,0:0:0:0:
448,192,61847,1,0,0:0:0:0:
320,192,61935,1,0,0:0:0:0:
192,192,62023,1,0,0:0:0:0:
448,192,62023,1,0,0:0:0:0:
320,192,62112,1,0,0:0:0:0:
64,192,62200,1,0,0:0:0:0:
192,192,62288,1,0,0:0:0:0:
64,192,62376,1,0,0:0:0:0:
320,192,62376,1,0,0:0:0:0:
192,192,62465,1,0,0:0:0:0:
320,192,62553,1,0,0:0:0:0:
192,192,62641,1,0,0:0:0:0:
320,192,62729,1,0,0:0:0:0:
448,192,62729,1,0,0:0:0:0:
192,192,62817,1,0,0:0:0:0:
320,192,62906,1,0,0:0:0:0:
448,192,62994,1,0,0:0:0:0:
192,192,63082,1,0,0:0:0:0:
320,192,63082,1,0,0:0:0:0:
64,192,63170,1,0,0:0:0:0:
192,192,63259,1,0,0:0:0:0:
320,192,63347,1,0,0:0:0:0:
64,192,63435,1,0,0:0:0:0:
192,192,63435,1,0,0:0:0:0:
320,192,63523,1,0,0:0:0:0:
192,192,63611,1,0,0:0:0:0:
320,192,63700,1,0,0:0:0:0:
64,192,63788,1,0,0:0:0:0:
448,192,63788,1,0,0:0:0:0:
320,192,63876,1,0,0:0:0:0:
192,192,63964,1,0,0:0:0:0:
64,192,64053,1,0,0:0:0:0:
320,192,64141,1,0,0:0:0:0:
448,192,64141,1,0,0:0:0:0:
192,192,64229,1,0,0:0:0:0:
448,192,64317,1,0,0:0:0:0:
64,192,64406,1,0,0:0:0:0:
192,192,64494,1,0,0:0:0:0:
320,192,64494,1,0,0:0:0:0:
448,192,64582,1,0,0:0:0:0:
64,192,64670,1,0,0:0:0:0:
320,192,64758,1,0,0:0:0:0:
64,192,64847,1,0,0:0:0:0:
192,192,64847,1,0,0:0:0:0:
320,192,64935,1,0,0:0:0:0:
192,192,65023,1,0,0:0:0:0:
320,192,65111,1,0,0:0:0:0:
64,192,65200,1,0,0:0:0:0:
448,192,65200,1,0,0:0:0:0:
320,192,65288,1,0,0:0:0:0:
448,192,65376,1,0,0:0:0:0:
320,192,65464,1,0,0:0:0:0:
64,192,65552,1,0,0:0:0:0:
192,192,65552,1,0,0:0:0:0:
320,192,65641,1,0,0:0:0:0:
448,192,65729,1,0,0:0:0:0:
64,192,65817,1,0,0:0:0:0:
192,192,65905,1,0,0:0:0:0:
320,192,65905,1,0,0:0:0:0:
448,192,65994,1,0,0:0:0:0:
64,192,66082,1,0,0:0:0:0:
192,192,66170,1,0,0:0:0:0:
320,192,66258,1,0,0:0:0:0:
448,192,66258,1,0,0:0:0:0:
192,192,66346,1,0,0:0:0:0:
320,192,66435,1,0,0:0:0:0:
192,192,66523,1,0,0:0:0:0:
64,192,66611,1,0,0:0:0:0:
448,192,66611,1,0,0:0:0:0:
320,192,66699,1,0,0:0:0:0:
448,192,66788,1,0,0:0:0:0:
320,192,66876,1,0,0:0:0:0:
64,192,66964,1,0,0:0:0:0:
192,192,66964,1,0,0:0:0:0:
320,192,67052,1,0,0:0:0:0:
448,192,67141,1,0,0:0:0:0:
64,192,67229,1,0,0:0:0:0:
192,192,67317,1,0,0:0:0:0:
320,192,67317,1,0,0:0:0:0:
448,192,67405,1,0,0:0:0:0:
64,192,67493,1,0,0:0:0:0:
192,192,67582,1,0,0:0:0:0:
320,192,67670,1,0,0:0:0:0:
448,192,67670,1,0,0:0:0:0:
192,192,67758,1,0,0:0:0:0:
64,192,67846,1,0,0:0:0:0:
320,192,67935,1,0,0:0:0:0:
64,192,68023,1,0,0:0:0:0:
448,192,68023,1,0,0:0:0:0:
192,192,68111,1,0,0:0:0:0:
320,192,68199,1,0,0:0:0:0:
64,192,68287,1,0,0:0:0:0:
320,192,68376,1,0,0:0:0:0:
448,192,68376,1,0,0:0:0:0:
192,192,68464,1,0,0:0:0:0:
320,192,68552,1,0,0:0:0:0:
448,192,68640,1,0,0:0:0:0:
192,192,68729,1,0,0:0:0:0:
320,192,68729,1,0,0:0:0:0:
64,192,68817,1,0,0:0:0:0:
192,192,68905,1,0,0:0:0:0:
320,192,68993,1,0,0:0:0:0:
64,192,69082,1,0,0:0:0:0:
192,192,69082,1,0,0:0:0:0:
320,192,69170,1,0,0:0:0:0:
192,192,69258,1,0,0:0:0:0:
320,192,69346,1,0,0:0:0:0:
64,192,69434,1,0,0:0:0:0:
448,192,69434,1,0,0:0:0:0:
320,192,69523,1,0,0:0:0:0:
192,192,69611,1,0,0:0:0:0:
64,192,69699,1,0,0:0:0:0:
320,192,69787,1,0,0:0:0:0:
448,192,69787,1,0,0:0:0:0:
192,192,69876,1,0,0:0:0:0:
448,192,69964,1,0,0:0:0:0:
64,192,70052,1,0,0:0:0:0:
192,192,70140,1,0,0:0:0:0:
320,192,70140,1,0,0:0:0:0:
448,192,70228,1,0,0:0:0:0:
64,192,70317,1,0,0:0:0:0:
320,192,70405,1,0,0:0:0:0:
64,192,70493,1,0,0:0:0:0:
192,192,70493,1,0,0:0:0:0:
320,192,70581,1,0,0:0:0:0:
192,192,70670,1,0,0:0:0:0:
320,192,70758,1,0,0:0:0:0:
64,192,70846,1,0,0:0:0:0:
448,192,70846,1,0,0:0:0:0:
320,192,70934,1,0,0:0:0:0:
448,192,71023,1,0,0:0:0:0:
192,192,71111,1,0,0:0:0:0:
448,192,71199,1,0,0:0:0:0:
320,192,71287,1,0,0:0:0:0:
448,192,71375,1,0,0:0:0:0:
320,192,71464,1,0,0:0:0:0:
448,192,71552,1,0,0:0:0:0:
192,192,71640,1,0,0:0:0:0:
448,192,71728,1,0,0:0:0:0:
192,192,71817,1,0,0:0:0:0:
64,192,71905,1,0,0:0:0:0:
192,192,71993,1,0,0:0:0:0:
64,192,72081,1,0,0:0:0:0:
192,192,72169,1,0,0:0:0:0:
64,192,72258,1,0,0:0:0:0:
320,192,72346,1,0,0:0:0:0:
64,192,72434,1,0,0:0:0:0:
320,192,72522,1,0,0:0:0:0:
64,192,72611,1,0,0:0:0:0:
448,192,72611,1,0,0:0:0:0:
64,192,72787,1,0,0:0:0:0:
448,192,72787,1,0,0:0:0:0:
64,192,72963,1,0,0:0:0:0:
448,192,72963,1,0,0:0:0:0:
64,192,73140,1,0,0:0:0:0:
448,192,73140,1,0,0:0:0:0:
64,192,73316,1,0,0:0:0:0:
448,192,73316,1,0,0:0:0:0:
192,192,73405,1,0,0:0:0:0:
320,192,73405,1,0,0:0:0:0:
64,192,73493,1,0,0:0:0:0:
448,192,73493,1,0,0:0:0:0:
192,192,73581,1,0,0:0:0:0:
320,192,73581,1,0,0:0:0:0:
64,192,73669,1,0,0:0:0:0:
448,192,73669,1,0,0:0:0:0:
192,192,73758,1,0,0:0:0:0:
320,192,73758,1,0,0:0:0:0:
64,192,73846,1,0,0:0:0:0:
448,192,73846,1,0,0:0:0:0:
192,192,73934,1,0,0:0:0:0:
320,192,73934,1,0,0:0:0:0:
64,192,74022,1,0,0:0:0:0:
448,192,74022,1,0,0:0:0:0:
320,192,74375,1,0,0:0:0:0:
448,192,74375,1,0,0:0:0:0:
64,192,74463,1,0,0:0:0:0:
192,192,74552,1,0,0:0:0:0:
448,192,74552,1,0,0:0:0:0:
64,192,74640,1,0,0:0:0:0:
320,192,74728,1,0,0:0:0:0:
448,192,74728,1,0,0:0:0:0:
64,192,74816,1,0,0:0:0:0:
192,192,74904,1,0,0:0:0:0:
448,192,74904,1,0,0:0:0:0:
64,192,74993,1,0,0:0:0:0:
320,192,75081,1,0,0:0:0:0:
448,192,75081,1,0,0:0:0:0:
64,192,75169,1,0,0:0:0:0:
192,192,75257,1,0,0:0:0:0:
448,192,75257,1,0,0:0:0:0:
64,192,75346,1,0,0:0:0:0:
320,192,75434,1,0,0:0:0:0:
448,192,75434,1,0,0:0:0:0:
64,192,75522,1,0,0:0:0:0:
192,192,75610,1,0,0:0:0:0:
448,192,75610,1,0,0:0:0:0:
64,192,75699,1,0,0:0:0:0:
320,192,75787,1,0,0:0:0:0:
448,192,75787,1,0,0:0:0:0:
64,192,75875,1,0,0:0:0:0:
192,192,75963,1,0,0:0:0:0:
448,192,75963,1,0,0:0:0:0:
64,192,76051,1,0,0:0:0:0:
320,192,76140,1,0,0:0:0:0:
448,192,76140,1,0,0:0:0:0:
64,192,76228,1,0,0:0:0:0:
192,192,76316,1,0,0:0:0:0:
448,192,76316,1,0,0:0:0:0:
64,192,76404,1,0,0:0:0:0:
320,192,76493,1,0,0:0:0:0:
448,192,76493,1,0,0:0:0:0:
64,192,76581,1,0,0:0:0:0:
192,192,76669,1,0,0:0:0:0:
448,192,76669,1,0,0:0:0:0:
64,192,76845,1,0,0:0:0:0:
448,192,76845,1,0,0:0:0:0:
64,192,77198,1,0,0:0:0:0:
192,192,77198,1,0,0:0:0:0:
448,192,77287,1,0,0:0:0:0:
64,192,77375,1,0,0:0:0:0:
320,192,77375,1,0,0:0:0:0:
448,192,77463,1,0,0:0:0:0:
64,192,77551,1,0,0:0:0:0:
192,192,77551,1,0,0:0:0:0:
448,192,77639,1,0,0:0:0:0:
64,192,77728,1,0,0:0:0:0:
320,192,77728,1,0,0:0:0:0:
448,192,77816,1,0,0:0:0:0:
64,192,77904,1,0,0:0:0:0:
192,192,77904,1,0,0:0:0:0:
448,192,77992,1,0,0:0:0:0:
64,192,78081,1,0,0:0:0:0:
320,192,78081,1,0,0:0:0:0:
448,192,78169,1,0,0:0:0:0:
64,192,78257,1,0,0:0:0:0:
192,192,78257,1,0,0:0:0:0:
448,192,78345,1,0,0:0:0:0:
64,192,78434,1,0,0:0:0:0:
320,192,78434,1,0,0:0:0:0:
448,192,78522,1,0,0:0:0:0:
64,192,78610,1,0,0:0:0:0:
192,192,78610,1,0,0:0:0:0:
448,192,78698,1,0,0:0:0:0:
64,192,78786,1,0,0:0:0:0:
320,192,78786,1,0,0:0:0:0:
448,192,78875,1,0,0:0:0:0:
64,192,78963,1,0,0:0:0:0:
192,192,78963,1,0,0:0:0:0:
448,192,79051,1,0,0:0:0:0:
64,192,79139,1,0,0:0:0:0:
320,192,79139,1,0,0:0:0:0:
448,192,79228,1,0,0:0:0:0:
64,192,79316,1,0,0:0:0:0:
192,192,79316,1,0,0:0:0:0:
448,192,79404,1,0,0:0:0:0:
64,192,79492,1,0,0:0:0:0:
320,192,79492,1,0,0:0:0:0:
64,192,79669,1,0,0:0:0:0:
448,192,79669,1,0,0:0:0:0:
320,192,80022,1,0,0:0:0:0:
448,192,80022,1,0,0:0:0:0:
192,192,80198,1,0,0:0:0:0:
320,192,80198,1,0,0:0:0:0:
64,192,80375,1,0,0:0:0:0:
192,192,80375,1,0,0:0:0:0:
192,192,80551,1,0,0:0:0:0:
320,192,80551,1,0,0:0:0:0:
320,192,80727,1,0,0:0:0:0:
448,192,80727,1,0,0:0:0:0:
192,192,80904,1,0,0:0:0:0:
320,192,80904,1,0,0:0:0:0:
64,192,81080,1,0,0:0:0:0:
320,192,81080,1,0,0:0:0:0:
192,192,81257,1,0,0:0:0:0:
320,192,81257,1,0,0:0:0:0:
64,192,81433,1,0,0:0:0:0:
448,192,81433,1,0,0:0:0:0:
192,192,81521,1,0,0:0:0:0:
320,192,81521,1,0,0:0:0:0:
64,192,81610,1,0,0:0:0:0:
448,192,81610,1,0,0:0:0:0:
192,192,81698,1,0,0:0:0:0:
320,192,81698,1,0,0:0:0:0:
64,192,81786,1,0,0:0:0:0:
448,192,81786,1,0,0:0:0:0:
192,192,81874,1,0,0:0:0:0:
320,192,81874,1,0,0:0:0:0:
64,192,81963,1,0,0:0:0:0:
448,192,81963,1,0,0:0:0:0:
192,192,82051,1,0,0:0:0:0:
320,192,82051,1,0,0:0:0:0:
64,192,82139,1,0,0:0:0:0:
448,192,82139,1,0,0:0:0:0:
192,192,82227,1,0,0:0:0:0:
320,192,82227,1,0,0:0:0:0:
64,192,82316,1,0,0:0:0:0:
448,192,82316,1,0,0:0:0:0:
192,192,82404,1,0,0:0:0:0:
320,192,82404,1,0,0:0:0:0:
64,192,82492,1,0,0:0:0:0:
448,192,82492,1,0,0:0:0:0:
192,192,83198,1,0,0:0:0:0:
320,192,83198,1,0,0:0:0:0:
64,0,83904,128,0,87433:1:0:0:0:
448,0,83904,128,0,87433:1:0:0:0:
