osu file format v12

[General]
AudioFilename: heart of witch.mp3
AudioLeadIn: 0
PreviewTime: -1
Countdown: 0
SampleSet: Normal
StackLeniency: 0.7
Mode: 3
LetterboxInBreaks: 1
SpecialStyle: 0
WidescreenStoryboard: 1

[Editor]
DistanceSpacing: 1
BeatDivisor: 4
GridSize: 8

[Metadata]
Title:Heart Of Witch
TitleUnicode:Heart Of Witch
Artist:Rex
ArtistUnicode:Rex
Creator:Drace
Version:6K NM STYLE [lv.6]
Source:
Tags:
BeatmapID:335643
BeatmapSetID:133696

[Difficulty]
HPDrainRate:7
CircleSize:6
OverallDifficulty:7
ApproachRate:5
SliderMultiplier:1.4
SliderTickRate:1

[Events]
//Background and Video events
0,0,"vlcsnap-2013-12-11-05h37m20s177.png",0,0
//Break Periods
//Storyboard Layer 0 (Background)
//Storyboard Layer 1 (Fail)
//Storyboard Layer 2 (Pass)
//Storyboard Layer 3 (Foreground)
//Storyboard Sound Samples
//Background Colour Transformations
3,100,163,162,255

[TimingPoints]
250,352.941176470588,4,1,1,100,1,0

[HitObjects]
42,192,602,1,0,0:0:0:0:
384,192,602,1,0,0:0:0:0:
469,192,1308,1,0,0:0:0:0:
128,192,1308,1,0,0:0:0:0:
213,192,1661,1,0,0:0:0:0:
469,192,2014,1,0,0:0:0:0:
42,192,2014,1,0,0:0:0:0:
384,192,2367,1,0,0:0:0:0:
298,192,2720,1,0,0:0:0:0:
213,192,3073,1,0,0:0:0:0:
128,192,3249,1,0,0:0:0:0:
42,192,3426,1,0,0:0:0:0:
384,192,3426,1,0,0:0:0:0:
469,192,4132,1,0,0:0:0:0:
128,192,4132,1,0,0:0:0:0:
213,192,4485,1,0,0:0:0:0:
469,192,4838,1,0,0:0:0:0:
384,192,5191,1,0,0:0:0:0:
298,192,5544,1,0,0:0:0:0:
213,192,5897,1,0,0:0:0:0:
298,192,6249,1,0,0:0:0:0:
469,192,6249,1,0,0:0:0:0:
384,192,6602,1,0,0:0:0:0:
42,192,6779,1,0,0:0:0:0:
213,192,6779,1,0,0:0:0:0:
128,192,7132,1,0,0:0:0:0:
298,192,7308,1,0,0:0:0:0:
469,192,7308,1,0,0:0:0:0:
42,192,7838,1,0,0:0:0:0:
213,192,7838,1,0,0:0:0:0:
213,192,8367,1,0,0:0:0:0:
298,192,8367,1,0,0:0:0:0:
298,192,8720,1,0,0:0:0:0:
469,192,8720,1,0,0:0:0:0:
384,192,9073,1,0,0:0:0:0:
42,192,9073,1,0,0:0:0:0:
298,192,9426,1,0,0:0:0:0:
469,192,9602,1,0,0:0:0:0:
128,192,9602,1,0,0:0:0:0:
213,192,9955,1,0,0:0:0:0:
42,192,10132,1,0,0:0:0:0:
384,192,10132,1,0,0:0:0:0:
213,192,10397,1,0,0:0:0:0:
298,192,10485,1,0,0:0:0:0:
128,192,10661,1,0,0:0:0:0:
469,192,10661,1,0,0:0:0:0:
213,192,11191,1,0,0:0:0:0:
298,192,11191,1,0,0:0:0:0:
128,192,11544,1,0,0:0:0:0:
384,192,11544,1,0,0:0:0:0:
298,192,11897,1,0,0:0:0:0:
469,192,11897,1,0,0:0:0:0:
42,192,12426,1,0,0:0:0:0:
213,192,12426,1,0,0:0:0:0:
384,192,12955,1,0,0:0:0:0:
298,192,13044,1,0,0:0:0:0:
213,192,13132,1,0,0:0:0:0:
128,192,13220,1,0,0:0:0:0:
298,192,13308,1,0,0:0:0:0:
469,192,13308,1,0,0:0:0:0:
42,192,13838,1,0,0:0:0:0:
213,192,13838,1,0,0:0:0:0:
384,192,14367,1,0,0:0:0:0:
298,192,14455,1,0,0:0:0:0:
213,192,14544,1,0,0:0:0:0:
128,192,14632,1,0,0:0:0:0:
298,192,14720,1,0,0:0:0:0:
469,192,14720,1,0,0:0:0:0:
42,192,15249,1,0,0:0:0:0:
213,192,15249,1,0,0:0:0:0:
384,192,15779,1,0,0:0:0:0:
298,192,15867,1,0,0:0:0:0:
213,192,15955,1,0,0:0:0:0:
128,192,16044,1,0,0:0:0:0:
298,192,16132,1,0,0:0:0:0:
469,192,16132,1,0,0:0:0:0:
42,192,16485,1,0,0:0:0:0:
213,192,16485,1,0,0:0:0:0:
213,192,16838,1,0,0:0:0:0:
384,192,16838,1,0,0:0:0:0:
128,192,17191,1,0,0:0:0:0:
298,192,17191,1,0,0:0:0:0:
42,192,17544,1,0,0:0:0:0:
298,192,17720,1,0,0:0:0:0:
298,192,17897,1,0,0:0:0:0:
213,192,18073,1,0,0:0:0:0:
384,192,18249,1,0,0:0:0:0:
384,192,18426,1,0,0:0:0:0:
298,192,18602,1,0,0:0:0:0:
469,192,18602,1,0,0:0:0:0:
42,192,18955,1,0,0:0:0:0:
298,192,19132,1,0,0:0:0:0:
298,192,19308,1,0,0:0:0:0:
213,192,19485,1,0,0:0:0:0:
384,192,19661,1,0,0:0:0:0:
384,192,19838,1,0,0:0:0:0:
298,192,20014,1,0,0:0:0:0:
469,192,20014,1,0,0:0:0:0:
42,192,20367,1,0,0:0:0:0:
469,192,20455,1,0,0:0:0:0:
384,192,20544,1,0,0:0:0:0:
298,192,20632,1,0,0:0:0:0:
213,192,20720,1,0,0:0:0:0:
128,192,20808,1,0,0:0:0:0:
42,192,20897,1,0,0:0:0:0:
384,192,21073,1,0,0:0:0:0:
384,192,21249,1,0,0:0:0:0:
298,192,21426,1,0,0:0:0:0:
469,192,21426,1,0,0:0:0:0:
42,192,21779,1,0,0:0:0:0:
213,192,21779,1,0,0:0:0:0:
298,192,22132,1,0,0:0:0:0:
469,192,22132,1,0,0:0:0:0:
213,192,22485,1,0,0:0:0:0:
384,192,22485,1,0,0:0:0:0:
128,192,22838,1,0,0:0:0:0:
298,192,22838,1,0,0:0:0:0:
42,192,23191,1,0,0:0:0:0:
384,192,23191,1,0,0:0:0:0:
42,192,23544,1,0,0:0:0:0:
469,192,23544,1,0,0:0:0:0:
384,192,23897,1,0,0:0:0:0:
42,192,23897,1,0,0:0:0:0:
42,192,24249,1,0,0:0:0:0:
298,192,24249,1,0,0:0:0:0:
384,192,24602,1,0,0:0:0:0:
42,192,24602,1,0,0:0:0:0:
42,192,24955,1,0,0:0:0:0:
298,192,24955,1,0,0:0:0:0:
42,192,25308,1,0,0:0:0:0:
213,192,25308,1,0,0:0:0:0:
42,192,25661,1,0,0:0:0:0:
128,192,25661,1,0,0:0:0:0:
42,192,26014,1,0,0:0:0:0:
213,192,26014,1,0,0:0:0:0:
42,192,26367,1,0,0:0:0:0:
469,192,26367,1,0,0:0:0:0:
42,192,26720,1,0,0:0:0:0:
384,192,26720,1,0,0:0:0:0:
42,192,27073,1,0,0:0:0:0:
298,192,27073,1,0,0:0:0:0:
42,192,27426,1,0,0:0:0:0:
384,192,27426,1,0,0:0:0:0:
42,192,27779,1,0,0:0:0:0:
298,192,27779,1,0,0:0:0:0:
42,192,28132,1,0,0:0:0:0:
213,192,28132,1,0,0:0:0:0:
42,192,28485,1,0,0:0:0:0:
128,192,28485,1,0,0:0:0:0:
42,192,28838,1,0,0:0:0:0:
213,192,28838,1,0,0:0:0:0:
42,192,29191,1,0,0:0:0:0:
469,192,29191,1,0,0:0:0:0:
42,192,29544,1,0,0:0:0:0:
384,192,29544,1,0,0:0:0:0:
42,192,29897,1,0,0:0:0:0:
298,192,29897,1,0,0:0:0:0:
42,192,30249,1,0,0:0:0:0:
384,192,30249,1,0,0:0:0:0:
42,192,30602,1,0,0:0:0:0:
298,192,30602,1,0,0:0:0:0:
42,192,30955,1,0,0:0:0:0:
213,192,30955,1,0,0:0:0:0:
42,192,31308,1,0,0:0:0:0:
128,192,31308,1,0,0:0:0:0:
42,192,31661,1,0,0:0:0:0:
298,192,31661,1,0,0:0:0:0:
42,192,32014,1,0,0:0:0:0:
469,192,32014,1,0,0:0:0:0:
42,192,32367,1,0,0:0:0:0:
384,192,32367,1,0,0:0:0:0:
42,192,32720,1,0,0:0:0:0:
298,192,32720,1,0,0:0:0:0:
42,192,33073,1,0,0:0:0:0:
384,192,33073,1,0,0:0:0:0:
213,192,33426,1,0,0:0:0:0:
469,192,33779,1,0,0:0:0:0:
298,192,33779,1,0,0:0:0:0:
213,192,33867,1,0,0:0:0:0:
298,192,33955,1,0,0:0:0:0:
42,192,34132,1,0,0:0:0:0:
213,192,34132,1,0,0:0:0:0:
298,192,34220,1,0,0:0:0:0:
213,192,34308,1,0,0:0:0:0:
298,192,34397,1,0,0:0:0:0:
42,192,34485,1,0,0:0:0:0:
128,192,34661,1,0,0:0:0:0:
213,192,34838,1,0,0:0:0:0:
298,192,35014,1,0,0:0:0:0:
469,192,35191,1,0,0:0:0:0:
384,192,35367,1,0,0:0:0:0:
298,192,35544,1,0,0:0:0:0:
213,192,35720,1,0,0:0:0:0:
42,192,35897,1,0,0:0:0:0:
128,192,36073,1,0,0:0:0:0:
213,192,36249,1,0,0:0:0:0:
298,192,36426,1,0,0:0:0:0:
469,192,36602,1,0,0:0:0:0:
384,192,36779,1,0,0:0:0:0:
298,192,36955,1,0,0:0:0:0:
213,192,37132,1,0,0:0:0:0:
42,192,37308,1,0,0:0:0:0:
128,192,37485,1,0,0:0:0:0:
213,192,37661,1,0,0:0:0:0:
298,192,37838,1,0,0:0:0:0:
469,192,38014,1,0,0:0:0:0:
384,192,38191,1,0,0:0:0:0:
298,192,38367,1,0,0:0:0:0:
213,192,38544,1,0,0:0:0:0:
42,192,38720,1,0,0:0:0:0:
128,192,38897,1,0,0:0:0:0:
213,192,39073,1,0,0:0:0:0:
298,192,39249,1,0,0:0:0:0:
469,192,39426,1,0,0:0:0:0:
384,192,39602,1,0,0:0:0:0:
298,192,39779,1,0,0:0:0:0:
213,192,39955,1,0,0:0:0:0:
469,192,40132,1,0,0:0:0:0:
42,192,40132,1,0,0:0:0:0:
42,192,40308,1,0,0:0:0:0:
384,192,40308,1,0,0:0:0:0:
298,192,40661,1,0,0:0:0:0:
384,192,40661,1,0,0:0:0:0:
128,192,40838,1,0,0:0:0:0:
128,192,41014,1,0,0:0:0:0:
384,192,41014,1,0,0:0:0:0:
384,192,41367,1,0,0:0:0:0:
42,192,41544,1,0,0:0:0:0:
42,192,41720,1,0,0:0:0:0:
469,192,41720,1,0,0:0:0:0:
298,192,42073,1,0,0:0:0:0:
469,192,42073,1,0,0:0:0:0:
128,192,42249,1,0,0:0:0:0:
128,192,42426,1,0,0:0:0:0:
469,192,42426,1,0,0:0:0:0:
469,192,42779,1,0,0:0:0:0:
384,192,42955,1,0,0:0:0:0:
384,192,43132,1,0,0:0:0:0:
128,192,43132,1,0,0:0:0:0:
128,192,43485,1,0,0:0:0:0:
298,192,43485,1,0,0:0:0:0:
469,192,43661,1,0,0:0:0:0:
469,192,43838,1,0,0:0:0:0:
128,192,43838,1,0,0:0:0:0:
128,192,44191,1,0,0:0:0:0:
469,192,44367,1,0,0:0:0:0:
469,192,44544,1,0,0:0:0:0:
42,192,44544,1,0,0:0:0:0:
42,192,44897,1,0,0:0:0:0:
298,192,44897,1,0,0:0:0:0:
469,192,45073,1,0,0:0:0:0:
469,192,45249,1,0,0:0:0:0:
42,192,45249,1,0,0:0:0:0:
42,192,45779,1,0,0:0:0:0:
42,192,45955,1,0,0:0:0:0:
128,192,46132,1,0,0:0:0:0:
213,192,46308,1,0,0:0:0:0:
298,192,46485,1,0,0:0:0:0:
469,192,46661,1,0,0:0:0:0:
384,192,46838,1,0,0:0:0:0:
298,192,47014,1,0,0:0:0:0:
213,192,47191,1,0,0:0:0:0:
42,192,47367,1,0,0:0:0:0:
213,192,47897,1,0,0:0:0:0:
298,192,47985,1,0,0:0:0:0:
213,192,48073,1,0,0:0:0:0:
469,192,48249,1,0,0:0:0:0:
298,192,48338,1,0,0:0:0:0:
213,192,48426,1,0,0:0:0:0:
42,192,48514,1,0,0:0:0:0:
469,192,48602,1,0,0:0:0:0:
128,192,48779,1,0,0:0:0:0:
298,192,48955,1,0,0:0:0:0:
128,192,49132,1,0,0:0:0:0:
384,192,49308,1,0,0:0:0:0:
42,192,49485,1,0,0:0:0:0:
298,192,49661,1,0,0:0:0:0:
42,192,49838,1,0,0:0:0:0:
384,192,50014,1,0,0:0:0:0:
128,192,50191,1,0,0:0:0:0:
384,192,50367,1,0,0:0:0:0:
128,192,50544,1,0,0:0:0:0:
298,192,50720,1,0,0:0:0:0:
128,192,50897,1,0,0:0:0:0:
213,192,51073,1,0,0:0:0:0:
384,192,51249,1,0,0:0:0:0:
42,192,51426,1,0,0:0:0:0:
298,192,51602,1,0,0:0:0:0:
298,192,51779,1,0,0:0:0:0:
213,192,51955,1,0,0:0:0:0:
384,192,52132,1,0,0:0:0:0:
384,192,52308,1,0,0:0:0:0:
298,192,52485,1,0,0:0:0:0:
469,192,52485,1,0,0:0:0:0:
42,192,52838,1,0,0:0:0:0:
298,192,53014,1,0,0:0:0:0:
298,192,53191,1,0,0:0:0:0:
213,192,53367,1,0,0:0:0:0:
384,192,53544,1,0,0:0:0:0:
384,192,53720,1,0,0:0:0:0:
298,192,53897,1,0,0:0:0:0:
469,192,53897,1,0,0:0:0:0:
42,192,54249,1,0,0:0:0:0:
298,192,54426,1,0,0:0:0:0:
298,192,54602,1,0,0:0:0:0:
213,192,54779,1,0,0:0:0:0:
384,192,54955,1,0,0:0:0:0:
384,192,55132,1,0,0:0:0:0:
298,192,55308,1,0,0:0:0:0:
469,192,55308,1,0,0:0:0:0:
42,192,55661,1,0,0:0:0:0:
469,192,56014,1,0,0:0:0:0:
298,192,56102,1,0,0:0:0:0:
384,192,56191,1,0,0:0:0:0:
128,192,56279,1,0,0:0:0:0:
298,192,56367,1,0,0:0:0:0:
42,192,56455,1,0,0:0:0:0:
384,192,56544,1,0,0:0:0:0:
128,192,56632,1,0,0:0:0:0:
469,192,56720,1,0,0:0:0:0:
213,192,56808,1,0,0:0:0:0:
298,192,56897,1,0,0:0:0:0:
469,192,56985,1,0,0:0:0:0:
42,192,57073,1,0,0:0:0:0:
128,192,57073,1,0,0:0:0:0:
298,192,57249,1,0,0:0:0:0:
298,192,57426,1,0,0:0:0:0:
128,192,57602,1,0,0:0:0:0:
213,192,57602,1,0,0:0:0:0:
384,192,57779,1,0,0:0:0:0:
384,192,57955,1,0,0:0:0:0:
298,192,58132,1,0,0:0:0:0:
469,192,58132,1,0,0:0:0:0:
42,192,58485,1,0,0:0:0:0:
128,192,58485,1,0,0:0:0:0:
298,192,58661,1,0,0:0:0:0:
298,192,58838,1,0,0:0:0:0:
128,192,59014,1,0,0:0:0:0:
213,192,59014,1,0,0:0:0:0:
384,192,59191,1,0,0:0:0:0:
384,192,59367,1,0,0:0:0:0:
298,192,59544,1,0,0:0:0:0:
469,192,59544,1,0,0:0:0:0:
42,192,59897,1,0,0:0:0:0:
469,192,59985,1,0,0:0:0:0:
384,192,60073,1,0,0:0:0:0:
298,192,60161,1,0,0:0:0:0:
213,192,60249,1,0,0:0:0:0:
128,192,60338,1,0,0:0:0:0:
42,192,60426,1,0,0:0:0:0:
384,192,60602,1,0,0:0:0:0:
384,192,60779,1,0,0:0:0:0:
298,192,60955,1,0,0:0:0:0:
469,192,60955,1,0,0:0:0:0:
42,192,61308,1,0,0:0:0:0:
469,192,61661,1,0,0:0:0:0:
213,192,61749,1,0,0:0:0:0:
384,192,61838,1,0,0:0:0:0:
128,192,61926,1,0,0:0:0:0:
298,192,62014,1,0,0:0:0:0:
42,192,62102,1,0,0:0:0:0:
384,192,62191,1,0,0:0:0:0:
128,192,62279,1,0,0:0:0:0:
469,192,62367,1,0,0:0:0:0:
213,192,62455,1,0,0:0:0:0:
298,192,62544,1,0,0:0:0:0:
469,192,62632,1,0,0:0:0:0:
42,192,62720,1,0,0:0:0:0:
213,192,62720,1,0,0:0:0:0:
42,192,63073,1,0,0:0:0:0:
384,192,63073,1,0,0:0:0:0:
42,192,63426,1,0,0:0:0:0:
469,192,63426,1,0,0:0:0:0:
42,192,63779,1,0,0:0:0:0:
213,192,63779,1,0,0:0:0:0:
384,192,63779,1,0,0:0:0:0:
42,192,64132,1,0,0:0:0:0:
298,192,64132,1,0,0:0:0:0:
42,192,64485,1,0,0:0:0:0:
469,192,64485,1,0,0:0:0:0:
42,192,64838,1,0,0:0:0:0:
384,192,64838,1,0,0:0:0:0:
42,192,65191,1,0,0:0:0:0:
213,192,65191,1,0,0:0:0:0:
298,192,65191,1,0,0:0:0:0:
42,192,65544,1,0,0:0:0:0:
298,192,65544,1,0,0:0:0:0:
42,192,65897,1,0,0:0:0:0:
384,192,65897,1,0,0:0:0:0:
42,192,66249,1,0,0:0:0:0:
469,192,66249,1,0,0:0:0:0:
42,192,66602,1,0,0:0:0:0:
213,192,66602,1,0,0:0:0:0:
384,192,66602,1,0,0:0:0:0:
42,192,66955,1,0,0:0:0:0:
213,192,66955,1,0,0:0:0:0:
42,192,67308,1,0,0:0:0:0:
384,192,67308,1,0,0:0:0:0:
42,192,67485,1,0,0:0:0:0:
42,192,67661,1,0,0:0:0:0:
298,192,67661,1,0,0:0:0:0:
42,192,68014,1,0,0:0:0:0:
213,192,68014,1,0,0:0:0:0:
469,192,68014,1,0,0:0:0:0:
298,192,68191,1,0,0:0:0:0:
384,192,68191,1,0,0:0:0:0:
42,192,68367,1,0,0:0:0:0:
213,192,68367,1,0,0:0:0:0:
42,192,68720,1,0,0:0:0:0:
384,192,68720,1,0,0:0:0:0:
42,192,69073,1,0,0:0:0:0:
469,192,69073,1,0,0:0:0:0:
42,192,69426,1,0,0:0:0:0:
213,192,69426,1,0,0:0:0:0:
384,192,69426,1,0,0:0:0:0:
213,192,69602,1,0,0:0:0:0:
42,192,69779,1,0,0:0:0:0:
298,192,69779,1,0,0:0:0:0:
42,192,70132,1,0,0:0:0:0:
384,192,70132,1,0,0:0:0:0:
42,192,70485,1,0,0:0:0:0:
469,192,70485,1,0,0:0:0:0:
42,192,70838,1,0,0:0:0:0:
298,192,70838,1,0,0:0:0:0:
384,192,70838,1,0,0:0:0:0:
298,192,71191,1,0,0:0:0:0:
469,192,71191,1,0,0:0:0:0:
384,192,71367,1,0,0:0:0:0:
42,192,71544,1,0,0:0:0:0:
213,192,71544,1,0,0:0:0:0:
128,192,71720,1,0,0:0:0:0:
298,192,71897,1,0,0:0:0:0:
469,192,71897,1,0,0:0:0:0:
384,192,72073,1,0,0:0:0:0:
42,192,72249,1,0,0:0:0:0:
213,192,72249,1,0,0:0:0:0:
128,192,72426,1,0,0:0:0:0:
298,192,72602,1,0,0:0:0:0:
384,192,72602,1,0,0:0:0:0:
298,192,72779,1,0,0:0:0:0:
384,192,72779,1,0,0:0:0:0:
298,192,72955,1,0,0:0:0:0:
384,192,72955,1,0,0:0:0:0:
298,192,73132,1,0,0:0:0:0:
384,192,73132,1,0,0:0:0:0:
42,192,73308,1,0,0:0:0:0:
128,192,73308,1,0,0:0:0:0:
469,192,73397,1,0,0:0:0:0:
42,192,73485,1,0,0:0:0:0:
128,192,73485,1,0,0:0:0:0:
469,192,73573,1,0,0:0:0:0:
42,192,73661,1,0,0:0:0:0:
128,192,73661,1,0,0:0:0:0:
469,192,73749,1,0,0:0:0:0:
42,192,73838,1,0,0:0:0:0:
128,192,73838,1,0,0:0:0:0:
469,192,73926,1,0,0:0:0:0:
128,192,74014,1,0,0:0:0:0:
469,192,74367,1,0,0:0:0:0:
42,192,74367,1,0,0:0:0:0:
469,192,74544,1,0,0:0:0:0:
384,192,74720,1,0,0:0:0:0:
384,192,74897,1,0,0:0:0:0:
298,192,75073,1,0,0:0:0:0:
128,192,75073,1,0,0:0:0:0:
298,192,75249,1,0,0:0:0:0:
213,192,75426,1,0,0:0:0:0:
213,192,75602,1,0,0:0:0:0:
128,192,75779,1,0,0:0:0:0:
469,192,75779,1,0,0:0:0:0:
128,192,75955,1,0,0:0:0:0:
298,192,76044,1,0,0:0:0:0:
42,192,76132,1,0,0:0:0:0:
298,192,76220,1,0,0:0:0:0:
42,192,76308,1,0,0:0:0:0:
128,192,76485,1,0,0:0:0:0:
384,192,76485,1,0,0:0:0:0:
128,192,76661,1,0,0:0:0:0:
213,192,76838,1,0,0:0:0:0:
469,192,77191,1,0,0:0:0:0:
42,192,77191,1,0,0:0:0:0:
469,192,77367,1,0,0:0:0:0:
384,192,77544,1,0,0:0:0:0:
384,192,77720,1,0,0:0:0:0:
298,192,77897,1,0,0:0:0:0:
128,192,77897,1,0,0:0:0:0:
298,192,78073,1,0,0:0:0:0:
213,192,78249,1,0,0:0:0:0:
384,192,78338,1,0,0:0:0:0:
213,192,78426,1,0,0:0:0:0:
128,192,78602,1,0,0:0:0:0:
384,192,78602,1,0,0:0:0:0:
128,192,78779,1,0,0:0:0:0:
469,192,78867,1,0,0:0:0:0:
42,192,78955,1,0,0:0:0:0:
469,192,79044,1,0,0:0:0:0:
42,192,79132,1,0,0:0:0:0:
128,192,79308,1,0,0:0:0:0:
469,192,79308,1,0,0:0:0:0:
128,192,79485,1,0,0:0:0:0:
469,192,79573,1,0,0:0:0:0:
213,192,79661,1,0,0:0:0:0:
42,192,79661,1,0,0:0:0:0:
469,192,80014,1,0,0:0:0:0:
298,192,80014,1,0,0:0:0:0:
213,192,80191,1,0,0:0:0:0:
42,192,80367,1,0,0:0:0:0:
298,192,80367,1,0,0:0:0:0:
384,192,80544,1,0,0:0:0:0:
213,192,80720,1,0,0:0:0:0:
469,192,80720,1,0,0:0:0:0:
128,192,80897,1,0,0:0:0:0:
42,192,81073,1,0,0:0:0:0:
213,192,81073,1,0,0:0:0:0:
298,192,81249,1,0,0:0:0:0:
469,192,81249,1,0,0:0:0:0:
42,192,81426,1,0,0:0:0:0:
213,192,81426,1,0,0:0:0:0:
298,192,81602,1,0,0:0:0:0:
469,192,81602,1,0,0:0:0:0:
42,192,81779,1,0,0:0:0:0:
213,192,81779,1,0,0:0:0:0:
298,192,81955,1,0,0:0:0:0:
469,192,81955,1,0,0:0:0:0:
42,192,82132,1,0,0:0:0:0:
213,192,82132,1,0,0:0:0:0:
128,192,82308,1,0,0:0:0:0:
384,192,82308,1,0,0:0:0:0:
42,192,82485,1,0,0:0:0:0:
469,192,82485,1,0,0:0:0:0:
213,192,83191,1,0,0:0:0:0:
298,192,83191,1,0,0:0:0:0:
298,192,83720,1,0,0:0:0:0:
213,192,83808,1,0,0:0:0:0:
42,192,83897,1,0,0:0:0:0:
469,192,83897,1,0,0:0:0:0:
