osu file format v12

[General]
AudioFilename: heart of witch.mp3
AudioLeadIn: 0
PreviewTime: -1
Countdown: 0
SampleSet: Normal
StackLeniency: 0.7
Mode: 3
LetterboxInBreaks: 1
SpecialStyle: 0
WidescreenStoryboard: 1

[Editor]
DistanceSpacing: 1
BeatDivisor: 4
GridSize: 8

[Metadata]
Title:Heart Of Witch
TitleUnicode:Heart Of Witch
Artist:Rex
ArtistUnicode:Rex
Creator:Drace
Version:5K NM STYLE [lv.6]
Source:
Tags:
BeatmapID:335641
BeatmapSetID:133696

[Difficulty]
HPDrainRate:7
CircleSize:5
OverallDifficulty:7
ApproachRate:5
SliderMultiplier:1.4
SliderTickRate:1

[Events]
//Background and Video events
0,0,"vlcsnap-2013-12-11-05h37m20s177.png",0,0
//Break Periods
//Storyboard Layer 0 (Background)
//Storyboard Layer 1 (Fail)
//Storyboard Layer 2 (Pass)
//Storyboard Layer 3 (Foreground)
//Storyboard Sound Samples
//Background Colour Transformations
3,100,163,162,255

[TimingPoints]
250,352.941176470588,4,1,1,100,1,0

[HitObjects]
51,192,602,1,0,0:0:0:0:
358,192,602,1,0,0:0:0:0:
460,192,1308,1,0,0:0:0:0:
153,192,1308,1,0,0:0:0:0:
256,192,1661,1,0,0:0:0:0:
460,192,2014,1,0,0:0:0:0:
358,192,2367,1,0,0:0:0:0:
256,192,2720,1,0,0:0:0:0:
256,192,3073,1,0,0:0:0:0:
153,192,3249,1,0,0:0:0:0:
51,192,3426,1,0,0:0:0:0:
358,192,3426,1,0,0:0:0:0:
460,192,4132,1,0,0:0:0:0:
153,192,4132,1,0,0:0:0:0:
256,192,4485,1,0,0:0:0:0:
358,192,4838,1,0,0:0:0:0:
256,192,5191,1,0,0:0:0:0:
153,192,5544,1,0,0:0:0:0:
51,192,5897,1,0,0:0:0:0:
256,192,6249,1,0,0:0:0:0:
460,192,6249,1,0,0:0:0:0:
256,192,6779,1,0,0:0:0:0:
51,192,6779,1,0,0:0:0:0:
153,192,7308,1,0,0:0:0:0:
358,192,7308,1,0,0:0:0:0:
358,192,7838,1,0,0:0:0:0:
51,192,7838,1,0,0:0:0:0:
256,192,8367,1,0,0:0:0:0:
256,192,8720,1,0,0:0:0:0:
460,192,8720,1,0,0:0:0:0:
51,192,9073,1,0,0:0:0:0:
256,192,9073,1,0,0:0:0:0:
256,192,9602,1,0,0:0:0:0:
460,192,9602,1,0,0:0:0:0:
51,192,10132,1,0,0:0:0:0:
256,192,10132,1,0,0:0:0:0:
51,192,10661,1,0,0:0:0:0:
358,192,10661,1,0,0:0:0:0:
256,192,11191,1,0,0:0:0:0:
153,192,11544,1,0,0:0:0:0:
460,192,11544,1,0,0:0:0:0:
153,192,11897,1,0,0:0:0:0:
358,192,11897,1,0,0:0:0:0:
51,192,12426,1,0,0:0:0:0:
460,192,12426,1,0,0:0:0:0:
460,192,12955,1,0,0:0:0:0:
358,192,13044,1,0,0:0:0:0:
153,192,13132,1,0,0:0:0:0:
51,192,13220,1,0,0:0:0:0:
256,192,13308,1,0,0:0:0:0:
460,192,13308,1,0,0:0:0:0:
51,192,13838,1,0,0:0:0:0:
256,192,13838,1,0,0:0:0:0:
460,192,14367,1,0,0:0:0:0:
358,192,14455,1,0,0:0:0:0:
153,192,14544,1,0,0:0:0:0:
51,192,14632,1,0,0:0:0:0:
256,192,14720,1,0,0:0:0:0:
460,192,14720,1,0,0:0:0:0:
51,192,15249,1,0,0:0:0:0:
358,192,15249,1,0,0:0:0:0:
460,192,15779,1,0,0:0:0:0:
358,192,15867,1,0,0:0:0:0:
153,192,15955,1,0,0:0:0:0:
51,192,16044,1,0,0:0:0:0:
256,192,16132,1,0,0:0:0:0:
460,192,16132,1,0,0:0:0:0:
51,192,16485,1,0,0:0:0:0:
256,192,16485,1,0,0:0:0:0:
256,192,16838,1,0,0:0:0:0:
358,192,16838,1,0,0:0:0:0:
153,192,17191,1,0,0:0:0:0:
256,192,17191,1,0,0:0:0:0:
51,192,17544,1,0,0:0:0:0:
256,192,17720,1,0,0:0:0:0:
256,192,17897,1,0,0:0:0:0:
153,192,18073,1,0,0:0:0:0:
358,192,18249,1,0,0:0:0:0:
358,192,18426,1,0,0:0:0:0:
256,192,18602,1,0,0:0:0:0:
460,192,18602,1,0,0:0:0:0:
51,192,18955,1,0,0:0:0:0:
256,192,19132,1,0,0:0:0:0:
256,192,19308,1,0,0:0:0:0:
153,192,19485,1,0,0:0:0:0:
358,192,19661,1,0,0:0:0:0:
358,192,19838,1,0,0:0:0:0:
256,192,20014,1,0,0:0:0:0:
460,192,20014,1,0,0:0:0:0:
51,192,20367,128,0,20897:0:0:0:0:
153,192,20897,1,0,0:0:0:0:
358,192,21073,1,0,0:0:0:0:
358,192,21249,1,0,0:0:0:0:
256,192,21426,1,0,0:0:0:0:
460,192,21426,1,0,0:0:0:0:
51,192,21779,1,0,0:0:0:0:
256,192,21779,1,0,0:0:0:0:
256,192,22132,1,0,0:0:0:0:
460,192,22132,1,0,0:0:0:0:
256,192,22485,1,0,0:0:0:0:
358,192,22485,1,0,0:0:0:0:
153,192,22838,1,0,0:0:0:0:
256,192,22838,1,0,0:0:0:0:
51,192,23191,1,0,0:0:0:0:
460,192,23544,1,0,0:0:0:0:
358,192,23897,1,0,0:0:0:0:
256,192,24249,1,0,0:0:0:0:
358,192,24602,1,0,0:0:0:0:
256,192,24955,1,0,0:0:0:0:
153,192,25308,1,0,0:0:0:0:
51,192,25661,1,0,0:0:0:0:
51,192,26014,1,0,0:0:0:0:
460,192,26367,1,0,0:0:0:0:
358,192,26720,1,0,0:0:0:0:
256,192,27073,1,0,0:0:0:0:
358,192,27426,1,0,0:0:0:0:
256,192,27779,1,0,0:0:0:0:
153,192,28132,1,0,0:0:0:0:
51,192,28485,1,0,0:0:0:0:
51,192,28838,1,0,0:0:0:0:
460,192,29191,1,0,0:0:0:0:
358,192,29544,1,0,0:0:0:0:
256,192,29897,1,0,0:0:0:0:
358,192,30249,1,0,0:0:0:0:
256,192,30602,1,0,0:0:0:0:
153,192,30955,1,0,0:0:0:0:
51,192,31308,1,0,0:0:0:0:
153,192,31661,1,0,0:0:0:0:
358,192,32014,1,0,0:0:0:0:
256,192,32367,1,0,0:0:0:0:
153,192,32720,1,0,0:0:0:0:
51,192,33073,1,0,0:0:0:0:
460,192,33073,1,0,0:0:0:0:
256,192,33426,1,0,0:0:0:0:
460,192,33779,1,0,0:0:0:0:
256,192,33779,1,0,0:0:0:0:
153,192,33867,1,0,0:0:0:0:
256,192,33955,1,0,0:0:0:0:
51,192,34132,1,0,0:0:0:0:
256,192,34132,1,0,0:0:0:0:
358,192,34220,1,0,0:0:0:0:
256,192,34308,1,0,0:0:0:0:
358,192,34397,1,0,0:0:0:0:
51,192,34485,1,0,0:0:0:0:
153,192,34661,1,0,0:0:0:0:
256,192,34838,1,0,0:0:0:0:
358,192,35014,1,0,0:0:0:0:
460,192,35191,1,0,0:0:0:0:
358,192,35367,1,0,0:0:0:0:
256,192,35544,1,0,0:0:0:0:
153,192,35720,1,0,0:0:0:0:
51,192,35897,1,0,0:0:0:0:
153,192,36073,1,0,0:0:0:0:
256,192,36249,1,0,0:0:0:0:
358,192,36426,1,0,0:0:0:0:
460,192,36602,1,0,0:0:0:0:
358,192,36779,1,0,0:0:0:0:
256,192,36955,1,0,0:0:0:0:
153,192,37132,1,0,0:0:0:0:
51,192,37308,1,0,0:0:0:0:
153,192,37485,1,0,0:0:0:0:
256,192,37661,1,0,0:0:0:0:
358,192,37838,1,0,0:0:0:0:
460,192,38014,1,0,0:0:0:0:
358,192,38191,1,0,0:0:0:0:
256,192,38367,1,0,0:0:0:0:
153,192,38544,1,0,0:0:0:0:
51,192,38720,1,0,0:0:0:0:
153,192,38897,1,0,0:0:0:0:
256,192,39073,1,0,0:0:0:0:
358,192,39249,1,0,0:0:0:0:
460,192,39426,1,0,0:0:0:0:
358,192,39602,1,0,0:0:0:0:
256,192,39779,1,0,0:0:0:0:
153,192,39955,1,0,0:0:0:0:
51,192,40132,1,0,0:0:0:0:
460,192,40132,1,0,0:0:0:0:
51,192,40308,1,0,0:0:0:0:
358,192,40308,1,0,0:0:0:0:
256,192,40661,1,0,0:0:0:0:
358,192,40661,1,0,0:0:0:0:
153,192,40838,1,0,0:0:0:0:
153,192,41014,1,0,0:0:0:0:
358,192,41014,1,0,0:0:0:0:
358,192,41367,1,0,0:0:0:0:
51,192,41544,1,0,0:0:0:0:
51,192,41720,1,0,0:0:0:0:
358,192,41720,1,0,0:0:0:0:
256,192,42073,1,0,0:0:0:0:
358,192,42073,1,0,0:0:0:0:
51,192,42249,1,0,0:0:0:0:
51,192,42426,1,0,0:0:0:0:
358,192,42426,1,0,0:0:0:0:
358,192,42779,1,0,0:0:0:0:
256,192,42955,1,0,0:0:0:0:
256,192,43132,1,0,0:0:0:0:
358,192,43132,1,0,0:0:0:0:
51,192,43485,1,0,0:0:0:0:
358,192,43485,1,0,0:0:0:0:
256,192,43661,1,0,0:0:0:0:
256,192,43838,1,0,0:0:0:0:
358,192,43838,1,0,0:0:0:0:
358,192,44191,1,0,0:0:0:0:
358,192,44367,1,0,0:0:0:0:
460,192,44544,1,0,0:0:0:0:
153,192,44544,1,0,0:0:0:0:
153,192,45073,1,0,0:0:0:0:
256,192,45073,1,0,0:0:0:0:
460,192,45249,1,0,0:0:0:0:
153,192,45426,1,0,0:0:0:0:
460,192,45426,1,0,0:0:0:0:
153,192,45779,1,0,0:0:0:0:
51,192,45955,1,0,0:0:0:0:
153,192,46132,1,0,0:0:0:0:
256,192,46308,1,0,0:0:0:0:
358,192,46485,1,0,0:0:0:0:
460,192,46661,1,0,0:0:0:0:
358,192,46838,1,0,0:0:0:0:
256,192,47014,1,0,0:0:0:0:
153,192,47191,1,0,0:0:0:0:
51,192,47367,1,0,0:0:0:0:
256,192,47897,1,0,0:0:0:0:
358,192,47985,1,0,0:0:0:0:
256,192,48073,1,0,0:0:0:0:
460,192,48249,1,0,0:0:0:0:
358,192,48338,1,0,0:0:0:0:
153,192,48426,1,0,0:0:0:0:
51,192,48514,1,0,0:0:0:0:
358,192,48602,1,0,0:0:0:0:
153,192,48779,1,0,0:0:0:0:
256,192,48955,1,0,0:0:0:0:
153,192,49132,1,0,0:0:0:0:
358,192,49308,1,0,0:0:0:0:
51,192,49485,1,0,0:0:0:0:
256,192,49661,1,0,0:0:0:0:
51,192,49838,1,0,0:0:0:0:
460,192,50014,1,0,0:0:0:0:
153,192,50191,1,0,0:0:0:0:
460,192,50367,1,0,0:0:0:0:
153,192,50544,1,0,0:0:0:0:
358,192,50720,1,0,0:0:0:0:
153,192,50897,1,0,0:0:0:0:
256,192,51073,1,0,0:0:0:0:
358,192,51249,1,0,0:0:0:0:
51,192,51426,1,0,0:0:0:0:
256,192,51602,1,0,0:0:0:0:
256,192,51779,1,0,0:0:0:0:
153,192,51955,1,0,0:0:0:0:
358,192,52132,1,0,0:0:0:0:
358,192,52308,1,0,0:0:0:0:
256,192,52485,1,0,0:0:0:0:
460,192,52485,1,0,0:0:0:0:
51,192,52838,1,0,0:0:0:0:
256,192,53014,1,0,0:0:0:0:
256,192,53191,1,0,0:0:0:0:
153,192,53367,1,0,0:0:0:0:
358,192,53544,1,0,0:0:0:0:
358,192,53720,1,0,0:0:0:0:
256,192,53897,1,0,0:0:0:0:
460,192,53897,1,0,0:0:0:0:
51,192,54249,1,0,0:0:0:0:
256,192,54426,1,0,0:0:0:0:
256,192,54602,1,0,0:0:0:0:
153,192,54779,1,0,0:0:0:0:
358,192,54955,1,0,0:0:0:0:
358,192,55132,1,0,0:0:0:0:
256,192,55308,1,0,0:0:0:0:
460,192,55308,1,0,0:0:0:0:
256,192,55661,1,0,0:0:0:0:
256,192,56014,1,0,0:0:0:0:
358,192,56191,1,0,0:0:0:0:
153,192,56279,1,0,0:0:0:0:
358,192,56367,1,0,0:0:0:0:
153,192,56544,1,0,0:0:0:0:
358,192,56632,1,0,0:0:0:0:
153,192,56720,1,0,0:0:0:0:
358,192,56897,1,0,0:0:0:0:
153,192,56985,1,0,0:0:0:0:
51,192,57073,1,0,0:0:0:0:
256,192,57249,1,0,0:0:0:0:
256,192,57426,1,0,0:0:0:0:
153,192,57602,1,0,0:0:0:0:
358,192,57779,1,0,0:0:0:0:
358,192,57955,1,0,0:0:0:0:
256,192,58132,1,0,0:0:0:0:
460,192,58132,1,0,0:0:0:0:
51,192,58485,1,0,0:0:0:0:
256,192,58661,1,0,0:0:0:0:
256,192,58838,1,0,0:0:0:0:
153,192,59014,1,0,0:0:0:0:
358,192,59191,1,0,0:0:0:0:
358,192,59367,1,0,0:0:0:0:
256,192,59544,1,0,0:0:0:0:
460,192,59544,1,0,0:0:0:0:
51,192,59897,128,0,60426:0:0:0:0:
153,192,60426,1,0,0:0:0:0:
358,192,60602,1,0,0:0:0:0:
358,192,60779,1,0,0:0:0:0:
256,192,60955,1,0,0:0:0:0:
460,192,60955,1,0,0:0:0:0:
153,192,61308,1,0,0:0:0:0:
358,192,61661,1,0,0:0:0:0:
256,192,62014,1,0,0:0:0:0:
153,192,62367,1,0,0:0:0:0:
51,192,62720,1,0,0:0:0:0:
358,192,62720,1,0,0:0:0:0:
51,192,63073,1,0,0:0:0:0:
460,192,63073,1,0,0:0:0:0:
51,192,63426,1,0,0:0:0:0:
256,192,63426,1,0,0:0:0:0:
358,192,63779,1,0,0:0:0:0:
460,192,63779,1,0,0:0:0:0:
51,192,63779,1,0,0:0:0:0:
51,192,64132,1,0,0:0:0:0:
256,192,64132,1,0,0:0:0:0:
51,192,64485,1,0,0:0:0:0:
460,192,64485,1,0,0:0:0:0:
51,192,64838,1,0,0:0:0:0:
358,192,64838,1,0,0:0:0:0:
51,192,65191,1,0,0:0:0:0:
256,192,65191,1,0,0:0:0:0:
460,192,65191,1,0,0:0:0:0:
51,192,65544,1,0,0:0:0:0:
358,192,65544,1,0,0:0:0:0:
51,192,65897,1,0,0:0:0:0:
460,192,65897,1,0,0:0:0:0:
51,192,66249,1,0,0:0:0:0:
256,192,66249,1,0,0:0:0:0:
51,192,66602,1,0,0:0:0:0:
358,192,66602,1,0,0:0:0:0:
460,192,66602,1,0,0:0:0:0:
51,192,66955,1,0,0:0:0:0:
256,192,66955,1,0,0:0:0:0:
51,192,67308,1,0,0:0:0:0:
460,192,67308,1,0,0:0:0:0:
51,192,67485,1,0,0:0:0:0:
51,192,67661,1,0,0:0:0:0:
358,192,67661,1,0,0:0:0:0:
51,192,68014,1,0,0:0:0:0:
256,192,68014,1,0,0:0:0:0:
460,192,68014,1,0,0:0:0:0:
460,192,68191,1,0,0:0:0:0:
358,192,68191,1,0,0:0:0:0:
51,192,68367,1,0,0:0:0:0:
256,192,68367,1,0,0:0:0:0:
51,192,68720,1,0,0:0:0:0:
460,192,68720,1,0,0:0:0:0:
51,192,69073,1,0,0:0:0:0:
358,192,69073,1,0,0:0:0:0:
51,192,69426,1,0,0:0:0:0:
256,192,69426,1,0,0:0:0:0:
460,192,69426,1,0,0:0:0:0:
460,192,69602,1,0,0:0:0:0:
358,192,69779,1,0,0:0:0:0:
51,192,69779,1,0,0:0:0:0:
51,192,70132,1,0,0:0:0:0:
460,192,70132,1,0,0:0:0:0:
51,192,70485,1,0,0:0:0:0:
256,192,70485,1,0,0:0:0:0:
51,192,70838,1,0,0:0:0:0:
358,192,70838,1,0,0:0:0:0:
460,192,70838,1,0,0:0:0:0:
256,192,71191,1,0,0:0:0:0:
153,192,71367,1,0,0:0:0:0:
460,192,71544,1,0,0:0:0:0:
256,192,71720,1,0,0:0:0:0:
358,192,71897,1,0,0:0:0:0:
153,192,72073,1,0,0:0:0:0:
256,192,72249,1,0,0:0:0:0:
51,192,72426,1,0,0:0:0:0:
153,192,72602,1,0,0:0:0:0:
358,192,72602,1,0,0:0:0:0:
153,192,72779,1,0,0:0:0:0:
358,192,72779,1,0,0:0:0:0:
153,192,72955,1,0,0:0:0:0:
358,192,72955,1,0,0:0:0:0:
153,192,73132,1,0,0:0:0:0:
358,192,73132,1,0,0:0:0:0:
51,192,73308,1,0,0:0:0:0:
460,192,73308,1,0,0:0:0:0:
460,192,73485,1,0,0:0:0:0:
51,192,73485,1,0,0:0:0:0:
51,192,73661,1,0,0:0:0:0:
460,192,73661,1,0,0:0:0:0:
460,192,73838,1,0,0:0:0:0:
51,192,73838,1,0,0:0:0:0:
153,192,74014,1,0,0:0:0:0:
51,192,74367,1,0,0:0:0:0:
358,192,74367,1,0,0:0:0:0:
153,192,74544,1,0,0:0:0:0:
256,192,74720,1,0,0:0:0:0:
51,192,74897,1,0,0:0:0:0:
256,192,75073,1,0,0:0:0:0:
460,192,75073,1,0,0:0:0:0:
153,192,75249,1,0,0:0:0:0:
256,192,75426,1,0,0:0:0:0:
51,192,75602,1,0,0:0:0:0:
358,192,75779,1,0,0:0:0:0:
460,192,75779,1,0,0:0:0:0:
153,192,75955,1,0,0:0:0:0:
256,192,76132,1,0,0:0:0:0:
153,192,76308,1,0,0:0:0:0:
256,192,76485,1,0,0:0:0:0:
460,192,76485,1,0,0:0:0:0:
51,192,76661,1,0,0:0:0:0:
153,192,76838,1,0,0:0:0:0:
51,192,77191,1,0,0:0:0:0:
358,192,77191,1,0,0:0:0:0:
358,192,77367,1,0,0:0:0:0:
256,192,77544,1,0,0:0:0:0:
256,192,77720,1,0,0:0:0:0:
153,192,77897,1,0,0:0:0:0:
460,192,77897,1,0,0:0:0:0:
153,192,78073,1,0,0:0:0:0:
51,192,78249,1,0,0:0:0:0:
51,192,78426,1,0,0:0:0:0:
153,192,78602,1,0,0:0:0:0:
358,192,78602,1,0,0:0:0:0:
358,192,78779,1,0,0:0:0:0:
153,192,78955,1,0,0:0:0:0:
153,192,79132,1,0,0:0:0:0:
256,192,79308,1,0,0:0:0:0:
460,192,79308,1,0,0:0:0:0:
256,192,79485,1,0,0:0:0:0:
51,192,79661,1,0,0:0:0:0:
460,192,80014,1,0,0:0:0:0:
153,192,80014,1,0,0:0:0:0:
358,192,80191,1,0,0:0:0:0:
51,192,80367,1,0,0:0:0:0:
256,192,80544,1,0,0:0:0:0:
153,192,80720,1,0,0:0:0:0:
460,192,80720,1,0,0:0:0:0:
358,192,80897,1,0,0:0:0:0:
51,192,81073,1,0,0:0:0:0:
153,192,81073,1,0,0:0:0:0:
358,192,81249,1,0,0:0:0:0:
460,192,81249,1,0,0:0:0:0:
51,192,81426,1,0,0:0:0:0:
153,192,81426,1,0,0:0:0:0:
358,192,81602,1,0,0:0:0:0:
460,192,81602,1,0,0:0:0:0:
51,192,81779,1,0,0:0:0:0:
153,192,81779,1,0,0:0:0:0:
358,192,81955,1,0,0:0:0:0:
460,192,81955,1,0,0:0:0:0:
51,192,82132,1,0,0:0:0:0:
153,192,82132,1,0,0:0:0:0:
256,192,82308,1,0,0:0:0:0:
51,192,82485,1,0,0:0:0:0:
460,192,82485,1,0,0:0:0:0:
256,192,83191,1,0,0:0:0:0:
460,192,83191,1,0,0:0:0:0:
358,192,83720,1,0,0:0:0:0:
153,192,83808,1,0,0:0:0:0:
51,192,83897,1,0,0:0:0:0:
460,192,83897,1,0,0:0:0:0:
