osu file format v12

[General]
AudioFilename: heart of witch.mp3
AudioLeadIn: 0
PreviewTime: -1
Countdown: 0
SampleSet: Normal
StackLeniency: 0.7
Mode: 3
LetterboxInBreaks: 1
SpecialStyle: 0
WidescreenStoryboard: 1

[Editor]
DistanceSpacing: 1
BeatDivisor: 4
GridSize: 8

[Metadata]
Title:Heart Of Witch
TitleUnicode:Heart Of Witch
Artist:Rex
ArtistUnicode:Rex
Creator:Drace
Version:5K HD STYLE [lv.10]
Source:
Tags:
BeatmapID:335639
BeatmapSetID:133696

[Difficulty]
HPDrainRate:7
CircleSize:5
OverallDifficulty:7
ApproachRate:5
SliderMultiplier:1.4
SliderTickRate:1

[Events]
//Background and Video events
0,0,"vlcsnap-2013-12-11-05h37m39s143.png",0,0
//Break Periods
//Storyboard Layer 0 (Background)
//Storyboard Layer 1 (Fail)
//Storyboard Layer 2 (Pass)
//Storyboard Layer 3 (Foreground)
//Storyboard Sound Samples
//Background Colour Transformations
3,100,163,162,255

[TimingPoints]
250,352.941176470588,4,1,1,100,1,0

[HitObjects]
153,192,602,1,0,0:0:0:0:
460,192,602,1,0,0:0:0:0:
358,192,1308,1,0,0:0:0:0:
51,192,1308,1,0,0:0:0:0:
256,192,1661,1,0,0:0:0:0:
460,192,2014,1,0,0:0:0:0:
153,192,2014,1,0,0:0:0:0:
256,192,2367,1,0,0:0:0:0:
51,192,2720,1,0,0:0:0:0:
256,192,3073,1,0,0:0:0:0:
51,192,3249,1,0,0:0:0:0:
460,192,3249,1,0,0:0:0:0:
153,192,3426,1,0,0:0:0:0:
256,192,3426,1,0,0:0:0:0:
358,192,3426,1,0,0:0:0:0:
460,192,4132,1,0,0:0:0:0:
51,192,4132,1,0,0:0:0:0:
256,192,4485,1,0,0:0:0:0:
51,192,4838,1,0,0:0:0:0:
460,192,4838,1,0,0:0:0:0:
51,192,5191,1,0,0:0:0:0:
460,192,5191,1,0,0:0:0:0:
256,192,5367,1,0,0:0:0:0:
460,192,5544,1,0,0:0:0:0:
256,192,5720,1,0,0:0:0:0:
153,192,5897,1,0,0:0:0:0:
358,192,5897,1,0,0:0:0:0:
256,192,6249,1,0,0:0:0:0:
358,192,6249,1,0,0:0:0:0:
51,192,6426,1,0,0:0:0:0:
153,192,6779,1,0,0:0:0:0:
256,192,6779,1,0,0:0:0:0:
460,192,7132,1,0,0:0:0:0:
153,192,7308,1,0,0:0:0:0:
358,192,7308,1,0,0:0:0:0:
256,192,7485,1,0,0:0:0:0:
153,192,7838,1,0,0:0:0:0:
460,192,7838,1,0,0:0:0:0:
51,192,8191,1,0,0:0:0:0:
256,192,8367,1,0,0:0:0:0:
460,192,8544,1,0,0:0:0:0:
358,192,8720,1,0,0:0:0:0:
51,192,8720,1,0,0:0:0:0:
153,192,9073,1,0,0:0:0:0:
256,192,9073,1,0,0:0:0:0:
460,192,9249,1,0,0:0:0:0:
256,192,9602,1,0,0:0:0:0:
358,192,9602,1,0,0:0:0:0:
51,192,9955,1,0,0:0:0:0:
153,192,10132,1,0,0:0:0:0:
256,192,10132,1,0,0:0:0:0:
460,192,10308,1,0,0:0:0:0:
460,192,10661,1,0,0:0:0:0:
153,192,10661,1,0,0:0:0:0:
51,192,11014,1,0,0:0:0:0:
256,192,11191,1,0,0:0:0:0:
460,192,11367,1,0,0:0:0:0:
358,192,11544,1,0,0:0:0:0:
51,192,11544,1,0,0:0:0:0:
153,192,11897,1,0,0:0:0:0:
256,192,12073,1,0,0:0:0:0:
256,192,12249,1,0,0:0:0:0:
51,192,12426,1,0,0:0:0:0:
460,192,12602,1,0,0:0:0:0:
460,192,12779,1,0,0:0:0:0:
153,192,12955,1,0,0:0:0:0:
256,192,12955,1,0,0:0:0:0:
358,192,13044,1,0,0:0:0:0:
460,192,13132,1,0,0:0:0:0:
256,192,13220,1,0,0:0:0:0:
153,192,13308,1,0,0:0:0:0:
256,192,13485,1,0,0:0:0:0:
256,192,13661,1,0,0:0:0:0:
51,192,13838,1,0,0:0:0:0:
460,192,14014,1,0,0:0:0:0:
460,192,14191,1,0,0:0:0:0:
153,192,14367,1,0,0:0:0:0:
256,192,14367,1,0,0:0:0:0:
358,192,14455,1,0,0:0:0:0:
460,192,14544,1,0,0:0:0:0:
256,192,14632,1,0,0:0:0:0:
153,192,14720,1,0,0:0:0:0:
256,192,14897,1,0,0:0:0:0:
256,192,15073,1,0,0:0:0:0:
51,192,15249,1,0,0:0:0:0:
460,192,15426,1,0,0:0:0:0:
460,192,15602,1,0,0:0:0:0:
153,192,15779,1,0,0:0:0:0:
256,192,15779,1,0,0:0:0:0:
358,192,15867,1,0,0:0:0:0:
460,192,15955,1,0,0:0:0:0:
256,192,16044,1,0,0:0:0:0:
153,192,16132,1,0,0:0:0:0:
358,192,16485,1,0,0:0:0:0:
256,192,16573,1,0,0:0:0:0:
460,192,16661,1,0,0:0:0:0:
51,192,16749,1,0,0:0:0:0:
256,192,16838,1,0,0:0:0:0:
153,192,16926,1,0,0:0:0:0:
51,192,17014,1,0,0:0:0:0:
256,192,17102,1,0,0:0:0:0:
51,192,17191,1,0,0:0:0:0:
256,192,17279,1,0,0:0:0:0:
460,192,17367,1,0,0:0:0:0:
358,192,17455,1,0,0:0:0:0:
153,192,17544,1,0,0:0:0:0:
256,192,17720,1,0,0:0:0:0:
256,192,17897,1,0,0:0:0:0:
51,192,18073,1,0,0:0:0:0:
460,192,18249,1,0,0:0:0:0:
460,192,18426,1,0,0:0:0:0:
153,192,18602,1,0,0:0:0:0:
256,192,18602,1,0,0:0:0:0:
358,192,18691,1,0,0:0:0:0:
460,192,18779,1,0,0:0:0:0:
256,192,18867,1,0,0:0:0:0:
153,192,18955,1,0,0:0:0:0:
256,192,19132,1,0,0:0:0:0:
256,192,19308,1,0,0:0:0:0:
51,192,19485,1,0,0:0:0:0:
460,192,19661,1,0,0:0:0:0:
460,192,19838,1,0,0:0:0:0:
153,192,20014,1,0,0:0:0:0:
256,192,20014,1,0,0:0:0:0:
358,192,20102,1,0,0:0:0:0:
460,192,20191,1,0,0:0:0:0:
256,192,20279,1,0,0:0:0:0:
358,192,20367,1,0,0:0:0:0:
460,192,20455,1,0,0:0:0:0:
256,192,20544,1,0,0:0:0:0:
51,192,20632,1,0,0:0:0:0:
153,192,20720,1,0,0:0:0:0:
460,192,20808,1,0,0:0:0:0:
51,192,20897,1,0,0:0:0:0:
460,192,21073,1,0,0:0:0:0:
460,192,21249,1,0,0:0:0:0:
153,192,21426,1,0,0:0:0:0:
256,192,21426,1,0,0:0:0:0:
358,192,21514,1,0,0:0:0:0:
460,192,21602,1,0,0:0:0:0:
256,192,21691,1,0,0:0:0:0:
153,192,21779,1,0,0:0:0:0:
358,192,22132,1,0,0:0:0:0:
256,192,22220,1,0,0:0:0:0:
460,192,22308,1,0,0:0:0:0:
51,192,22397,1,0,0:0:0:0:
256,192,22485,1,0,0:0:0:0:
153,192,22573,1,0,0:0:0:0:
460,192,22661,1,0,0:0:0:0:
51,192,22749,1,0,0:0:0:0:
358,192,22838,1,0,0:0:0:0:
256,192,22926,1,0,0:0:0:0:
460,192,23014,1,0,0:0:0:0:
51,192,23102,1,0,0:0:0:0:
153,192,23191,1,0,0:0:0:0:
460,192,23367,1,0,0:0:0:0:
153,192,23544,1,0,0:0:0:0:
256,192,23544,1,0,0:0:0:0:
460,192,23720,1,0,0:0:0:0:
153,192,23897,1,0,0:0:0:0:
460,192,24073,1,0,0:0:0:0:
153,192,24249,1,0,0:0:0:0:
256,192,24249,1,0,0:0:0:0:
460,192,24426,1,0,0:0:0:0:
256,192,24514,1,0,0:0:0:0:
153,192,24602,1,0,0:0:0:0:
460,192,24779,1,0,0:0:0:0:
153,192,24955,1,0,0:0:0:0:
256,192,24955,1,0,0:0:0:0:
460,192,25132,1,0,0:0:0:0:
256,192,25220,1,0,0:0:0:0:
153,192,25308,1,0,0:0:0:0:
256,192,25397,1,0,0:0:0:0:
460,192,25485,1,0,0:0:0:0:
153,192,25661,1,0,0:0:0:0:
256,192,25661,1,0,0:0:0:0:
460,192,25838,1,0,0:0:0:0:
153,192,26014,1,0,0:0:0:0:
460,192,26191,1,0,0:0:0:0:
358,192,26367,1,0,0:0:0:0:
153,192,26367,1,0,0:0:0:0:
460,192,26544,1,0,0:0:0:0:
153,192,26720,1,0,0:0:0:0:
460,192,26897,1,0,0:0:0:0:
358,192,27073,1,0,0:0:0:0:
153,192,27073,1,0,0:0:0:0:
460,192,27249,1,0,0:0:0:0:
358,192,27338,1,0,0:0:0:0:
153,192,27426,1,0,0:0:0:0:
358,192,27514,1,0,0:0:0:0:
460,192,27602,1,0,0:0:0:0:
153,192,27779,1,0,0:0:0:0:
358,192,27779,1,0,0:0:0:0:
460,192,27955,1,0,0:0:0:0:
358,192,28044,1,0,0:0:0:0:
153,192,28132,1,0,0:0:0:0:
358,192,28220,1,0,0:0:0:0:
460,192,28308,1,0,0:0:0:0:
153,192,28485,1,0,0:0:0:0:
358,192,28485,1,0,0:0:0:0:
51,192,28661,1,0,0:0:0:0:
460,192,28661,1,0,0:0:0:0:
256,192,28749,1,0,0:0:0:0:
153,192,28838,1,0,0:0:0:0:
460,192,29014,1,0,0:0:0:0:
153,192,29191,1,0,0:0:0:0:
256,192,29191,1,0,0:0:0:0:
460,192,29367,1,0,0:0:0:0:
153,192,29544,1,0,0:0:0:0:
460,192,29720,1,0,0:0:0:0:
153,192,29897,1,0,0:0:0:0:
256,192,29897,1,0,0:0:0:0:
460,192,30073,1,0,0:0:0:0:
256,192,30161,1,0,0:0:0:0:
153,192,30249,1,0,0:0:0:0:
460,192,30426,1,0,0:0:0:0:
153,192,30602,1,0,0:0:0:0:
256,192,30602,1,0,0:0:0:0:
460,192,30779,1,0,0:0:0:0:
256,192,30867,1,0,0:0:0:0:
153,192,30955,1,0,0:0:0:0:
256,192,31044,1,0,0:0:0:0:
460,192,31132,1,0,0:0:0:0:
153,192,31308,1,0,0:0:0:0:
256,192,31308,1,0,0:0:0:0:
460,192,31485,1,0,0:0:0:0:
153,192,31661,1,0,0:0:0:0:
256,192,31838,1,0,0:0:0:0:
153,192,32014,1,0,0:0:0:0:
358,192,32014,1,0,0:0:0:0:
256,192,32191,1,0,0:0:0:0:
153,192,32367,1,0,0:0:0:0:
256,192,32544,1,0,0:0:0:0:
153,192,32720,1,0,0:0:0:0:
358,192,32720,1,0,0:0:0:0:
256,192,32897,1,0,0:0:0:0:
256,192,32985,1,0,0:0:0:0:
153,192,33073,1,0,0:0:0:0:
358,192,33073,1,0,0:0:0:0:
358,192,33426,1,0,0:0:0:0:
256,192,33779,1,0,0:0:0:0:
358,192,33779,1,0,0:0:0:0:
51,192,33867,1,0,0:0:0:0:
256,192,33955,1,0,0:0:0:0:
153,192,34132,1,0,0:0:0:0:
358,192,34132,1,0,0:0:0:0:
51,192,34220,1,0,0:0:0:0:
256,192,34308,1,0,0:0:0:0:
460,192,34397,1,0,0:0:0:0:
153,192,34485,1,0,0:0:0:0:
51,192,34661,1,0,0:0:0:0:
256,192,34838,1,0,0:0:0:0:
460,192,35014,1,0,0:0:0:0:
358,192,35191,1,0,0:0:0:0:
460,192,35367,1,0,0:0:0:0:
256,192,35544,1,0,0:0:0:0:
51,192,35720,1,0,0:0:0:0:
153,192,35897,1,0,0:0:0:0:
51,192,36073,1,0,0:0:0:0:
256,192,36249,1,0,0:0:0:0:
460,192,36426,1,0,0:0:0:0:
358,192,36602,1,0,0:0:0:0:
460,192,36779,1,0,0:0:0:0:
256,192,36955,1,0,0:0:0:0:
51,192,37132,1,0,0:0:0:0:
153,192,37308,1,0,0:0:0:0:
51,192,37485,1,0,0:0:0:0:
256,192,37661,1,0,0:0:0:0:
460,192,37838,1,0,0:0:0:0:
358,192,38014,1,0,0:0:0:0:
460,192,38191,1,0,0:0:0:0:
256,192,38367,1,0,0:0:0:0:
51,192,38544,1,0,0:0:0:0:
153,192,38720,1,0,0:0:0:0:
51,192,38897,1,0,0:0:0:0:
256,192,39073,1,0,0:0:0:0:
460,192,39249,1,0,0:0:0:0:
358,192,39426,1,0,0:0:0:0:
460,192,39602,1,0,0:0:0:0:
256,192,39779,1,0,0:0:0:0:
51,192,39955,1,0,0:0:0:0:
51,192,40132,1,0,0:0:0:0:
153,192,40132,1,0,0:0:0:0:
153,192,40308,1,0,0:0:0:0:
256,192,40308,1,0,0:0:0:0:
460,192,40485,1,0,0:0:0:0:
358,192,40661,1,0,0:0:0:0:
51,192,40661,1,0,0:0:0:0:
153,192,40838,1,0,0:0:0:0:
358,192,40838,1,0,0:0:0:0:
153,192,41014,1,0,0:0:0:0:
460,192,41014,1,0,0:0:0:0:
256,192,41191,1,0,0:0:0:0:
51,192,41367,1,0,0:0:0:0:
153,192,41544,1,0,0:0:0:0:
358,192,41544,1,0,0:0:0:0:
358,192,41720,1,0,0:0:0:0:
51,192,41720,1,0,0:0:0:0:
256,192,41897,1,0,0:0:0:0:
153,192,42073,1,0,0:0:0:0:
460,192,42073,1,0,0:0:0:0:
358,192,42249,1,0,0:0:0:0:
460,192,42249,1,0,0:0:0:0:
256,192,42426,1,0,0:0:0:0:
358,192,42426,1,0,0:0:0:0:
51,192,42602,1,0,0:0:0:0:
153,192,42779,1,0,0:0:0:0:
153,192,42955,1,0,0:0:0:0:
256,192,42955,1,0,0:0:0:0:
256,192,43132,1,0,0:0:0:0:
51,192,43132,1,0,0:0:0:0:
460,192,43308,1,0,0:0:0:0:
358,192,43485,1,0,0:0:0:0:
51,192,43485,1,0,0:0:0:0:
256,192,43661,1,0,0:0:0:0:
460,192,43661,1,0,0:0:0:0:
256,192,43838,1,0,0:0:0:0:
51,192,43838,1,0,0:0:0:0:
460,192,44014,1,0,0:0:0:0:
51,192,44191,1,0,0:0:0:0:
153,192,44367,1,0,0:0:0:0:
358,192,44367,1,0,0:0:0:0:
358,192,44544,1,0,0:0:0:0:
51,192,44544,1,0,0:0:0:0:
256,192,44720,1,0,0:0:0:0:
153,192,44897,1,0,0:0:0:0:
460,192,44897,1,0,0:0:0:0:
358,192,45073,1,0,0:0:0:0:
460,192,45073,1,0,0:0:0:0:
358,192,45249,1,0,0:0:0:0:
51,192,45249,1,0,0:0:0:0:
256,192,45426,1,0,0:0:0:0:
153,192,45602,1,0,0:0:0:0:
256,192,45955,1,0,0:0:0:0:
153,192,46308,1,0,0:0:0:0:
256,192,46397,1,0,0:0:0:0:
51,192,46485,1,0,0:0:0:0:
460,192,46573,1,0,0:0:0:0:
256,192,46661,1,0,0:0:0:0:
358,192,46749,1,0,0:0:0:0:
51,192,46838,1,0,0:0:0:0:
460,192,46926,1,0,0:0:0:0:
256,192,47014,1,0,0:0:0:0:
51,192,47102,1,0,0:0:0:0:
460,192,47191,1,0,0:0:0:0:
256,192,47897,1,0,0:0:0:0:
358,192,47985,1,0,0:0:0:0:
256,192,48073,1,0,0:0:0:0:
460,192,48249,1,0,0:0:0:0:
256,192,48338,1,0,0:0:0:0:
51,192,48426,1,0,0:0:0:0:
153,192,48514,1,0,0:0:0:0:
358,192,48602,1,0,0:0:0:0:
460,192,48602,1,0,0:0:0:0:
51,192,48779,1,0,0:0:0:0:
153,192,48955,1,0,0:0:0:0:
460,192,48955,1,0,0:0:0:0:
51,192,49132,1,0,0:0:0:0:
358,192,49308,1,0,0:0:0:0:
460,192,49308,1,0,0:0:0:0:
153,192,49485,1,0,0:0:0:0:
51,192,49661,1,0,0:0:0:0:
460,192,49661,1,0,0:0:0:0:
153,192,49838,1,0,0:0:0:0:
358,192,50014,1,0,0:0:0:0:
460,192,50014,1,0,0:0:0:0:
51,192,50191,1,0,0:0:0:0:
153,192,50367,1,0,0:0:0:0:
460,192,50367,1,0,0:0:0:0:
256,192,50544,1,0,0:0:0:0:
358,192,50544,1,0,0:0:0:0:
51,192,50720,1,0,0:0:0:0:
153,192,50897,1,0,0:0:0:0:
256,192,50897,1,0,0:0:0:0:
460,192,51073,1,0,0:0:0:0:
51,192,51426,1,0,0:0:0:0:
153,192,51426,1,0,0:0:0:0:
358,192,51514,1,0,0:0:0:0:
460,192,51514,1,0,0:0:0:0:
51,192,51602,1,0,0:0:0:0:
153,192,51602,1,0,0:0:0:0:
358,192,51691,1,0,0:0:0:0:
460,192,51691,1,0,0:0:0:0:
51,192,51779,1,0,0:0:0:0:
153,192,51779,1,0,0:0:0:0:
51,192,51955,1,0,0:0:0:0:
460,192,51955,1,0,0:0:0:0:
153,192,52485,1,0,0:0:0:0:
358,192,52485,1,0,0:0:0:0:
358,192,52838,1,0,0:0:0:0:
460,192,52838,1,0,0:0:0:0:
51,192,52926,1,0,0:0:0:0:
153,192,52926,1,0,0:0:0:0:
358,192,53014,1,0,0:0:0:0:
460,192,53014,1,0,0:0:0:0:
51,192,53102,1,0,0:0:0:0:
153,192,53102,1,0,0:0:0:0:
358,192,53191,1,0,0:0:0:0:
460,192,53191,1,0,0:0:0:0:
153,192,53367,1,0,0:0:0:0:
358,192,53367,1,0,0:0:0:0:
51,192,53897,1,0,0:0:0:0:
460,192,53897,1,0,0:0:0:0:
51,192,54249,1,0,0:0:0:0:
153,192,54249,1,0,0:0:0:0:
358,192,54338,1,0,0:0:0:0:
460,192,54338,1,0,0:0:0:0:
153,192,54426,1,0,0:0:0:0:
51,192,54426,1,0,0:0:0:0:
358,192,54514,1,0,0:0:0:0:
460,192,54514,1,0,0:0:0:0:
51,192,54602,1,0,0:0:0:0:
153,192,54602,1,0,0:0:0:0:
153,192,54779,1,0,0:0:0:0:
358,192,54779,1,0,0:0:0:0:
51,192,55308,1,0,0:0:0:0:
460,192,55308,1,0,0:0:0:0:
51,192,55661,1,0,0:0:0:0:
256,192,55661,1,0,0:0:0:0:
153,192,56014,1,0,0:0:0:0:
256,192,56014,1,0,0:0:0:0:
256,192,56191,1,0,0:0:0:0:
153,192,56279,1,0,0:0:0:0:
256,192,56367,1,0,0:0:0:0:
460,192,56367,1,0,0:0:0:0:
256,192,56544,1,0,0:0:0:0:
358,192,56632,1,0,0:0:0:0:
153,192,56720,1,0,0:0:0:0:
460,192,56720,1,0,0:0:0:0:
358,192,57073,1,0,0:0:0:0:
460,192,57073,1,0,0:0:0:0:
51,192,57161,1,0,0:0:0:0:
153,192,57161,1,0,0:0:0:0:
358,192,57249,1,0,0:0:0:0:
460,192,57249,1,0,0:0:0:0:
51,192,57338,1,0,0:0:0:0:
153,192,57338,1,0,0:0:0:0:
358,192,57426,1,0,0:0:0:0:
460,192,57426,1,0,0:0:0:0:
460,192,57602,1,0,0:0:0:0:
51,192,57602,1,0,0:0:0:0:
51,192,58132,1,0,0:0:0:0:
460,192,58132,1,0,0:0:0:0:
256,192,58308,1,0,0:0:0:0:
256,192,58397,1,0,0:0:0:0:
51,192,58485,1,0,0:0:0:0:
153,192,58485,1,0,0:0:0:0:
358,192,58573,1,0,0:0:0:0:
460,192,58573,1,0,0:0:0:0:
51,192,58661,1,0,0:0:0:0:
153,192,58661,1,0,0:0:0:0:
358,192,58749,1,0,0:0:0:0:
460,192,58749,1,0,0:0:0:0:
51,192,58838,1,0,0:0:0:0:
153,192,58838,1,0,0:0:0:0:
153,192,59014,1,0,0:0:0:0:
358,192,59014,1,0,0:0:0:0:
51,192,59544,1,0,0:0:0:0:
460,192,59544,1,0,0:0:0:0:
256,192,59720,1,0,0:0:0:0:
256,192,59808,1,0,0:0:0:0:
358,192,59897,1,0,0:0:0:0:
460,192,59897,1,0,0:0:0:0:
51,192,59985,1,0,0:0:0:0:
153,192,59985,1,0,0:0:0:0:
358,192,60073,1,0,0:0:0:0:
460,192,60073,1,0,0:0:0:0:
51,192,60161,1,0,0:0:0:0:
153,192,60161,1,0,0:0:0:0:
358,192,60249,1,0,0:0:0:0:
460,192,60249,1,0,0:0:0:0:
460,192,60426,1,0,0:0:0:0:
51,192,60426,1,0,0:0:0:0:
153,192,60955,1,0,0:0:0:0:
358,192,60955,1,0,0:0:0:0:
460,192,61308,1,0,0:0:0:0:
51,192,61308,1,0,0:0:0:0:
153,192,61661,1,0,0:0:0:0:
358,192,61661,1,0,0:0:0:0:
460,192,61838,1,0,0:0:0:0:
256,192,61926,1,0,0:0:0:0:
153,192,62014,1,0,0:0:0:0:
460,192,62014,1,0,0:0:0:0:
51,192,62191,1,0,0:0:0:0:
256,192,62279,1,0,0:0:0:0:
358,192,62367,1,0,0:0:0:0:
51,192,62367,1,0,0:0:0:0:
256,192,62544,1,0,0:0:0:0:
51,192,62632,1,0,0:0:0:0:
358,192,62720,1,0,0:0:0:0:
256,192,62897,1,0,0:0:0:0:
460,192,62985,1,0,0:0:0:0:
153,192,63073,1,0,0:0:0:0:
460,192,63161,1,0,0:0:0:0:
51,192,63249,1,0,0:0:0:0:
256,192,63338,1,0,0:0:0:0:
358,192,63426,1,0,0:0:0:0:
153,192,63779,1,0,0:0:0:0:
51,192,64132,1,0,0:0:0:0:
358,192,64308,1,0,0:0:0:0:
51,192,64397,1,0,0:0:0:0:
460,192,64485,1,0,0:0:0:0:
153,192,64573,1,0,0:0:0:0:
460,192,64661,1,0,0:0:0:0:
51,192,64749,1,0,0:0:0:0:
358,192,64838,1,0,0:0:0:0:
256,192,65191,1,0,0:0:0:0:
51,192,65544,1,0,0:0:0:0:
460,192,65720,1,0,0:0:0:0:
256,192,65808,1,0,0:0:0:0:
358,192,65897,1,0,0:0:0:0:
153,192,65985,1,0,0:0:0:0:
460,192,66073,1,0,0:0:0:0:
51,192,66161,1,0,0:0:0:0:
358,192,66249,1,0,0:0:0:0:
256,192,66602,1,0,0:0:0:0:
153,192,66955,1,0,0:0:0:0:
460,192,67132,1,0,0:0:0:0:
51,192,67220,1,0,0:0:0:0:
358,192,67308,1,0,0:0:0:0:
153,192,67397,1,0,0:0:0:0:
256,192,67485,1,0,0:0:0:0:
51,192,67573,1,0,0:0:0:0:
460,192,67661,1,0,0:0:0:0:
256,192,68014,1,0,0:0:0:0:
51,192,68191,1,0,0:0:0:0:
153,192,68367,1,0,0:0:0:0:
358,192,68544,1,0,0:0:0:0:
51,192,68632,1,0,0:0:0:0:
460,192,68720,1,0,0:0:0:0:
153,192,68808,1,0,0:0:0:0:
460,192,68897,1,0,0:0:0:0:
256,192,68985,1,0,0:0:0:0:
358,192,69073,1,0,0:0:0:0:
256,192,69426,1,0,0:0:0:0:
51,192,69779,1,0,0:0:0:0:
460,192,69955,1,0,0:0:0:0:
51,192,70044,1,0,0:0:0:0:
460,192,70132,1,0,0:0:0:0:
51,192,70220,1,0,0:0:0:0:
358,192,70308,1,0,0:0:0:0:
256,192,70397,1,0,0:0:0:0:
51,192,70485,1,0,0:0:0:0:
153,192,70838,1,0,0:0:0:0:
256,192,71191,1,0,0:0:0:0:
51,192,71367,1,0,0:0:0:0:
358,192,71544,1,0,0:0:0:0:
153,192,71720,1,0,0:0:0:0:
460,192,71897,1,0,0:0:0:0:
51,192,72073,1,0,0:0:0:0:
256,192,72249,1,0,0:0:0:0:
153,192,72426,1,0,0:0:0:0:
51,192,72602,1,0,0:0:0:0:
460,192,72602,1,0,0:0:0:0:
460,192,72779,1,0,0:0:0:0:
51,192,72779,1,0,0:0:0:0:
51,192,72955,1,0,0:0:0:0:
460,192,72955,1,0,0:0:0:0:
460,192,73132,1,0,0:0:0:0:
51,192,73132,1,0,0:0:0:0:
153,192,73308,1,0,0:0:0:0:
256,192,73308,1,0,0:0:0:0:
460,192,73397,1,0,0:0:0:0:
153,192,73485,1,0,0:0:0:0:
256,192,73485,1,0,0:0:0:0:
460,192,73573,1,0,0:0:0:0:
153,192,73661,1,0,0:0:0:0:
256,192,73661,1,0,0:0:0:0:
460,192,73749,1,0,0:0:0:0:
153,192,73838,1,0,0:0:0:0:
256,192,73838,1,0,0:0:0:0:
51,192,74014,1,0,0:0:0:0:
358,192,74367,1,0,0:0:0:0:
256,192,74455,1,0,0:0:0:0:
358,192,74544,1,0,0:0:0:0:
256,192,74720,1,0,0:0:0:0:
153,192,74808,1,0,0:0:0:0:
256,192,74897,1,0,0:0:0:0:
51,192,75073,1,0,0:0:0:0:
460,192,75161,1,0,0:0:0:0:
51,192,75249,1,0,0:0:0:0:
460,192,75426,1,0,0:0:0:0:
256,192,75514,1,0,0:0:0:0:
460,192,75602,1,0,0:0:0:0:
51,192,75779,1,0,0:0:0:0:
256,192,75867,1,0,0:0:0:0:
51,192,75955,1,0,0:0:0:0:
256,192,76132,1,0,0:0:0:0:
153,192,76220,1,0,0:0:0:0:
256,192,76308,1,0,0:0:0:0:
51,192,76485,1,0,0:0:0:0:
460,192,76573,1,0,0:0:0:0:
51,192,76661,1,0,0:0:0:0:
153,192,76838,1,0,0:0:0:0:
358,192,77191,1,0,0:0:0:0:
51,192,77279,1,0,0:0:0:0:
358,192,77367,1,0,0:0:0:0:
256,192,77544,1,0,0:0:0:0:
153,192,77632,1,0,0:0:0:0:
256,192,77720,1,0,0:0:0:0:
460,192,77897,1,0,0:0:0:0:
51,192,77985,1,0,0:0:0:0:
460,192,78073,1,0,0:0:0:0:
256,192,78249,1,0,0:0:0:0:
153,192,78338,1,0,0:0:0:0:
256,192,78426,1,0,0:0:0:0:
51,192,78602,1,0,0:0:0:0:
460,192,78691,1,0,0:0:0:0:
51,192,78779,1,0,0:0:0:0:
256,192,78955,1,0,0:0:0:0:
460,192,79044,1,0,0:0:0:0:
256,192,79132,1,0,0:0:0:0:
51,192,79308,1,0,0:0:0:0:
460,192,79397,1,0,0:0:0:0:
51,192,79485,1,0,0:0:0:0:
153,192,79661,1,0,0:0:0:0:
51,192,80014,1,0,0:0:0:0:
460,192,80191,1,0,0:0:0:0:
153,192,80367,1,0,0:0:0:0:
256,192,80544,1,0,0:0:0:0:
51,192,80720,1,0,0:0:0:0:
460,192,80897,1,0,0:0:0:0:
153,192,81073,1,0,0:0:0:0:
51,192,81161,1,0,0:0:0:0:
358,192,81249,1,0,0:0:0:0:
460,192,81338,1,0,0:0:0:0:
153,192,81426,1,0,0:0:0:0:
51,192,81514,1,0,0:0:0:0:
358,192,81602,1,0,0:0:0:0:
460,192,81691,1,0,0:0:0:0:
153,192,81779,1,0,0:0:0:0:
51,192,81867,1,0,0:0:0:0:
358,192,81955,1,0,0:0:0:0:
460,192,82044,1,0,0:0:0:0:
153,192,82132,1,0,0:0:0:0:
51,192,82220,1,0,0:0:0:0:
358,192,82308,1,0,0:0:0:0:
460,192,82397,1,0,0:0:0:0:
358,192,82485,1,0,0:0:0:0:
153,192,82485,1,0,0:0:0:0:
51,192,83191,1,0,0:0:0:0:
460,192,83191,1,0,0:0:0:0:
256,192,83720,1,0,0:0:0:0:
256,192,83808,1,0,0:0:0:0:
153,192,83897,1,0,0:0:0:0:
358,192,83897,1,0,0:0:0:0:
