osu file format v12

[General]
AudioFilename: heart of witch.mp3
AudioLeadIn: 0
PreviewTime: -1
Countdown: 0
SampleSet: Normal
StackLeniency: 0.7
Mode: 3
LetterboxInBreaks: 1
SpecialStyle: 0
WidescreenStoryboard: 1

[Editor]
DistanceSpacing: 1
BeatDivisor: 4
GridSize: 8

[Metadata]
Title:Heart Of Witch
TitleUnicode:Heart Of Witch
Artist:Rex
ArtistUnicode:Rex
Creator:Drace
Version:4K MX STYLE [lv.14]
Source:
Tags:
BeatmapID:335637
BeatmapSetID:133696

[Difficulty]
HPDrainRate:7
CircleSize:4
OverallDifficulty:7
ApproachRate:5
SliderMultiplier:1.4
SliderTickRate:1

[Events]
//Background and Video events
0,0,"vlcsnap-2013-12-11-05h37m51s45.png",0,0
//Break Periods
//Storyboard Layer 0 (Background)
//Storyboard Layer 1 (Fail)
//Storyboard Layer 2 (Pass)
//Storyboard Layer 3 (Foreground)
//Storyboard Sound Samples
//Background Colour Transformations
3,100,163,162,255

[TimingPoints]
250,352.941176470588,4,1,1,100,1,0

[HitObjects]
192,192,250,1,0,0:0:0:0:
448,192,338,1,0,0:0:0:0:
320,192,426,1,0,0:0:0:0:
192,192,514,1,0,0:0:0:0:
320,192,602,128,0,1308:0:0:0:0:
64,192,602,128,0,1308:0:0:0:0:
448,192,1308,128,0,2014:0:0:0:0:
192,192,1661,1,0,0:0:0:0:
320,192,1838,1,0,0:0:0:0:
64,192,2014,1,0,0:0:0:0:
320,192,2191,1,0,0:0:0:0:
192,192,2367,1,0,0:0:0:0:
448,192,2544,1,0,0:0:0:0:
192,192,2720,1,0,0:0:0:0:
320,192,2808,1,0,0:0:0:0:
64,192,2897,1,0,0:0:0:0:
320,192,2985,1,0,0:0:0:0:
192,192,3073,1,0,0:0:0:0:
448,192,3161,1,0,0:0:0:0:
192,192,3249,1,0,0:0:0:0:
320,192,3338,1,0,0:0:0:0:
448,192,3426,1,0,0:0:0:0:
64,192,3426,128,0,3955:0:0:0:0:
192,192,3779,1,0,0:0:0:0:
192,192,3955,128,0,4661:0:0:0:0:
448,192,4132,1,0,0:0:0:0:
320,192,4485,1,0,0:0:0:0:
448,192,4573,1,0,0:0:0:0:
64,192,4661,1,0,0:0:0:0:
320,192,4749,1,0,0:0:0:0:
192,192,4838,1,0,0:0:0:0:
448,192,4926,1,0,0:0:0:0:
64,192,5014,1,0,0:0:0:0:
320,192,5102,1,0,0:0:0:0:
192,192,5191,1,0,0:0:0:0:
448,192,5279,1,0,0:0:0:0:
192,192,5367,1,0,0:0:0:0:
320,192,5455,1,0,0:0:0:0:
64,192,5544,1,0,0:0:0:0:
320,192,5632,1,0,0:0:0:0:
448,192,5720,1,0,0:0:0:0:
320,192,5808,1,0,0:0:0:0:
192,192,5897,1,0,0:0:0:0:
448,192,5897,1,0,0:0:0:0:
64,192,6249,1,0,0:0:0:0:
192,192,6249,1,0,0:0:0:0:
448,192,6249,1,0,0:0:0:0:
320,192,6426,1,0,0:0:0:0:
192,192,6602,1,0,0:0:0:0:
64,192,6779,1,0,0:0:0:0:
320,192,6779,1,0,0:0:0:0:
448,192,6779,1,0,0:0:0:0:
320,192,7044,1,0,0:0:0:0:
320,192,7132,1,0,0:0:0:0:
192,192,7132,1,0,0:0:0:0:
64,192,7308,1,0,0:0:0:0:
320,192,7308,1,0,0:0:0:0:
448,192,7308,1,0,0:0:0:0:
192,192,7485,1,0,0:0:0:0:
448,192,7661,1,0,0:0:0:0:
64,192,7838,1,0,0:0:0:0:
192,192,7838,1,0,0:0:0:0:
320,192,7838,1,0,0:0:0:0:
320,192,8102,1,0,0:0:0:0:
320,192,8191,1,0,0:0:0:0:
192,192,8191,1,0,0:0:0:0:
64,192,8367,1,0,0:0:0:0:
448,192,8367,1,0,0:0:0:0:
320,192,8544,1,0,0:0:0:0:
192,192,8720,1,0,0:0:0:0:
448,192,8720,1,0,0:0:0:0:
320,192,8897,1,0,0:0:0:0:
320,192,9073,1,0,0:0:0:0:
448,192,9073,1,0,0:0:0:0:
64,192,9073,1,0,0:0:0:0:
192,192,9338,1,0,0:0:0:0:
320,192,9426,1,0,0:0:0:0:
64,192,9602,1,0,0:0:0:0:
192,192,9602,1,0,0:0:0:0:
448,192,9602,1,0,0:0:0:0:
320,192,9779,1,0,0:0:0:0:
192,192,9955,1,0,0:0:0:0:
320,192,9955,1,0,0:0:0:0:
64,192,10132,1,0,0:0:0:0:
320,192,10132,1,0,0:0:0:0:
448,192,10132,1,0,0:0:0:0:
192,192,10308,1,0,0:0:0:0:
64,192,10661,1,0,0:0:0:0:
192,192,10661,1,0,0:0:0:0:
320,192,10661,1,0,0:0:0:0:
448,192,10661,1,0,0:0:0:0:
192,192,10926,1,0,0:0:0:0:
320,192,11014,1,0,0:0:0:0:
448,192,11191,1,0,0:0:0:0:
192,192,11191,1,0,0:0:0:0:
320,192,11367,1,0,0:0:0:0:
192,192,11455,1,0,0:0:0:0:
448,192,11544,1,0,0:0:0:0:
320,192,11588,1,0,0:0:0:0:
192,192,11632,1,0,0:0:0:0:
64,192,11676,1,0,0:0:0:0:
448,192,11720,1,0,0:0:0:0:
64,192,11897,1,0,0:0:0:0:
192,192,11897,1,0,0:0:0:0:
320,192,11897,1,0,0:0:0:0:
448,192,12073,1,0,0:0:0:0:
448,192,12249,1,0,0:0:0:0:
64,192,12426,1,0,0:0:0:0:
192,192,12426,1,0,0:0:0:0:
320,192,12426,1,0,0:0:0:0:
448,192,12602,1,0,0:0:0:0:
448,192,12779,1,0,0:0:0:0:
448,192,12955,1,0,0:0:0:0:
320,192,13044,1,0,0:0:0:0:
192,192,13132,1,0,0:0:0:0:
64,192,13220,1,0,0:0:0:0:
192,192,13308,1,0,0:0:0:0:
320,192,13308,1,0,0:0:0:0:
448,192,13308,1,0,0:0:0:0:
64,192,13485,1,0,0:0:0:0:
64,192,13661,1,0,0:0:0:0:
192,192,13838,1,0,0:0:0:0:
320,192,13838,1,0,0:0:0:0:
448,192,13838,1,0,0:0:0:0:
64,192,14014,1,0,0:0:0:0:
64,192,14191,1,0,0:0:0:0:
64,192,14367,1,0,0:0:0:0:
192,192,14455,1,0,0:0:0:0:
320,192,14544,1,0,0:0:0:0:
448,192,14632,1,0,0:0:0:0:
64,192,14720,1,0,0:0:0:0:
192,192,14720,1,0,0:0:0:0:
320,192,14720,1,0,0:0:0:0:
448,192,14897,1,0,0:0:0:0:
448,192,15073,1,0,0:0:0:0:
320,192,15249,1,0,0:0:0:0:
192,192,15249,1,0,0:0:0:0:
64,192,15249,1,0,0:0:0:0:
448,192,15426,1,0,0:0:0:0:
448,192,15602,1,0,0:0:0:0:
448,192,15779,1,0,0:0:0:0:
320,192,15867,1,0,0:0:0:0:
192,192,15955,1,0,0:0:0:0:
64,192,16044,1,0,0:0:0:0:
320,192,16132,1,0,0:0:0:0:
448,192,16485,1,0,0:0:0:0:
192,192,16573,1,0,0:0:0:0:
320,192,16661,1,0,0:0:0:0:
64,192,16749,1,0,0:0:0:0:
448,192,16838,1,0,0:0:0:0:
320,192,16926,1,0,0:0:0:0:
192,192,17014,1,0,0:0:0:0:
320,192,17102,1,0,0:0:0:0:
64,192,17191,1,0,0:0:0:0:
448,192,17279,1,0,0:0:0:0:
192,192,17367,1,0,0:0:0:0:
448,192,17455,1,0,0:0:0:0:
64,192,17544,1,0,0:0:0:0:
192,192,17544,1,0,0:0:0:0:
320,192,17544,1,0,0:0:0:0:
448,192,17720,1,0,0:0:0:0:
448,192,17897,1,0,0:0:0:0:
320,192,18073,1,0,0:0:0:0:
192,192,18073,1,0,0:0:0:0:
64,192,18073,1,0,0:0:0:0:
448,192,18249,1,0,0:0:0:0:
448,192,18426,1,0,0:0:0:0:
448,192,18602,1,0,0:0:0:0:
320,192,18691,1,0,0:0:0:0:
192,192,18779,1,0,0:0:0:0:
64,192,18867,1,0,0:0:0:0:
320,192,18955,1,0,0:0:0:0:
448,192,18955,1,0,0:0:0:0:
192,192,18955,1,0,0:0:0:0:
64,192,19132,1,0,0:0:0:0:
64,192,19308,1,0,0:0:0:0:
192,192,19485,1,0,0:0:0:0:
320,192,19485,1,0,0:0:0:0:
448,192,19485,1,0,0:0:0:0:
64,192,19661,1,0,0:0:0:0:
64,192,19838,1,0,0:0:0:0:
64,192,20014,1,0,0:0:0:0:
192,192,20102,1,0,0:0:0:0:
320,192,20191,1,0,0:0:0:0:
448,192,20279,1,0,0:0:0:0:
192,192,20367,1,0,0:0:0:0:
64,192,20367,1,0,0:0:0:0:
320,192,20367,1,0,0:0:0:0:
448,192,20455,1,0,0:0:0:0:
320,192,20544,1,0,0:0:0:0:
192,192,20632,1,0,0:0:0:0:
64,192,20720,1,0,0:0:0:0:
448,192,20808,1,0,0:0:0:0:
64,192,20897,1,0,0:0:0:0:
192,192,20897,1,0,0:0:0:0:
320,192,20897,1,0,0:0:0:0:
448,192,21073,1,0,0:0:0:0:
448,192,21249,1,0,0:0:0:0:
64,192,21426,1,0,0:0:0:0:
192,192,21514,1,0,0:0:0:0:
320,192,21602,1,0,0:0:0:0:
448,192,21691,1,0,0:0:0:0:
64,192,21779,1,0,0:0:0:0:
448,192,22132,1,0,0:0:0:0:
192,192,22220,1,0,0:0:0:0:
320,192,22308,1,0,0:0:0:0:
64,192,22397,1,0,0:0:0:0:
320,192,22485,1,0,0:0:0:0:
192,192,22573,1,0,0:0:0:0:
448,192,22661,1,0,0:0:0:0:
192,192,22749,1,0,0:0:0:0:
320,192,22838,1,0,0:0:0:0:
64,192,22926,1,0,0:0:0:0:
320,192,23014,1,0,0:0:0:0:
192,192,23102,1,0,0:0:0:0:
320,192,23191,1,0,0:0:0:0:
192,192,23544,1,0,0:0:0:0:
320,192,23632,1,0,0:0:0:0:
64,192,23720,1,0,0:0:0:0:
320,192,23808,1,0,0:0:0:0:
192,192,23897,1,0,0:0:0:0:
448,192,23985,1,0,0:0:0:0:
192,192,24073,1,0,0:0:0:0:
320,192,24161,1,0,0:0:0:0:
64,192,24249,1,0,0:0:0:0:
320,192,24338,1,0,0:0:0:0:
192,192,24426,1,0,0:0:0:0:
448,192,24514,1,0,0:0:0:0:
192,192,24602,1,0,0:0:0:0:
320,192,24691,1,0,0:0:0:0:
64,192,24779,1,0,0:0:0:0:
320,192,24867,1,0,0:0:0:0:
192,192,24955,1,0,0:0:0:0:
448,192,25044,1,0,0:0:0:0:
192,192,25132,1,0,0:0:0:0:
320,192,25220,1,0,0:0:0:0:
64,192,25308,1,0,0:0:0:0:
320,192,25397,1,0,0:0:0:0:
192,192,25485,1,0,0:0:0:0:
448,192,25573,1,0,0:0:0:0:
192,192,25661,1,0,0:0:0:0:
320,192,25749,1,0,0:0:0:0:
64,192,25838,1,0,0:0:0:0:
320,192,25926,1,0,0:0:0:0:
192,192,26014,1,0,0:0:0:0:
448,192,26367,1,0,0:0:0:0:
192,192,26455,1,0,0:0:0:0:
320,192,26544,1,0,0:0:0:0:
64,192,26632,1,0,0:0:0:0:
448,192,26720,1,0,0:0:0:0:
192,192,26808,1,0,0:0:0:0:
320,192,26897,1,0,0:0:0:0:
64,192,26985,1,0,0:0:0:0:
448,192,27073,1,0,0:0:0:0:
192,192,27161,1,0,0:0:0:0:
320,192,27249,1,0,0:0:0:0:
64,192,27338,1,0,0:0:0:0:
448,192,27426,1,0,0:0:0:0:
192,192,27514,1,0,0:0:0:0:
320,192,27602,1,0,0:0:0:0:
64,192,27691,1,0,0:0:0:0:
448,192,27779,1,0,0:0:0:0:
192,192,27867,1,0,0:0:0:0:
320,192,27955,1,0,0:0:0:0:
64,192,28044,1,0,0:0:0:0:
448,192,28132,1,0,0:0:0:0:
192,192,28220,1,0,0:0:0:0:
320,192,28308,1,0,0:0:0:0:
64,192,28397,1,0,0:0:0:0:
448,192,28485,1,0,0:0:0:0:
192,192,28573,1,0,0:0:0:0:
320,192,28661,1,0,0:0:0:0:
64,192,28749,1,0,0:0:0:0:
320,192,28838,1,0,0:0:0:0:
64,192,29191,1,0,0:0:0:0:
320,192,29279,1,0,0:0:0:0:
192,192,29367,1,0,0:0:0:0:
320,192,29455,1,0,0:0:0:0:
64,192,29544,1,0,0:0:0:0:
448,192,29632,1,0,0:0:0:0:
320,192,29720,1,0,0:0:0:0:
448,192,29808,1,0,0:0:0:0:
64,192,29897,1,0,0:0:0:0:
320,192,29985,1,0,0:0:0:0:
192,192,30073,1,0,0:0:0:0:
320,192,30161,1,0,0:0:0:0:
64,192,30249,1,0,0:0:0:0:
448,192,30338,1,0,0:0:0:0:
320,192,30426,1,0,0:0:0:0:
448,192,30514,1,0,0:0:0:0:
64,192,30602,1,0,0:0:0:0:
320,192,30691,1,0,0:0:0:0:
192,192,30779,1,0,0:0:0:0:
320,192,30867,1,0,0:0:0:0:
64,192,30955,1,0,0:0:0:0:
448,192,31044,1,0,0:0:0:0:
320,192,31132,1,0,0:0:0:0:
448,192,31220,1,0,0:0:0:0:
64,192,31308,1,0,0:0:0:0:
320,192,31397,1,0,0:0:0:0:
192,192,31485,1,0,0:0:0:0:
448,192,31573,1,0,0:0:0:0:
64,192,31661,1,0,0:0:0:0:
448,192,32014,1,0,0:0:0:0:
64,192,32102,1,0,0:0:0:0:
320,192,32191,1,0,0:0:0:0:
192,192,32279,1,0,0:0:0:0:
448,192,32367,1,0,0:0:0:0:
320,192,32455,1,0,0:0:0:0:
64,192,32544,1,0,0:0:0:0:
320,192,32632,1,0,0:0:0:0:
192,192,32720,1,0,0:0:0:0:
64,192,32808,1,0,0:0:0:0:
320,192,32897,1,0,0:0:0:0:
448,192,32985,1,0,0:0:0:0:
320,192,33073,1,0,0:0:0:0:
64,192,33161,1,0,0:0:0:0:
320,192,33249,1,0,0:0:0:0:
448,192,33338,1,0,0:0:0:0:
64,192,33426,1,0,0:0:0:0:
320,192,33514,1,0,0:0:0:0:
192,192,33602,1,0,0:0:0:0:
448,192,33691,1,0,0:0:0:0:
64,192,33779,1,0,0:0:0:0:
320,192,33867,1,0,0:0:0:0:
192,192,33955,1,0,0:0:0:0:
320,192,34044,1,0,0:0:0:0:
64,192,34132,1,0,0:0:0:0:
192,192,34220,1,0,0:0:0:0:
320,192,34308,1,0,0:0:0:0:
448,192,34397,1,0,0:0:0:0:
320,192,34485,1,0,0:0:0:0:
64,192,34661,1,0,0:0:0:0:
64,192,35014,1,0,0:0:0:0:
320,192,35102,1,0,0:0:0:0:
192,192,35191,1,0,0:0:0:0:
448,192,35279,1,0,0:0:0:0:
192,192,35367,1,0,0:0:0:0:
320,192,35455,1,0,0:0:0:0:
64,192,35544,1,0,0:0:0:0:
320,192,35632,1,0,0:0:0:0:
192,192,35720,1,0,0:0:0:0:
448,192,35808,1,0,0:0:0:0:
192,192,35897,1,0,0:0:0:0:
64,192,36073,1,0,0:0:0:0:
448,192,36249,1,0,0:0:0:0:
320,192,36426,1,0,0:0:0:0:
448,192,36779,1,0,0:0:0:0:
320,192,36867,1,0,0:0:0:0:
192,192,36955,1,0,0:0:0:0:
64,192,37044,1,0,0:0:0:0:
320,192,37132,1,0,0:0:0:0:
192,192,37220,1,0,0:0:0:0:
64,192,37308,1,0,0:0:0:0:
320,192,37485,1,0,0:0:0:0:
64,192,37838,1,0,0:0:0:0:
320,192,37926,1,0,0:0:0:0:
192,192,38014,1,0,0:0:0:0:
320,192,38102,1,0,0:0:0:0:
64,192,38191,1,0,0:0:0:0:
448,192,38279,1,0,0:0:0:0:
192,192,38367,1,0,0:0:0:0:
320,192,38455,1,0,0:0:0:0:
192,192,38544,1,0,0:0:0:0:
320,192,38632,1,0,0:0:0:0:
448,192,38720,1,0,0:0:0:0:
64,192,39073,1,0,0:0:0:0:
448,192,39161,1,0,0:0:0:0:
192,192,39249,1,0,0:0:0:0:
320,192,39338,1,0,0:0:0:0:
64,192,39426,1,0,0:0:0:0:
320,192,39514,1,0,0:0:0:0:
192,192,39602,1,0,0:0:0:0:
448,192,39691,1,0,0:0:0:0:
320,192,39779,1,0,0:0:0:0:
192,192,39867,1,0,0:0:0:0:
64,192,39955,1,0,0:0:0:0:
320,192,40044,1,0,0:0:0:0:
448,192,40132,1,0,0:0:0:0:
64,192,40132,1,0,0:0:0:0:
320,192,40308,1,0,0:0:0:0:
64,192,40308,1,0,0:0:0:0:
192,192,40485,1,0,0:0:0:0:
448,192,40661,1,0,0:0:0:0:
320,192,40749,1,0,0:0:0:0:
448,192,40838,1,0,0:0:0:0:
64,192,40838,1,0,0:0:0:0:
192,192,40926,1,0,0:0:0:0:
64,192,41014,1,0,0:0:0:0:
320,192,41014,1,0,0:0:0:0:
448,192,41102,1,0,0:0:0:0:
192,192,41191,1,0,0:0:0:0:
320,192,41279,1,0,0:0:0:0:
64,192,41367,1,0,0:0:0:0:
320,192,41455,1,0,0:0:0:0:
192,192,41544,1,0,0:0:0:0:
448,192,41544,1,0,0:0:0:0:
448,192,41720,1,0,0:0:0:0:
64,192,41720,1,0,0:0:0:0:
320,192,41897,1,0,0:0:0:0:
192,192,42073,1,0,0:0:0:0:
320,192,42249,1,0,0:0:0:0:
448,192,42249,1,0,0:0:0:0:
448,192,42426,1,0,0:0:0:0:
64,192,42426,1,0,0:0:0:0:
192,192,42514,1,0,0:0:0:0:
320,192,42602,1,0,0:0:0:0:
192,192,42691,1,0,0:0:0:0:
320,192,42779,1,0,0:0:0:0:
448,192,42867,1,0,0:0:0:0:
64,192,42955,1,0,0:0:0:0:
192,192,42955,1,0,0:0:0:0:
64,192,43132,1,0,0:0:0:0:
320,192,43132,1,0,0:0:0:0:
192,192,43308,1,0,0:0:0:0:
320,192,43485,1,0,0:0:0:0:
192,192,43573,1,0,0:0:0:0:
64,192,43661,1,0,0:0:0:0:
448,192,43661,1,0,0:0:0:0:
192,192,43749,1,0,0:0:0:0:
64,192,43838,1,0,0:0:0:0:
320,192,43838,1,0,0:0:0:0:
448,192,43926,1,0,0:0:0:0:
192,192,44014,1,0,0:0:0:0:
320,192,44102,1,0,0:0:0:0:
192,192,44191,1,0,0:0:0:0:
320,192,44279,1,0,0:0:0:0:
192,192,44367,1,0,0:0:0:0:
448,192,44367,1,0,0:0:0:0:
448,192,44544,1,0,0:0:0:0:
192,192,44720,1,0,0:0:0:0:
64,192,44808,1,0,0:0:0:0:
320,192,44897,1,0,0:0:0:0:
192,192,44985,1,0,0:0:0:0:
320,192,45073,1,0,0:0:0:0:
448,192,45073,1,0,0:0:0:0:
64,192,45161,1,0,0:0:0:0:
192,192,45249,1,0,0:0:0:0:
448,192,45249,1,0,0:0:0:0:
320,192,45338,1,0,0:0:0:0:
192,192,45426,1,0,0:0:0:0:
320,192,45514,1,0,0:0:0:0:
192,192,45602,1,0,0:0:0:0:
64,192,45691,1,0,0:0:0:0:
320,192,45955,1,0,0:0:0:0:
64,192,46308,1,0,0:0:0:0:
320,192,46397,1,0,0:0:0:0:
192,192,46485,1,0,0:0:0:0:
448,192,46573,1,0,0:0:0:0:
64,192,46661,1,0,0:0:0:0:
320,192,46749,1,0,0:0:0:0:
192,192,46838,1,0,0:0:0:0:
448,192,46926,1,0,0:0:0:0:
320,192,47014,1,0,0:0:0:0:
192,192,47102,1,0,0:0:0:0:
64,192,47191,1,0,0:0:0:0:
192,192,47544,1,0,0:0:0:0:
448,192,47632,1,0,0:0:0:0:
64,192,47720,1,0,0:0:0:0:
320,192,47808,1,0,0:0:0:0:
192,192,47897,1,0,0:0:0:0:
448,192,47985,1,0,0:0:0:0:
192,192,48073,1,0,0:0:0:0:
320,192,48161,1,0,0:0:0:0:
64,192,48249,1,0,0:0:0:0:
448,192,48338,1,0,0:0:0:0:
192,192,48426,1,0,0:0:0:0:
320,192,48514,1,0,0:0:0:0:
64,192,48602,1,0,0:0:0:0:
320,192,48691,1,0,0:0:0:0:
192,192,48779,1,0,0:0:0:0:
320,192,48867,1,0,0:0:0:0:
64,192,48955,1,0,0:0:0:0:
320,192,49044,1,0,0:0:0:0:
192,192,49132,1,0,0:0:0:0:
320,192,49220,1,0,0:0:0:0:
448,192,49308,1,0,0:0:0:0:
192,192,49397,1,0,0:0:0:0:
320,192,49485,1,0,0:0:0:0:
192,192,49573,1,0,0:0:0:0:
448,192,49661,1,0,0:0:0:0:
192,192,49749,1,0,0:0:0:0:
320,192,49838,1,0,0:0:0:0:
192,192,49926,1,0,0:0:0:0:
320,192,50014,1,0,0:0:0:0:
64,192,50102,1,0,0:0:0:0:
320,192,50191,1,0,0:0:0:0:
192,192,50279,1,0,0:0:0:0:
448,192,50367,1,0,0:0:0:0:
192,192,50455,1,0,0:0:0:0:
320,192,50544,1,0,0:0:0:0:
64,192,50632,1,0,0:0:0:0:
320,192,50720,1,0,0:0:0:0:
448,192,50808,1,0,0:0:0:0:
192,192,50897,1,0,0:0:0:0:
448,192,50985,1,0,0:0:0:0:
64,192,51073,1,0,0:0:0:0:
320,192,51161,1,0,0:0:0:0:
192,192,51249,1,0,0:0:0:0:
320,192,51338,1,0,0:0:0:0:
64,192,51426,1,0,0:0:0:0:
192,192,51426,1,0,0:0:0:0:
320,192,51514,1,0,0:0:0:0:
448,192,51514,1,0,0:0:0:0:
64,192,51602,1,0,0:0:0:0:
192,192,51602,1,0,0:0:0:0:
320,192,51691,1,0,0:0:0:0:
448,192,51691,1,0,0:0:0:0:
64,192,51779,1,0,0:0:0:0:
192,192,51779,1,0,0:0:0:0:
192,192,51955,1,0,0:0:0:0:
320,192,51955,1,0,0:0:0:0:
64,192,52485,1,0,0:0:0:0:
448,192,52485,1,0,0:0:0:0:
192,192,52661,1,0,0:0:0:0:
320,192,52749,1,0,0:0:0:0:
64,192,52838,1,0,0:0:0:0:
192,192,52838,1,0,0:0:0:0:
320,192,52926,1,0,0:0:0:0:
448,192,52926,1,0,0:0:0:0:
64,192,53014,1,0,0:0:0:0:
192,192,53014,1,0,0:0:0:0:
320,192,53102,1,0,0:0:0:0:
448,192,53102,1,0,0:0:0:0:
64,192,53191,1,0,0:0:0:0:
192,192,53191,1,0,0:0:0:0:
64,192,53367,1,0,0:0:0:0:
448,192,53367,1,0,0:0:0:0:
64,192,53897,1,0,0:0:0:0:
448,192,53897,1,0,0:0:0:0:
192,192,54073,1,0,0:0:0:0:
320,192,54161,1,0,0:0:0:0:
64,192,54249,1,0,0:0:0:0:
192,192,54249,1,0,0:0:0:0:
320,192,54338,1,0,0:0:0:0:
448,192,54338,1,0,0:0:0:0:
64,192,54426,1,0,0:0:0:0:
192,192,54426,1,0,0:0:0:0:
320,192,54514,1,0,0:0:0:0:
448,192,54514,1,0,0:0:0:0:
64,192,54602,1,0,0:0:0:0:
192,192,54602,1,0,0:0:0:0:
192,192,54779,1,0,0:0:0:0:
320,192,54779,1,0,0:0:0:0:
64,192,55308,1,0,0:0:0:0:
448,192,55308,1,0,0:0:0:0:
192,192,55485,1,0,0:0:0:0:
320,192,55485,1,0,0:0:0:0:
64,192,55573,1,0,0:0:0:0:
448,192,55573,1,0,0:0:0:0:
192,192,55661,1,0,0:0:0:0:
320,192,55661,1,0,0:0:0:0:
64,192,56014,1,0,0:0:0:0:
448,192,56014,1,0,0:0:0:0:
192,192,56191,1,0,0:0:0:0:
320,192,56279,1,0,0:0:0:0:
448,192,56367,1,0,0:0:0:0:
64,192,56367,1,0,0:0:0:0:
320,192,56544,1,0,0:0:0:0:
192,192,56632,1,0,0:0:0:0:
64,192,56720,1,0,0:0:0:0:
448,192,56720,1,0,0:0:0:0:
320,192,56897,1,0,0:0:0:0:
192,192,56985,1,0,0:0:0:0:
64,192,57073,1,0,0:0:0:0:
448,192,57073,1,0,0:0:0:0:
320,192,57161,1,0,0:0:0:0:
192,192,57161,1,0,0:0:0:0:
64,192,57249,1,0,0:0:0:0:
448,192,57249,1,0,0:0:0:0:
192,192,57338,1,0,0:0:0:0:
320,192,57338,1,0,0:0:0:0:
64,192,57426,1,0,0:0:0:0:
448,192,57426,1,0,0:0:0:0:
192,192,57602,1,0,0:0:0:0:
320,192,57602,1,0,0:0:0:0:
64,192,58132,1,0,0:0:0:0:
448,192,58132,1,0,0:0:0:0:
320,192,58308,1,0,0:0:0:0:
192,192,58397,1,0,0:0:0:0:
64,192,58485,1,0,0:0:0:0:
448,192,58485,1,0,0:0:0:0:
320,192,58573,1,0,0:0:0:0:
192,192,58573,1,0,0:0:0:0:
448,192,58661,1,0,0:0:0:0:
64,192,58661,1,0,0:0:0:0:
320,192,58749,1,0,0:0:0:0:
192,192,58749,1,0,0:0:0:0:
448,192,58838,1,0,0:0:0:0:
64,192,58838,1,0,0:0:0:0:
192,192,59014,1,0,0:0:0:0:
320,192,59014,1,0,0:0:0:0:
64,192,59544,1,0,0:0:0:0:
448,192,59544,1,0,0:0:0:0:
192,192,59720,1,0,0:0:0:0:
320,192,59808,1,0,0:0:0:0:
192,192,59897,1,0,0:0:0:0:
448,192,59897,1,0,0:0:0:0:
320,192,59985,1,0,0:0:0:0:
64,192,59985,1,0,0:0:0:0:
192,192,60073,1,0,0:0:0:0:
448,192,60073,1,0,0:0:0:0:
320,192,60161,1,0,0:0:0:0:
64,192,60161,1,0,0:0:0:0:
192,192,60249,1,0,0:0:0:0:
448,192,60249,1,0,0:0:0:0:
64,192,60426,1,0,0:0:0:0:
448,192,60426,1,0,0:0:0:0:
192,192,60955,1,0,0:0:0:0:
320,192,60955,1,0,0:0:0:0:
64,192,61132,1,0,0:0:0:0:
448,192,61220,1,0,0:0:0:0:
192,192,61308,1,0,0:0:0:0:
320,192,61308,1,0,0:0:0:0:
448,192,61661,1,0,0:0:0:0:
64,192,61661,1,0,0:0:0:0:
320,192,61838,1,0,0:0:0:0:
192,192,61926,1,0,0:0:0:0:
320,192,62014,1,0,0:0:0:0:
64,192,62014,1,0,0:0:0:0:
192,192,62191,1,0,0:0:0:0:
320,192,62279,1,0,0:0:0:0:
192,192,62367,1,0,0:0:0:0:
448,192,62367,1,0,0:0:0:0:
320,192,62544,1,0,0:0:0:0:
192,192,62632,1,0,0:0:0:0:
448,192,62720,1,0,0:0:0:0:
192,192,62897,1,0,0:0:0:0:
320,192,62985,1,0,0:0:0:0:
64,192,63073,1,0,0:0:0:0:
448,192,63161,1,0,0:0:0:0:
192,192,63249,1,0,0:0:0:0:
320,192,63338,1,0,0:0:0:0:
192,192,63426,1,0,0:0:0:0:
448,192,63426,1,0,0:0:0:0:
64,192,63514,1,0,0:0:0:0:
448,192,63602,1,0,0:0:0:0:
320,192,63691,1,0,0:0:0:0:
448,192,63779,1,0,0:0:0:0:
64,192,63779,1,0,0:0:0:0:
320,192,63867,1,0,0:0:0:0:
192,192,63955,1,0,0:0:0:0:
320,192,64044,1,0,0:0:0:0:
192,192,64132,1,0,0:0:0:0:
320,192,64308,1,0,0:0:0:0:
192,192,64397,1,0,0:0:0:0:
448,192,64485,1,0,0:0:0:0:
64,192,64573,1,0,0:0:0:0:
320,192,64661,1,0,0:0:0:0:
192,192,64749,1,0,0:0:0:0:
320,192,64838,1,0,0:0:0:0:
448,192,64838,1,0,0:0:0:0:
64,192,64926,1,0,0:0:0:0:
320,192,65014,1,0,0:0:0:0:
192,192,65102,1,0,0:0:0:0:
320,192,65191,1,0,0:0:0:0:
448,192,65191,1,0,0:0:0:0:
192,192,65279,1,0,0:0:0:0:
448,192,65367,1,0,0:0:0:0:
64,192,65455,1,0,0:0:0:0:
192,192,65544,1,0,0:0:0:0:
320,192,65720,1,0,0:0:0:0:
192,192,65808,1,0,0:0:0:0:
448,192,65897,1,0,0:0:0:0:
64,192,65985,1,0,0:0:0:0:
320,192,66073,1,0,0:0:0:0:
192,192,66161,1,0,0:0:0:0:
64,192,66249,1,0,0:0:0:0:
448,192,66249,1,0,0:0:0:0:
320,192,66338,1,0,0:0:0:0:
64,192,66426,1,0,0:0:0:0:
192,192,66514,1,0,0:0:0:0:
64,192,66602,1,0,0:0:0:0:
320,192,66602,1,0,0:0:0:0:
448,192,66691,1,0,0:0:0:0:
192,192,66779,1,0,0:0:0:0:
448,192,66867,1,0,0:0:0:0:
64,192,66955,1,0,0:0:0:0:
320,192,67132,1,0,0:0:0:0:
192,192,67220,1,0,0:0:0:0:
320,192,67308,1,0,0:0:0:0:
64,192,67397,1,0,0:0:0:0:
320,192,67485,1,0,0:0:0:0:
192,192,67573,1,0,0:0:0:0:
192,192,67661,1,0,0:0:0:0:
448,192,67661,1,0,0:0:0:0:
64,192,67749,1,0,0:0:0:0:
192,192,67838,1,0,0:0:0:0:
64,192,67926,1,0,0:0:0:0:
320,192,68014,1,0,0:0:0:0:
448,192,68014,1,0,0:0:0:0:
64,192,68102,1,0,0:0:0:0:
192,192,68191,1,0,0:0:0:0:
320,192,68191,1,0,0:0:0:0:
64,192,68279,1,0,0:0:0:0:
192,192,68367,1,0,0:0:0:0:
448,192,68544,1,0,0:0:0:0:
192,192,68632,1,0,0:0:0:0:
320,192,68720,1,0,0:0:0:0:
64,192,68808,1,0,0:0:0:0:
320,192,68897,1,0,0:0:0:0:
64,192,68985,1,0,0:0:0:0:
192,192,69073,1,0,0:0:0:0:
448,192,69073,1,0,0:0:0:0:
64,192,69161,1,0,0:0:0:0:
320,192,69249,1,0,0:0:0:0:
64,192,69338,1,0,0:0:0:0:
320,192,69426,1,0,0:0:0:0:
448,192,69426,1,0,0:0:0:0:
192,192,69514,1,0,0:0:0:0:
320,192,69602,1,0,0:0:0:0:
64,192,69691,1,0,0:0:0:0:
192,192,69779,1,0,0:0:0:0:
448,192,69955,1,0,0:0:0:0:
192,192,70044,1,0,0:0:0:0:
320,192,70132,1,0,0:0:0:0:
64,192,70220,1,0,0:0:0:0:
448,192,70308,1,0,0:0:0:0:
320,192,70397,1,0,0:0:0:0:
192,192,70485,1,0,0:0:0:0:
320,192,70485,1,0,0:0:0:0:
64,192,70573,1,0,0:0:0:0:
320,192,70661,1,0,0:0:0:0:
448,192,70749,1,0,0:0:0:0:
64,192,70838,1,0,0:0:0:0:
192,192,70838,1,0,0:0:0:0:
320,192,70926,1,0,0:0:0:0:
192,192,71014,1,0,0:0:0:0:
448,192,71102,1,0,0:0:0:0:
320,192,71191,1,0,0:0:0:0:
64,192,71279,1,0,0:0:0:0:
192,192,71367,1,0,0:0:0:0:
64,192,71455,1,0,0:0:0:0:
448,192,71544,1,0,0:0:0:0:
64,192,71632,1,0,0:0:0:0:
192,192,71720,1,0,0:0:0:0:
64,192,71808,1,0,0:0:0:0:
320,192,71897,1,0,0:0:0:0:
64,192,71985,1,0,0:0:0:0:
192,192,72073,1,0,0:0:0:0:
64,192,72161,1,0,0:0:0:0:
448,192,72249,1,0,0:0:0:0:
64,192,72338,1,0,0:0:0:0:
192,192,72426,1,0,0:0:0:0:
64,192,72514,1,0,0:0:0:0:
64,192,72602,1,0,0:0:0:0:
192,192,72602,1,0,0:0:0:0:
448,192,72691,1,0,0:0:0:0:
320,192,72779,1,0,0:0:0:0:
64,192,72779,1,0,0:0:0:0:
448,192,72867,1,0,0:0:0:0:
64,192,72955,1,0,0:0:0:0:
192,192,72955,1,0,0:0:0:0:
448,192,73044,1,0,0:0:0:0:
320,192,73132,1,0,0:0:0:0:
64,192,73132,1,0,0:0:0:0:
448,192,73220,1,0,0:0:0:0:
64,192,73308,1,0,0:0:0:0:
192,192,73308,1,0,0:0:0:0:
448,192,73397,1,0,0:0:0:0:
320,192,73397,1,0,0:0:0:0:
64,192,73485,1,0,0:0:0:0:
192,192,73485,1,0,0:0:0:0:
320,192,73573,1,0,0:0:0:0:
448,192,73573,1,0,0:0:0:0:
64,192,73661,1,0,0:0:0:0:
192,192,73661,1,0,0:0:0:0:
320,192,73749,1,0,0:0:0:0:
448,192,73749,1,0,0:0:0:0:
64,192,73838,1,0,0:0:0:0:
192,192,73838,1,0,0:0:0:0:
320,192,73926,1,0,0:0:0:0:
448,192,73926,1,0,0:0:0:0:
192,192,74014,1,0,0:0:0:0:
448,192,74367,1,0,0:0:0:0:
192,192,74367,1,0,0:0:0:0:
64,192,74455,1,0,0:0:0:0:
320,192,74544,1,0,0:0:0:0:
64,192,74632,1,0,0:0:0:0:
448,192,74720,1,0,0:0:0:0:
64,192,74808,1,0,0:0:0:0:
320,192,74897,1,0,0:0:0:0:
64,192,74985,1,0,0:0:0:0:
320,192,75073,1,0,0:0:0:0:
448,192,75073,1,0,0:0:0:0:
64,192,75161,1,0,0:0:0:0:
192,192,75249,1,0,0:0:0:0:
64,192,75338,1,0,0:0:0:0:
448,192,75426,1,0,0:0:0:0:
64,192,75514,1,0,0:0:0:0:
320,192,75602,1,0,0:0:0:0:
64,192,75691,1,0,0:0:0:0:
192,192,75779,1,0,0:0:0:0:
448,192,75779,1,0,0:0:0:0:
64,192,75867,1,0,0:0:0:0:
448,192,75955,1,0,0:0:0:0:
64,192,76044,1,0,0:0:0:0:
192,192,76044,1,0,0:0:0:0:
320,192,76132,1,0,0:0:0:0:
64,192,76220,1,0,0:0:0:0:
192,192,76220,1,0,0:0:0:0:
320,192,76308,1,0,0:0:0:0:
64,192,76397,1,0,0:0:0:0:
192,192,76485,1,0,0:0:0:0:
448,192,76485,1,0,0:0:0:0:
64,192,76573,1,0,0:0:0:0:
192,192,76661,1,0,0:0:0:0:
64,192,76749,1,0,0:0:0:0:
448,192,76838,1,0,0:0:0:0:
64,192,77191,1,0,0:0:0:0:
320,192,77191,1,0,0:0:0:0:
448,192,77279,1,0,0:0:0:0:
192,192,77367,1,0,0:0:0:0:
448,192,77455,1,0,0:0:0:0:
64,192,77544,1,0,0:0:0:0:
448,192,77632,1,0,0:0:0:0:
192,192,77720,1,0,0:0:0:0:
448,192,77808,1,0,0:0:0:0:
64,192,77897,1,0,0:0:0:0:
320,192,77897,1,0,0:0:0:0:
448,192,77985,1,0,0:0:0:0:
192,192,78073,1,0,0:0:0:0:
320,192,78161,1,0,0:0:0:0:
448,192,78161,1,0,0:0:0:0:
192,192,78249,1,0,0:0:0:0:
320,192,78338,1,0,0:0:0:0:
448,192,78338,1,0,0:0:0:0:
64,192,78426,1,0,0:0:0:0:
448,192,78514,1,0,0:0:0:0:
192,192,78602,1,0,0:0:0:0:
320,192,78602,1,0,0:0:0:0:
448,192,78691,1,0,0:0:0:0:
192,192,78779,1,0,0:0:0:0:
320,192,78867,1,0,0:0:0:0:
448,192,78867,1,0,0:0:0:0:
64,192,78955,1,0,0:0:0:0:
320,192,79044,1,0,0:0:0:0:
448,192,79044,1,0,0:0:0:0:
64,192,79132,1,0,0:0:0:0:
448,192,79220,1,0,0:0:0:0:
192,192,79308,1,0,0:0:0:0:
320,192,79308,1,0,0:0:0:0:
448,192,79397,1,0,0:0:0:0:
320,192,79485,1,0,0:0:0:0:
448,192,79573,1,0,0:0:0:0:
320,192,79661,1,0,0:0:0:0:
64,192,79661,1,0,0:0:0:0:
192,192,80014,1,0,0:0:0:0:
320,192,80014,1,0,0:0:0:0:
320,192,80191,1,0,0:0:0:0:
448,192,80191,1,0,0:0:0:0:
64,192,80367,1,0,0:0:0:0:
192,192,80367,1,0,0:0:0:0:
192,192,80544,1,0,0:0:0:0:
320,192,80544,1,0,0:0:0:0:
192,192,80720,1,0,0:0:0:0:
448,192,80897,1,0,0:0:0:0:
64,192,81073,1,0,0:0:0:0:
192,192,81161,1,0,0:0:0:0:
448,192,81249,1,0,0:0:0:0:
320,192,81338,1,0,0:0:0:0:
64,192,81426,1,0,0:0:0:0:
192,192,81514,1,0,0:0:0:0:
448,192,81602,1,0,0:0:0:0:
320,192,81691,1,0,0:0:0:0:
64,192,81779,1,0,0:0:0:0:
192,192,81867,1,0,0:0:0:0:
448,192,81955,1,0,0:0:0:0:
320,192,82044,1,0,0:0:0:0:
64,192,82132,1,0,0:0:0:0:
192,192,82220,1,0,0:0:0:0:
448,192,82308,1,0,0:0:0:0:
320,192,82397,1,0,0:0:0:0:
64,192,82485,1,0,0:0:0:0:
448,192,82485,1,0,0:0:0:0:
192,192,83191,1,0,0:0:0:0:
320,192,83191,1,0,0:0:0:0:
320,192,83720,1,0,0:0:0:0:
192,192,83808,1,0,0:0:0:0:
320,192,83897,1,0,0:0:0:0:
192,192,83897,1,0,0:0:0:0:
64,192,83897,1,0,0:0:0:0:
448,192,83897,1,0,0:0:0:0:
