osu file format v5

[General]
AudioFilename: White Illusion.mp3
AudioLeadIn: 3000
PreviewTime: -1
Countdown: 1
SampleSet: Soft
StackLeniency: 0.7
Mode: 0
LetterboxInBreaks: 1

[Metadata]
Title:White Illusion
Artist:Revo
Creator:v2b
Version:Normal
Source:Sound Horizon
Tags:Pico

[Difficulty]
HPDrainRate:3
CircleSize:4
OverallDifficulty:3
SliderMultiplier:1.4
SliderTickRate:2

[Events]
//Background and Video events
0,0,"gg.jpeg"
//Break Periods
//Storyboard Layer 0 (Background)
//Storyboard Layer 1 (Failing)
//Storyboard Layer 2 (Passing)
//Storyboard Layer 3 (Foreground)
//Storyboard Sound Samples
//Background Colour Transformations
3,100,0,0,0

[TimingPoints]
247,410.958904109589,4,2,0,100,1
72981,-100,4,1,0,100,0

[Colours]
Combo1 : 208,208,208
Combo2 : 30,30,30

[HitObjects]
257,98,247,2,0,L|257:193,15,70,0|0|0|0|0|0|0|0|0|0|0|0|0|0|0|2
257,221,3534,6,0,L|257:316,15,70,0|0|0|0|0|0|0|0|0|0|0|0|0|0|0|4
310,292,6822,6,0,L|402:213,1,105,0|0
451,171,7438,1,0
413,133,7644,2,0,L|324:57,1,105,0|0
252,66,8260,1,0
118,68,8671,2,2,L|80:16,2,35
108,120,9082,1,0
95,171,9288,1,0
82,223,9493,1,0
67,274,9699,1,4
147,345,10110,6,0,L|256:345,1,105,0|0
332,345,10726,1,0
385,343,10931,2,0,L|447:255,2,105,0|0|0
383,235,11959,2,0,L|308:178,1,70,0|0
375,168,12370,2,0,L|436:121,1,70,0|0
386,94,12781,2,0,L|328:48,1,70,0|4
224,55,13397,5,0
224,135,13705,2,0,L|347:136,1,105,0|0
382,137,14219,1,0
384,217,14527,2,0,L|256:218,1,105,0|0
345,301,15247,2,2,L|345:340,2,35
291,300,15657,1,0
237,301,15863,1,0
183,301,16068,1,0
129,300,16274,1,4
68,211,16685,6,0,L|173:149,1,105,0|0
238,160,17301,1,0
291,161,17507,2,0,L|399:220,1,105,0|0
438,153,18123,1,0
402,51,18534,2,0,L|346:100,1,70,0|0
295,98,18945,2,0,L|241:46,1,70,0|0
190,50,19356,1,4
136,49,19562,1,4
86,144,19973,5,0
89,304,20589,1,0
171,166,21205,1,0
171,273,21616,1,0
324,225,22233,1,2
443,167,23260,5,0
301,91,23877,1,0
302,251,24493,1,0
228,172,24904,1,0
120,172,25315,1,2
120,172,25520,1,2
75,53,26548,5,0
180,173,27164,1,0
284,295,27781,1,0
359,219,28192,1,0
253,98,28808,1,2
255,366,29836,5,0
256,205,30452,1,0
228,46,31068,1,2
281,46,31274,1,2
255,150,31685,6,0,L|255:226,6,70,0|0|0|0|0|0|4
255,96,33123,5,0
102,45,33740,2,0,L|101:261,1,210,0|0
208,256,34767,2,0,L|209:43,1,210,0|2
319,290,36411,6,0,L|428:94,2,210,0|0|0
236,221,38055,2,0,L|162:348,1,140,0|2
165,342,38671,1,2
255,89,39699,5,0
255,249,40315,2,0,L|128:75,1,210,0|0
51,151,41342,2,0,L|175:331,1,210,0|2
438,320,42986,5,0
368,174,43603,1,0
299,28,44219,1,2
299,28,44425,1,2
255,194,46274,5,0
255,193,47096,1,0
254,44,47918,2,0,L|254:165,2,105
254,43,48740,1,2
255,190,49562,5,0
255,191,50383,1,0
254,340,51205,2,0,L|254:219,2,105
254,341,52027,1,2
102,189,52849,5,0
316,192,53671,1,0
142,66,54493,2,0,L|223:148,2,105
141,66,55315,1,2
148,280,56137,5,0
362,284,56959,1,0
256,192,57370,12,4,59014
410,67,59425,6,0,L|301:68,2,105
411,67,60246,1,4
414,227,60863,2,2,L|464:227,2,35
333,225,61377,1,0
252,226,61685,1,0
198,227,61890,2,0,L|198:376,1,140,0|4
305,369,62712,5,0
385,368,63020,1,0
465,368,63329,1,0
462,260,63740,1,0
462,260,63945,1,0
462,260,64151,1,0
426,220,64356,2,0,L|347:122,1,105
305,78,64973,1,2
305,78,65178,1,2
305,78,65383,1,4
144,75,66000,6,0,L|232:176,1,105
156,211,66616,2,0,L|96:260,1,70,0|4
256,212,67438,2,2,L|306:212,2,35
257,292,67952,1,0
337,293,68260,2,0,L|423:293,1,70
408,185,68877,1,4
406,77,69288,6,0,L|275:77,1,105
220,77,69904,2,0,L|132:77,1,70
141,184,70520,2,2,L|225:185,2,70,2|2|2
256,192,71342,12,4,72575
256,197,73192,5,0
256,197,73294,1,0
256,197,73397,1,4
