osu file format v12

[General]
AudioFilename: Bravely Default Flying Fairy Land of Light and Shadow -w-.mp3
AudioLeadIn: 0
PreviewTime: -1
Countdown: 0
SampleSet: Normal
StackLeniency: 0.7
Mode: 0
LetterboxInBreaks: 1
WidescreenStoryboard: 0

[Editor]
DistanceSpacing: 1.2
BeatDivisor: 4
GridSize: 8

[Metadata]
Title:Land of Light and Shadow
TitleUnicode:Land of Light and Shadow
Artist:Revo
ArtistUnicode:Revo
Creator:snlrocks
Version:Hard
Source:Bravely Default: Flying Fairy
Tags:game Bravely Default Flying Fairy Revo
BeatmapID:379432
BeatmapSetID:154534

[Difficulty]
HPDrainRate:5
CircleSize:4
OverallDifficulty:6
ApproachRate:7
SliderMultiplier:2
SliderTickRate:2

[Events]
//Background and Video events
0,0,"rsz_12bravely-default.jpg",0,0
//Break Periods
//Storyboard Layer 0 (Background)
//Storyboard Layer 1 (Fail)
//Storyboard Layer 2 (Pass)
//Storyboard Layer 3 (Foreground)
//Storyboard Sound Samples
//Background Colour Transformations
3,100,163,162,255

[TimingPoints]
2647.28947368421,526.315789473684,4,1,0,100,1,0
36331,-100,4,1,0,100,0,1
46857,-100,4,1,0,100,0,0
48963,-100,4,2,0,50,0,0

[HitObjects]
74,118,2647,2,0,P|98:86|154:62,1,100
152,64,3173,1,8,0:0:0:0:
152,183,3436,1,8,0:0:0:0:
194,140,3568,1,8,0:0:0:0:
236,182,3699,2,0,P|212:214|156:238,1,100
160,240,4226,1,8,0:0:0:0:
244,324,4489,1,0,0:0:0:0:
184,324,4620,1,0,0:0:0:0:
141,281,4752,6,8,B|120:226|63:264|65:166,1,100
56,160,5278,1,8,0:0:0:0:
141,74,5542,2,0,L|197:18,1,50,8|0,0:0|0:0,0:0:0:0:
218,81,5805,2,0,L|266:153,1,50,8|0,0:0|0:0,0:0:0:0:
203,165,6068,1,0,0:0:0:0:
287,249,6331,1,4,0:0:0:0:
287,129,6594,2,0,P|355:86|403:86,1,100,8|4,0:0|0:0,0:0:0:0:
409,109,7120,5,0,0:0:0:0:
409,109,7384,1,0,0:0:0:0:
384,226,7647,2,8,L|336:308,1,50
316,226,7910,1,8,0:0:0:0:
231,141,8173,2,0,P|288:86|342:60,1,100
385,172,8699,1,8,0:0:0:0:
299,257,8963,6,8,P|242:312|188:338,1,100
104,322,9489,1,8,0:0:0:0:
51,214,9752,1,8,0:0:0:0:
34,155,9884,1,8,0:0:0:0:
61,101,10015,1,8,0:0:0:0:
145,185,10278,2,0,P|202:240|256:266,1,100,8|4,0:0|0:0,0:0:0:0:
219,130,10805,6,0,P|269:67|302:44,1,100,8|4,0:0|0:0,0:0:0:0:
368,140,11331,1,0,0:0:0:0:
413,251,11594,1,8,0:0:0:0:
300,208,11857,2,8,P|236:248|219:275,1,100
137,352,12384,1,0,0:0:0:0:
52,267,12647,1,8,0:0:0:0:
136,182,12910,5,0,0:0:0:0:
136,352,13173,2,0,P|228:318|284:222,1,200
401,235,13963,2,0,P|391:159|343:119,1,100,0|8,0:0|0:0,0:0:0:0:
293,227,14489,2,0,P|302:302|350:342,1,100,0|4,0:0|0:0,0:0:0:0:
315,199,15015,6,0,L|201:129,1,100,0|4,0:0|0:0,0:0:0:0:
144,231,15542,1,8,0:0:0:0:
59,315,15805,1,8,0:0:0:0:
59,195,16068,1,0,0:0:0:0:
101,152,16199,1,0,0:0:0:0:
58,109,16331,2,8,B|96:72|96:72|159:64,1,100
184,96,16857,1,0,0:0:0:0:
314,64,17121,5,4,0:0:0:0:
352,40,17252,1,4,0:0:0:0:
404,38,17384,1,4,0:0:0:0:
330,144,17647,5,4,0:0:0:0:
368,168,17778,1,4,0:0:0:0:
420,170,17910,1,4,0:0:0:0:
212,142,18173,5,4,0:0:0:0:
160,144,18305,1,4,0:0:0:0:
122,168,18436,1,4,0:0:0:0:
200,64,18699,5,4,0:0:0:0:
162,40,18830,1,4,0:0:0:0:
110,38,18962,1,4,0:0:0:0:
186,168,19489,6,0,P|151:218|106:244,2,100,8|0|8,0:0|0:0|0:0,0:0:0:0:
101,252,20278,1,8,0:0:0:0:
58,209,20410,1,8,0:0:0:0:
80,153,20542,1,8,0:0:0:0:
164,68,20805,2,0,P|200:129|224:144,1,100,0|4,0:0|0:0,0:0:0:0:
308,58,21331,1,0,0:0:0:0:
392,142,21594,6,0,B|346:142|363:215|301:199|300:199,2,100,4|8|0,0:0|0:0|0:0,0:0:0:0:
271,142,22384,1,0,0:0:0:0:
228,184,22515,1,0,0:0:0:0:
253,238,22647,1,4,0:0:0:0:
372,238,22910,2,0,L|417:271,2,50,4|0|4,0:0|0:0|0:0,0:0:0:0:
253,238,23436,6,0,P|192:281|121:296,1,100,8|4,0:0|0:0,0:0:0:0:
83,204,23963,1,0,0:0:0:0:
167,288,24226,1,0,0:0:0:0:
82,203,24489,2,8,P|79:168|103:137,2,50
201,203,25015,2,0,P|269:177|288:142,1,100,0|4,0:0|0:0,0:0:0:0:
197,71,25542,1,0,0:0:0:0:
282,157,25805,6,0,P|323:223|308:280,1,100,4|0,0:0|0:0,0:0:0:0:
280,284,26199,1,0,0:0:0:0:
219,284,26331,1,8,0:0:0:0:
148,187,26594,1,0,0:0:0:0:
91,156,26726,1,8,0:0:0:0:
91,215,26857,2,4,P|39:177|31:121,1,100
114,59,27384,1,4,0:0:0:0:
353,59,27910,6,4,B|328:106|434:80|362:180,1,100
468,226,28436,1,8,0:0:0:0:
348,226,28699,2,0,P|328:272|272:312,2,100,8|0|0,0:0|0:0|0:0,0:0:0:0:
227,226,29489,1,8,0:0:0:0:
142,310,29752,1,0,0:0:0:0:
142,190,30015,6,0,P|81:147|60:96,2,100,4|0|4,0:0|0:0|0:0,0:0:0:0:
227,104,30805,2,4,P|253:58|274:43,2,50
346,104,31331,2,4,P|368:144|400:152,2,50
262,188,31857,1,0,0:0:0:0:
262,188,32120,5,4,0:0:0:0:
176,273,32384,2,0,P|133:229|119:183,1,100,8|0,0:0|0:0,0:0:0:0:
120,73,32910,2,0,P|186:45|230:43,1,100,8|0,0:0|0:0,0:0:0:0:
333,42,33436,1,8,0:0:0:0:
417,126,33699,2,0,P|384:112|320:136,2,100,8|0|0,0:0|0:0|0:0,0:0:0:0:
331,211,34489,5,4,0:0:0:0:
373,253,34620,1,4,0:0:0:0:
348,308,34752,1,4,0:0:0:0:
228,308,35015,5,4,0:0:0:0:
173,333,35147,1,4,0:0:0:0:
118,308,35278,1,4,0:0:0:0:
203,222,35542,5,4,0:0:0:0:
230,169,35673,1,4,0:0:0:0:
281,138,35805,1,4,0:0:0:0:
262,331,36331,6,0,P|150:307|86:235,1,200,8|4,0:0|0:0,0:0:0:0:
96,249,37120,2,0,P|189:218|250:140,1,200,8|4,0:0|0:0,0:0:0:0:
250,140,37910,2,0,P|135:128|62:66,1,200,8|4,0:0|0:0,0:0:0:0:
108,197,38699,2,0,P|115:146|146:94,1,100,8|4,0:0|0:0,0:0:0:0:
222,188,39226,2,0,L|355:155,1,100,8|4,0:0|0:0,0:0:0:0:
319,283,39752,2,0,L|422:332,1,100,8|12,0:0|0:0,0:0:0:0:
409,208,40278,5,0,0:0:0:0:
431,152,40410,1,0,0:0:0:0:
431,91,40542,1,0,0:0:0:0:
311,91,40805,2,0,P|257:106|218:178,1,100
313,222,41331,2,4,B|328:288|264:320,1,100
196,225,41857,1,8,0:0:0:0:
196,344,42120,1,8,0:0:0:0:
75,344,42384,1,8,0:0:0:0:
75,224,42647,6,0,P|36:170|35:108,1,100,8|4,0:0|0:0,0:0:0:0:
136,152,43173,2,0,P|170:95|227:69,1,100,8|4,0:0|0:0,0:0:0:0:
292,222,43699,2,0,P|253:168|252:106,1,100,8|4,0:0|0:0,0:0:0:0:
343,304,44226,2,0,B|373:277|382:250|383:188,1,100,8|4,0:0|0:0,0:0:0:0:
256,192,44752,12,4,46857,0:0:0:0:
142,218,47120,5,8,0:0:0:0:
227,303,47384,2,8,P|296:304|336:280,1,100
433,337,47910,1,0,0:0:0:0:
433,217,48173,2,8,L|354:138,1,100
362,266,48699,1,0,0:0:0:0:
280,208,48963,6,8,P|230:246|181:272,1,100
146,245,49489,1,0,0:0:0:0:
61,160,49752,1,0,0:0:0:0:
103,117,49884,1,0,0:0:0:0:
145,159,50015,2,8,P|192:160|264:112,1,100
324,53,50542,1,0,0:0:0:0:
408,137,50805,1,0,0:0:0:0:
323,221,51068,2,8,B|330:317|436:230|406:315,2,150
189,221,52120,2,8,B|181:317|75:230|105:315,2,150
103,135,53173,6,8,P|56:91|57:39,1,100
172,58,53699,1,0,0:0:0:0:
292,58,53963,1,8,0:0:0:0:
292,58,54094,1,8,0:0:0:0:
291,58,54226,2,8,P|338:102|337:154,1,100
408,144,54620,2,0,P|405:201|377:240,1,100
425,278,55015,1,8,0:0:0:0:
305,278,55278,6,0,L|201:302,1,100,8|8,0:0|0:0,0:0:0:0:
87,300,55805,1,0,0:0:0:0:
171,215,56068,1,0,0:0:0:0:
86,130,56331,1,0,0:0:0:0:
170,45,56594,2,8,P|211:102|245:116,1,100
356,113,57120,1,8,0:0:0:0:
235,113,57384,6,0,P|264:163|237:228,1,100
258,203,57910,1,0,0:0:0:0:
138,203,58173,2,8,L|96:264,2,50
222,287,58699,1,0,0:0:0:0:
342,287,58963,2,8,P|392:242|404:195,1,100
402,92,59489,6,8,L|304:64,1,100
305,124,59884,2,8,L|201:153,1,100
166,193,60278,2,8,L|81:121,1,100
174,43,60805,1,0,0:0:0:0:
89,127,61068,2,0,P|64:176|64:224,1,100
148,304,61594,6,8,P|238:312|272:292,1,100
244,309,62120,1,0,0:0:0:0:
355,262,62384,1,0,0:0:0:0:
245,213,62647,2,8,P|180:212|140:173,1,100
110,150,63042,2,8,P|93:84|119:48,1,100
165,69,63436,2,8,P|203:125|250:122,1,100
350,127,63963,5,0,0:0:0:0:
430,182,64226,1,0,0:0:0:0:
456,284,64489,1,0,0:0:0:0:
336,284,64752,2,8,P|259:313|230:315,1,100
132,264,65278,1,0,0:0:0:0:
217,178,65542,6,8,P|276:195|337:149,1,100
416,144,66068,1,0,0:0:0:0:
352,64,66331,1,0,0:0:0:0:
248,48,66594,1,0,0:0:0:0:
248,167,66857,6,8,B|296:135|288:215|328:199,1,100
416,144,67384,1,0,0:0:0:0:
454,253,67647,1,0,0:0:0:0:
357,331,67910,1,0,0:0:0:0:
357,211,68173,6,8,P|289:172|256:171,1,100
184,85,68699,1,0,0:0:0:0:
98,170,68963,1,0,0:0:0:0:
98,289,69226,2,8,P|166:328|199:329,1,100
185,209,69752,1,0,0:0:0:0:
269,293,70015,5,0,0:0:0:0:
388,293,70278,1,0,0:0:0:0:
473,207,70542,2,8,L|394:129,1,100
281,136,71068,1,4,0:0:0:0:
