osu file format v9

[General]
AudioFilename: TSUGARU.mp3
AudioLeadIn: 0
PreviewTime: 34967
Countdown: 0
SampleSet: Normal
StackLeniency: 0.7
Mode: 0
LetterboxInBreaks: 0

[Editor]
DistanceSpacing: 0.8
BeatDivisor: 2
GridSize: 8

[Metadata]
Title:TSUGARU
Artist:RevenG vs DE-SIRE
Creator:Zelos
Version:Expert
Source:Dance Dance Revolution
Tags:Extreme animask Krisom

[Difficulty]
HPDrainRate:7
CircleSize:4
OverallDifficulty:7
ApproachRate:8
SliderMultiplier:2
SliderTickRate:1

[Events]
//Background and Video events
0,0,"TSUGARU-bg.png"
//Break Periods
//Storyboard Layer 0 (Background)
//Storyboard Layer 1 (Fail)
//Storyboard Layer 2 (Pass)
//Storyboard Layer 3 (Foreground)
//Storyboard Sound Samples
//Background Colour Transformations
3,100,163,162,255

[TimingPoints]
58,363.636363636364,4,1,0,100,1,0
30603,-100,4,1,0,0,0,0
34967,-100,4,1,0,100,0,1
52421,-100,4,1,0,100,0,0

[Colours]
Combo1 : 255,128,0
Combo2 : 255,0,0

[HitObjects]
16,160,7512,1,0
56,232,7694,1,0
128,272,7876,1,0
208,272,8058,1,0
280,232,8239,1,2
320,160,8421,1,2
80,152,8967,5,0
120,80,9148,1,0
192,40,9330,1,0
272,40,9512,1,0
344,80,9694,1,2
384,152,9876,1,2
232,336,10421,6,0,B|112:336,2,100
280,272,10967,1,0
328,336,11148,1,0
408,336,11330,2,0,B|488:272,1,100
488,192,11694,2,0,B|376:104,1,100
352,72,12057,1,0
296,16,12239,1,0
240,72,12421,1,0
176,120,12603,2,2,B|97:181,2,100
336,120,13330,6,0,B|448:120,2,100
288,184,13876,1,0
240,120,14057,1,2
192,184,14239,1,2
368,352,14785,6,0,B|480:352,2,100
320,288,15330,1,0
272,352,15512,1,2
224,288,15694,1,2
32,144,16239,6,0,B|104:56,1,100
168,32,16603,1,0
240,64,16785,2,0,B|240:184,1,100
320,160,17148,2,0,B|320:56,1,100
400,64,17512,1,0
472,104,17694,1,0
472,184,17876,1,0
472,264,18057,1,0
400,304,18239,2,0,B|304:352,1,100,0|2
232,352,18603,1,2
152,352,18785,1,2
152,192,19148,5,0
96,136,19330,1,0
152,80,19512,1,0
208,136,19694,2,0,B|312:136,1,100,0|2
368,80,20057,1,2
368,320,20603,5,0
424,263,20785,1,0
367,208,20967,1,0
312,264,21148,2,0,B|208:264,1,100,0|2
152,320,21512,1,2
328,160,22057,6,0,B|472:96,1,100
416,40,22421,1,0
336,24,22603,1,0
256,40,22785,1,0
176,24,22967,1,0
96,40,23148,1,0
152,104,23330,2,0,B|224:192,1,100
256,112,23694,1,0
256,112,23876,1,0
296,181,24057,2,0,B|360:104,3,100,0|2|2|2
496,192,24967,6,0,B|496:304,1,100
424,256,25330,1,0
352,224,25512,2,0,B|352:328,1,100,0|2
280,288,25876,1,2
280,48,26421,6,0,B|280:160,1,100
208,112,26785,1,0
136,80,26967,2,0,B|136:184,1,100,0|2
64,144,27330,1,2
288,232,27876,6,0,B|392:232,2,100
288,152,28421,2,0,B|368:72,1,100
440,80,28785,2,0,B|440:184,1,100
440,264,29148,1,0
376,312,29330,1,0
296,328,29512,1,0
216,312,29694,1,0
152,264,29876,1,0
152,184,30057,2,2,B|40:184,2,100
256,192,30603,12,0,34603
96,32,34967,6,0,B|24:104|128:168,1,133.333333333333,4|0
152,152,35330,2,0,B|224:224|120:288,1,133.333333333333,0|0
152,320,35694,2,0,B|224:392|288:288,1,133.333333333333,0|0
272,264,36057,2,0,B|352:192|408:296,1,133.333333333333,0|0
440,264,36421,2,0,B|512:192|408:128,1,133.333333333333,0|0
384,144,36785,2,0,B|312:64|248:176,1,133.333333333333
264,192,37148,2,2,B|192:271|127:159,1,133.333333333333
152,144,37512,2,2,B|224:64|288:176,1,133.333333333333
320,144,37876,5,0
368,48,38118,1,0
368,48,38239,1,0
416,144,38482,1,0
416,144,38603,1,0
368,240,38845,1,0
368,240,38967,1,0
264,240,39209,1,0
264,240,39330,1,0
168,192,39573,1,0
168,192,39694,1,0
72,240,39936,1,0
72,240,40058,1,2
168,280,40300,1,2
168,280,40421,1,2
264,336,40664,1,2
320,336,40785,6,0,B|456:272,1,133.333333333333
440,224,41148,2,0,B|304:152|304:152,1,133.333333333333
272,160,41512,2,0,B|88:160,1,133.333333333333
88,160,41876,2,0,B|16:24,1,133.333333333333
80,40,42239,2,0,B|216:40,1,133.333333333333
264,40,42603,2,0,B|320:176,1,133.333333333333
368,160,42967,2,2,B|424:296,1,133.333333333333,2|2
368,288,43330,2,2,B|192:288,1,133.333333333333
184,288,43694,5,0
96,224,43936,1,0
40,224,44058,1,0
40,120,44300,1,0
96,120,44421,1,0
192,168,44664,1,0
248,168,44785,1,0
344,120,45027,1,0
400,120,45148,1,0
440,224,45391,1,0
496,224,45512,1,0
496,328,45754,1,0
440,328,45876,1,2
352,272,46118,1,2
296,272,46239,1,2
256,176,46482,1,2
256,176,46603,6,0,B|168:288,1,133.333333333333
173,280,46967,1,2
96,208,47209,1,0
96,208,47330,2,0,B|200:104,1,133.333333333333
190,113,47694,1,2
256,32,47936,1,0
256,32,48058,2,0,B|400:32,1,133.333333333333
389,32,48421,1,2
464,112,48664,1,0
464,112,48785,2,0,B|464:288,1,133.333333333333
464,245,49148,1,2
256,192,49512,12,2,52058
32,192,52421,6,0,B|32:88,2,66.6666666666667
88,192,52785,1,2
128,160,52906,1,2
168,192,53027,1,2
208,160,53148,1,2
256,8,53512,1,4
480,192,53876,6,0,B|480:296,2,66.6666666666667
424,192,54240,1,2
384,224,54361,1,2
344,192,54482,1,2
304,224,54603,1,2
256,376,54967,1,4
284,220,55330,6,0,B|340:276,2,66.6666666666667
284,164,55694,2,0,B|364:164,2,66.6666666666667
228,164,56058,2,0,B|148:164,2,66.6666666666667
228,220,56421,2,0,B|172:276,2,66.6666666666667,0|0|0
280,224,56785,1,0
320,256,56906,1,0
368,280,57027,1,0
416,256,57148,1,2
456,224,57270,1,2
456,168,57391,1,2
456,112,57512,1,2
256,360,58239,6,0,B|392:360,2,100
256,280,58785,2,0,B|144:280,2,100
328,320,59330,1,0
400,280,59512,1,0
328,240,59694,2,2,B|256:144|336:40,1,200
168,56,60421,1,2
120,120,60603,1,0
72,56,60785,1,2
120,208,61148,6,0,B|120:336,2,100
200,208,61694,2,0,B|200:104,2,100
256,264,62239,1,0
312,208,62421,1,0
256,152,62603,2,2,B|312:56|424:32,1,200
416,192,63330,1,2
416,192,63512,1,0
416,192,63694,1,2
416,352,64058,6,0,B|520:352,2,100
368,288,64603,1,0
304,240,64785,1,0
240,288,64967,1,0
184,344,65148,2,0,B|64:344,2,100
144,272,65694,1,0
96,208,65876,1,0
144,144,66058,1,0
184,80,66239,2,2,B|304:80,3,100
224,144,66967,5,0
264,216,67148,1,0
304,144,67330,1,0
344,216,67512,1,0
384,144,67694,2,0,B|384:40,2,100
424,216,68239,1,0
424,216,68421,1,0
384,288,68603,2,0,B|304:352,1,100
224,352,68967,2,0,B|80:352,1,100,0|2
128,272,69330,2,2,B|40:160,1,100
64,112,69694,1,2
256,192,69876,12,0,70967
54,48,71330,5,4
457,335,71694,1,0
54,335,72058,1,0
457,48,72421,1,0
256,48,72664,2,0,B|256:136,1,66.6666666666667,0|2
256,336,73027,2,0,B|256:264,1,66.6666666666667,0|2
400,191,73391,2,0,B|312:192,1,66.6666666666667,0|2
112,191,73754,2,0,B|184:191,1,66.6666666666667,0|2
256,32,74239,5,0
416,192,74603,1,0
256,352,74967,1,0
96,191,75331,1,0
256,192,75694,6,2,B|352:128,1,100
256,192,76058,2,2,B|160:256,1,100
256,192,76421,2,2,B|352:256,1,100
256,192,76785,2,2,B|160:128,1,100
112,88,77148,5,4
400,296,77512,1,0
112,296,77876,1,0
400,88,78239,1,0
256,88,78482,1,0
256,88,78603,1,2
360,192,78845,1,0
360,192,78966,1,2
256,296,79209,1,0
256,296,79330,1,2
152,192,79572,1,0
152,192,79693,1,2
256,192,80058,12,2,81148
160,96,81512,6,0,B|264:40|360:104,2,200
256,312,82785,2,0,B|256:104,1,200
352,240,83512,1,2
160,240,83694,1,2
256,96,84058,1,4
256,96,84421,1,4
256,192,84603,12,2,89921
