osu file format v5

[General]
AudioFilename: RevenG - Sakura.mp3
AudioLeadIn: 0
PreviewTime: 12440
Countdown: 1
SampleSet: Normal
StackLeniency: 0.7
Mode: 0
LetterboxInBreaks: 1
EditorBookmarks: 12840,38440,48440,62740,74740,92740

[Metadata]
Title:Sakura
Artist:RevenG
Creator:Kharl
Version:Insane
Source:Beatmania
Tags:

[Difficulty]
HPDrainRate:6
CircleSize:6
OverallDifficulty:8
SliderMultiplier:1.6
SliderTickRate:2

[Events]
//Background and Video events
0,0,"SAKURA-bg.jpg"
//Break Periods
2,48650,61684
//Storyboard Layer 0 (Background)
//Storyboard Layer 1 (Failing)
//Storyboard Layer 2 (Passing)
//Storyboard Layer 3 (Foreground)
//Storyboard Sound Samples
//Background Colour Transformations
3,100,0,0,0

[TimingPoints]
50,400,4,1,1,80,1,0
62748,375,4,1,1,80,1,1
74748,-100,4,1,1,100,0,0
86748,-100,4,1,1,100,0,1
94810,-100,4,1,1,100,0,0

[Colours]
Combo1 : 236,0,236
Combo2 : 255,128,255
Combo3 : 183,0,183
Combo4 : 255,168,255 SpinnerApproachCircle :
158,23,162

[HitObjects]
16,88,12850,1,0
96,168,13050,1,0
176,88,13250,1,0
256,168,13450,1,0
328,88,13650,2,0,B|496:88,1,160,0|2
400,288,14450,5,0
320,216,14650,1,0
240,288,14850,1,0
160,216,15050,1,0
88,288,15250,1,0
320,336,16050,5,0
320,336,16250,1,0
408,264,16450,1,0
408,264,16650,1,0
408,152,16850,1,0
408,152,17050,1,0
320,72,17250,1,2
320,72,17450,1,0
208,72,17650,1,0
208,72,17850,1,0
120,144,18050,1,0
120,256,18250,1,0
208,328,18450,1,0
256,232,18650,1,2
232,192,18750,1,2
280,192,18850,1,2
192,240,19250,6,0,B|120:184,1,80
68,246,19650,2,0,B|140:182,1,80
128,112,20050,2,0,B|128:200,1,80
128,192,20350,1,0
128,192,20450,1,2
352,192,20850,6,0,B|280:136,1,80
352,192,21250,2,0,B|352:280,1,80
352,192,21650,2,0,B|424:136,1,80
352,192,21950,1,0
352,192,22050,1,2
416,256,22450,6,0,B|416:168,1,80
312,184,22850,2,0,B|312:88,1,80,2|0
200,112,23250,2,0,B|200:200,1,80
88,184,23650,2,0,B|88:272,1,80,4|0
192,264,24050,2,0,B|304:264,1,80
360,192,24450,2,2,B|418:253|360:344,1,160
256,336,25050,1,0
256,336,25150,1,0
256,336,25250,2,0,B|144:336,1,80
80,240,25650,5,0
112,128,25850,1,0
144,240,26050,1,2
56,176,26250,1,0
168,176,26450,1,0
280,136,26650,1,2
280,184,26750,1,2
280,232,26850,1,0
424,128,27250,5,0
392,240,27450,1,0
360,128,27650,1,2
448,192,27850,1,0
336,192,28050,1,0
232,136,28250,1,2
232,184,28350,1,2
232,232,28450,1,0
256,112,28850,5,0
128,144,29050,1,0
176,144,29150,1,0
152,184,29250,1,2
152,296,29450,1,0
176,256,29550,1,0
200,296,29650,1,0
320,296,29850,1,0
344,256,29950,1,0
368,296,30050,1,2
368,184,30250,1,0
392,144,30350,1,0
344,144,30450,1,0
240,216,30650,5,0
288,216,30750,1,0
264,176,30850,1,2
216,256,31050,1,0
320,256,31250,1,0
344,160,31450,1,2
264,96,31650,1,2
184,160,31850,1,2
144,56,32050,5,0
56,120,32250,1,0
144,184,32450,1,2
56,248,32650,1,0
144,312,32850,1,0
176,336,32950,1,0
216,352,33050,1,0
256,336,33150,1,0
288,304,33250,1,2
440,304,33650,5,0
352,240,33850,1,0
440,184,34050,1,2
352,128,34250,1,0
440,64,34450,1,0
408,40,34550,1,0
368,24,34650,1,0
328,40,34750,1,0
288,64,34850,1,2
136,64,35250,5,0
40,120,35450,1,0
40,168,35550,1,0
40,216,35650,1,0
136,272,35850,1,0
248,272,36050,1,0
160,216,36250,1,0
160,168,36350,1,0
160,120,36450,1,0
248,64,36650,1,0
368,64,36850,5,0
464,112,37050,1,0
464,160,37150,1,0
464,208,37250,1,0
368,272,37450,1,0
288,208,37650,1,0
288,112,37850,1,2
288,208,38050,1,2
288,112,38250,1,2
192,48,38450,6,0,B|96:80|56:160|56:240,1,240
168,224,39250,1,0
112,312,39450,1,0
216,312,39650,1,0
272,224,39850,1,2
328,312,40050,2,0,B|408:280|432:152|432:88,1,240
328,104,40850,1,0
384,24,41050,1,0
280,24,41250,1,0
224,104,41450,1,2
168,192,41650,5,0
216,280,41850,1,0
272,192,42050,1,0
168,192,42250,1,2
216,280,42450,1,0
272,192,42650,1,0
160,184,42887,1,0
216,296,43100,1,2
288,176,43350,1,0
144,168,43600,1,0
216,312,43867,1,0
312,152,44177,1,2
256,192,44550,12,0,48450
48,152,62748,5,0
80,56,62935,1,2
104,152,63123,1,0
136,56,63310,1,2
160,152,63498,1,0
176,104,63591,1,0
192,56,63685,1,2
216,152,63873,1,0
248,56,64060,1,2
272,152,64248,5,0
304,56,64435,1,2
328,152,64623,1,0
360,56,64810,1,2
384,152,64998,1,0
400,104,65091,1,0
416,56,65185,1,2
368,200,65466,1,0
352,248,65560,1,2
336,296,65654,1,0
464,200,65935,5,2
440,296,66123,1,0
408,200,66310,1,2
384,296,66498,1,0
368,248,66591,1,0
352,200,66685,1,2
328,296,66873,1,0
296,200,67060,1,2
272,296,67248,1,0
240,200,67435,5,2
216,296,67623,1,0
184,200,67810,1,2
160,296,67998,1,0
128,200,68185,1,2
144,248,68279,1,0
48,248,68466,1,0
72,200,68560,1,2
48,48,68935,5,2
104,128,69123,2,0,B|104:32,1,80,0|2
160,128,69498,1,0
184,88,69591,1,0
216,48,69685,2,0,B|216:136,1,80,2|0
272,48,70060,1,2
376,48,70248,6,0,B|480:48,1,80,0|2
376,104,70623,1,0
456,152,70810,2,0,B|360:152,1,80,2|0
416,184,71091,1,0
456,208,71185,1,2
376,264,71373,2,0,B|472:264,1,80,0|2
416,296,71654,1,2
376,320,71748,1,2
264,320,71935,5,2
208,240,72123,2,0,B|208:328,1,80,0|2
152,240,72498,1,0
128,280,72591,1,0
96,320,72685,2,0,B|96:232,1,80,2|0
96,240,73060,1,2
96,120,73248,5,0
144,120,73341,1,0
96,120,73435,1,0
360,120,73623,5,0
408,120,73716,1,0
360,120,73810,1,0
256,144,73998,5,0
232,184,74091,1,0
208,224,74185,1,0
232,264,74279,1,0
256,304,74373,1,2
280,264,74466,1,2
304,224,74560,1,2
256,224,74654,1,2
280,184,74748,1,0
464,224,75310,5,0
352,224,75498,2,0,B|352:120|432:72,1,160,0|2
464,176,76060,1,0
464,272,76248,1,0
416,272,76341,1,0
368,272,76435,1,0
160,272,76810,1,0
264,272,76998,1,0
360,272,77185,1,2
360,272,77373,1,2
264,272,77560,1,0
80,216,77748,5,0
120,192,77841,1,0
160,168,77935,1,0
128,72,78123,1,2
160,168,78310,1,0
176,72,78498,1,0
208,168,78685,1,0
224,72,78873,1,2
256,168,79060,1,0
336,168,79248,6,0,B|224:168,1,80
256,168,79623,1,2
200,80,79810,1,0
152,168,79998,1,0
208,256,80185,1,2
312,256,80373,1,2
256,168,80560,1,2
256,272,80748,6,0,B|304:328|376:328|440:264|456:208,1,240
472,120,81498,1,0
449,224,81685,1,0
376,160,81873,1,2
448,224,82060,1,0
416,136,82248,5,0
376,112,82341,1,0
336,128,82435,1,0
328,176,82529,1,0
360,208,82623,1,0
280,280,82810,1,0
360,208,82998,1,0
256,184,83185,1,2
256,184,83373,1,2
168,240,83560,1,0
120,336,83748,5,0
72,336,83841,1,0
24,336,83935,1,0
72,232,84123,2,0,B|152:184,1,80,2|0
64,144,84498,1,0
136,80,84685,1,0
216,144,84873,2,0,B|280:208,1,80,2|0
368,200,85248,1,0
456,152,85435,1,0
368,104,85623,2,0,B|288:152,1,80,2|0
216,192,85998,1,0
144,264,86185,5,2
360,264,86373,1,2
256,80,86560,1,2
160,160,86748,5,0
160,160,86841,1,0
160,160,86935,1,0
64,160,87123,1,0
160,160,87310,1,2
216,72,87498,1,0
160,160,87685,1,2
216,248,87873,1,0
160,160,88060,1,2
360,160,88248,5,0
360,160,88341,1,0
360,160,88435,1,0
456,160,88623,1,0
360,160,88810,1,2
296,72,88998,1,0
360,160,89185,1,2
296,248,89373,1,0
360,160,89560,1,2
232,104,89748,6,0,B|192:144,1,40
176,168,89935,1,0
280,104,90123,2,2,B|320:144,1,40
336,168,90310,1,2
280,280,90498,6,0,B|320:240,1,40
336,216,90685,1,0
232,280,90873,2,2,B|192:240,1,40
176,216,91060,1,2
56,40,91248,5,0
56,352,91529,1,0
320,192,91810,1,4
456,192,91998,5,0
200,352,92279,5,0
456,192,92560,5,4
256,192,92748,12,0,94716
256,192,94904,5,0
256,192,95091,1,0
256,192,95326,1,0
256,192,95560,1,0
256,192,95841,1,0
256,192,96216,1,4
