osu file format v13

[General]
AudioFilename: reveng sakura.mp3
AudioLeadIn: 2000
PreviewTime: 19252
Countdown: 0
SampleSet: Normal
StackLeniency: 0.4
Mode: 0
LetterboxInBreaks: 0
WidescreenStoryboard: 0

[Editor]
DistanceSpacing: 1
BeatDivisor: 4
GridSize: 4
TimelineZoom: 1

[Metadata]
Title:Sakura
TitleUnicode:桜
Artist:Reven-G
ArtistUnicode:Reven-G
Creator:yeahyeahyeahhh
Version:Normal
Source:beatmania IIDX
Tags:8th style DDR Extreme la cataline natteke dance revolution
BeatmapID:183190
BeatmapSetID:61473

[Difficulty]
HPDrainRate:3
CircleSize:4
OverallDifficulty:3
ApproachRate:6
SliderMultiplier:1.2
SliderTickRate:1

[Events]
//Background and Video events
0,0,"bg.jpg",0,0
Video,-53,"sakuralol.avi"
//Break Periods
2,13055,15005
2,44755,47405
//Storyboard Layer 0 (Background)
//Storyboard Layer 1 (Fail)
//Storyboard Layer 2 (Pass)
//Storyboard Layer 3 (Foreground)
//Storyboard Sound Samples
//Background Colour Transformations
3,100,163,162,255

[TimingPoints]
55,400,4,1,1,50,1,0
12952,-100,4,2,0,70,0,0
15852,-100,4,1,1,40,0,0
26802,-100,4,2,1,40,0,0
26902,-100,4,1,1,40,0,0
28402,-100,4,2,1,40,0,0
28502,-100,4,1,1,40,0,0
31352,-100,4,2,1,40,0,0
31952,-100,4,1,1,40,0,0
42455,428.571428571429,4,1,1,50,1,0
42666,461.538461538462,4,1,1,50,1,0
43358,521.739130434783,4,1,1,50,1,0
43879,600,4,1,1,50,1,0
44179,750,4,1,1,50,1,0
44554,975.609756097561,4,1,1,50,1,0
48455,400,4,1,1,50,1,0
61255,375,4,1,1,50,1,0
75785,-100,4,2,1,40,0,0
75972,-100,4,1,1,40,0,0
77097,-100,4,2,1,40,0,0
77472,-100,4,1,1,40,0,0
78082,-100,4,2,1,40,0,0
78175,-100,4,1,1,40,0,0
78832,-100,4,2,1,40,0,0
78925,-100,4,1,1,40,0,0
79582,-100,4,2,1,40,0,0
79675,-100,4,1,1,40,0,0
80144,-100,4,2,1,40,0,0
80660,-100,4,1,1,40,0,0
81785,-100,4,2,1,40,0,0
81972,-100,4,1,1,40,0,0
83097,-100,4,2,1,40,0,0
83472,-100,4,1,1,40,0,0
84035,-100,4,2,1,40,0,0
84222,-100,4,1,1,40,0,0
84784,-100,4,2,1,40,0,0
84971,-100,4,1,1,40,0,0
85533,-100,4,2,1,40,0,0
85720,-100,4,1,1,40,0,0
86095,-100,4,2,1,40,0,0
86657,-100,4,1,1,40,0,0
92755,400,4,1,1,20,1,0
93155,444.444444444444,4,1,1,20,1,0
93599,480,4,1,1,20,1,0
94079,545.454545454546,4,1,1,20,1,0
94351,666.666666666667,4,1,1,20,1,0
94517,750,4,1,1,20,1,0
94704,800,4,1,1,20,1,0
95104,857.142857142857,4,1,1,20,1,0
95318,1000,4,1,1,20,1,0
95568,1200,4,1,1,20,1,0
95868,1500,4,1,1,20,1,0

[Colours]
Combo1 : 255,185,255
Combo2 : 255,0,255

[HitObjects]
40,352,55,6,0,B|92:348|112:288,1,90,6|0,0:0|0:0,0:0:0:0:
60,96,855,2,0,B|48:136|72:172,1,60,0|8,0:0|0:0,0:0:0:0:
144,168,1255,2,0,B|144:204|100:224,2,60,0|8|0,0:0|0:0|0:0,0:0:0:0:
256,108,1955,1,0,0:0:0:0:
452,96,2455,6,0,B|464:136|440:172,1,60,0|8,0:0|0:0,0:0:0:0:
368,168,2855,2,0,B|368:204|412:224,2,60,0|8|0,0:0|0:0|0:0,0:0:0:0:
256,108,3555,1,0,0:0:0:0:
180,312,4055,6,0,B|188:348|220:368,1,60,0|8,0:0|0:0,0:0:0:0:
331,312,4455,2,0,B|324:348|300:361,1,60,0|8,0:0|0:0,0:0:0:0:
256,268,4855,2,0,B|256:152,1,90,0|0,0:0|0:0,0:0:0:0:
108,28,5655,2,0,B|64:16|20:60|40:108,1,120,0|0,0:0|0:0,0:0:0:0:
128,240,6455,5,4,0:0:0:0:
184,128,6755,2,0,B|220:96|292:96|328:128,1,150,8|0,0:0|0:0,0:0:0:0:
332,208,7455,2,0,B|368:208|392:184,1,60,8|0,0:0|0:0,0:0:0:0:
412,108,7855,1,8,0:0:0:0:
464,172,8055,2,0,B|504:208|492:264,1,90,0|8,0:0|0:0,0:0:0:0:
188,124,8855,5,0,0:0:0:0:
180,208,9055,2,0,B|144:208|120:184,1,60,8|0,0:0|0:0,0:0:0:0:
100,108,9455,1,8,0:0:0:0:
48,172,9655,2,0,B|8:208|20:264,1,90,0|8,0:0|0:0,0:0:0:0:
208,348,10455,5,0,0:0:0:0:
256,280,10655,2,0,B|256:212,2,60,8|0|8,0:0|0:0|0:0,0:0:0:0:
304,348,11255,2,0,B|352:328|352:272,1,90,6|6,0:0|0:0,0:0:0:0:
380,156,11855,2,0,B|400:108|452:104,2,90,6|0|8,0:0|0:0|0:0,0:0:0:0:
416,232,12655,1,8,0:0:0:0:
496,252,12855,1,6,0:0:0:0:
216,248,16055,6,0,B|224:320|164:352,2,120
96,132,17255,1,10,0:0:0:0:
248,56,17655,2,0,B|240:128|300:160,2,120
416,68,18855,1,10,0:0:0:0:
436,236,19255,6,0,B|493:220,2,60,4|0|8,0:0|0:0|0:0,0:0:0:0:
268,240,20055,2,0,B|204:232,2,60,0|0|0,0:0|0:0|0:0,0:0:0:0:
240,72,20855,2,0,B|297:87,2,60,0|0|8,0:0|0:0|0:0,0:0:0:0:
72,68,21655,2,0,B|8:76,2,60,0|8|0,0:0|0:0|0:0,0:0:0:0:
64,236,22455,6,0,B|128:256|136:324,1,120,0|8,0:0|0:0,0:0:0:0:
284,240,23255,2,0,B|220:256|212:336,1,120,0|8,0:0|0:0,0:0:0:0:
180,160,24055,1,0,0:0:0:0:
340,104,24455,2,0,B|368:36,2,60,8|8|0,0:0|0:0|0:0,0:0:0:0:
480,200,25255,1,8,0:0:0:0:
416,356,25655,6,0,B|372:312|376:244,1,120,4|8,0:0|0:0,0:0:0:0:
440,92,26455,2,0,B|416:148,2,60,0|8|8,0:0|0:0|0:0,0:0:0:0:
288,164,27255,6,0,B|244:120|176:124,1,120,0|8,0:0|0:0,0:0:0:0:
24,188,28055,2,0,B|80:164,2,60,0|8|8,0:0|0:0|0:0,0:0:0:0:
148,300,28855,5,0,0:0:0:0:
148,300,29255,1,10,0:0:0:0:
316,276,29655,1,0,0:0:0:0:
316,276,30055,1,10,0:0:0:0:
476,324,30455,2,0,B|508:268|488:208,1,120,0|10,0:0|0:0,0:0:0:0:
320,192,31255,2,0,B|224:196|180:80|244:20,1,240,0|6,0:0|0:0,0:0:0:0:
404,64,32455,5,8,0:0:0:0:
480,216,32855,2,0,B|412:228|416:304,1,120,0|2,0:0|0:0,0:0:0:0:
256,252,33655,1,0,0:0:0:0:
96,302,34055,2,0,B|100:228|32:216,1,120,8|0,0:0|0:0,0:0:0:0:
108,64,34855,1,2,0:0:0:0:
163,222,35255,6,0,B|178:143|330:143|353:219,2,240,6|6|6,0:0|0:0|0:0,0:0:0:0:
256,80,37255,1,6,0:0:0:0:
424,56,37655,1,6,0:0:0:0:
480,216,38055,1,6,0:0:0:0:
328,292,38455,6,0,B|184:260|88:360,1,240,4|0,0:0|0:0,0:0:0:0:
88,44,40055,2,0,B|120:188|20:284,1,240,0|0,0:0|0:0,0:0:0:0:
256,192,41655,12,4,44555,0:0:0:0:
456,72,48455,6,0,B|392:192|248:144,2,240,4|0|0,0:0|0:0|0:0,0:0:0:0:
288,48,50455,6,0,B|224:20|176:68,1,120,0|2,0:0|0:0,0:0:0:0:
72,196,51255,1,0,0:0:0:0:
184,320,51655,6,0,B|224:180|100:112,2,240,0|0|0,0:0|0:0|0:0,0:0:0:0:
308,208,53655,1,0,0:0:0:0:
476,188,54055,2,0,B|444:244|468:304,1,120,0|0,0:0|0:0,0:0:0:0:
300,328,54855,5,2,0:0:0:0:
188,204,55255,1,0,0:0:0:0:
28,252,55655,2,0,B|51:311|119:319,1,120,0|0,0:0|0:0,0:0:0:0:
76,156,56455,5,2,0:0:0:0:
192,32,56855,1,0,0:0:0:0:
316,148,57255,2,0,B|352:204|320:264,1,120,0|0,0:0|0:0,0:0:0:0:
436,144,58055,6,0,B|416:208|464:264,2,120,2|0|2,0:0|0:0|0:0,0:0:0:0:
320,32,59255,1,0,0:0:0:0:
196,148,59655,6,0,B|160:204|192:264,1,120,2|6,0:0|0:0,0:0:0:0:
76,144,60455,2,0,B|84:180|72:216,3,60,2|0|2|0,0:0|0:0|0:0|0:0,0:0:0:0:
424,328,62755,6,0,B|380:280|312:300,2,120,4|0|0,0:0|0:0|0:0,0:0:0:0:
484,268,63692,1,8,0:0:0:0:
412,224,63880,1,0,0:0:0:0:
296,100,64255,6,0,B|319:163|267:207,2,120,0|0|0,0:0|0:0|0:0,0:0:0:0:
368,56,65192,1,8,0:0:0:0:
384,140,65380,1,0,0:0:0:0:
216,144,65755,5,0,0:0:0:0:
52,112,66130,1,0,0:0:0:0:
96,272,66505,2,0,B|84:332,2,60,0|8|0,0:0|0:0|0:0,0:0:0:0:
140,108,67255,6,0,B|168:48|244:64,1,120,0|0,0:0|0:0,0:0:0:0:
408,60,68005,2,0,B|380:120|304:104,1,120,0|0,0:0|0:0,0:0:0:0:
252,264,68755,5,6,0:0:0:0:
400,344,69130,1,0,0:0:0:0:
504,212,69505,2,0,B|460:164|393:186,1,120,0|0,0:0|0:0,0:0:0:0:
252,264,70255,5,0,0:0:0:0:
112,344,70630,1,0,0:0:0:0:
8,212,71005,2,0,B|52:164|118:186,1,120,0|0,0:0|0:0,0:0:0:0:
256,192,71755,12,4,74755,0:0:0:0:
40,348,75505,5,0,0:0:0:0:
168,240,75880,1,8,0:0:0:0:
332,276,76255,2,0,B|452:204|396:68,1,240,0|0,0:0|0:0,0:0:0:0:
240,12,77380,1,8,0:0:0:0:
116,124,77755,6,0,B|176:88|232:120,1,120,6|8,0:0|0:0,0:0:0:0:
228,288,78505,2,0,B|168:324|112:292,1,120,6|8,0:0|0:0,0:0:0:0:
252,200,79255,1,6,0:0:0:0:
404,276,79630,2,0,B|452:328,2,60,8|0|6,0:0|0:0|0:0,0:0:0:0:
252,200,80380,1,8,0:0:0:0:
396,112,80755,6,0,B|436:56,2,60,0|0|0,0:0|0:0|0:0,0:0:0:0:
252,200,81505,2,0,B|180:216|148:160,1,120,0|8,0:0|0:0,0:0:0:0:
40,328,82255,2,0,B|128:256|268:300,1,240,0|0,0:0|0:0,0:0:0:0:
404,200,83380,1,8,0:0:0:0:
292,76,83755,6,0,B|256:132|288:192,1,120,6|8,0:0|0:0,0:0:0:0:
132,124,84505,2,0,B|168:180|132:240,1,120,6|8,0:0|0:0,0:0:0:0:
264,344,85255,2,0,B|320:308|380:340,2,120,6|8|6,0:0|0:0|0:0,0:0:0:0:
184,324,86192,1,8,0:0:0:0:
240,260,86380,1,8,0:0:0:0:
64,184,86755,6,0,B|28:128|64:68,1,120,6|0,0:0|0:0,0:0:0:0:
220,16,87505,2,0,B|237:41|229:73,2,60,0|8|0,0:0|0:0|0:0,0:0:0:0:
264,180,88255,6,0,B|304:224|384:216,1,120,0|0,0:0|0:0,0:0:0:0:
480,348,89005,2,0,B|497:322|489:290,2,60,0|8|0,0:0|0:0|0:0,0:0:0:0:
320,292,89755,6,0,B|248:292|220:360,1,120,4|0,0:0|0:0,0:0:0:0:
92,208,90505,2,0,B|164:208|192:276,1,120,0|0,0:0|0:0,0:0:0:0:
344,204,91255,6,0,B|456:172,2,90,4|0|0,0:0|0:0|0:0,0:0:0:0:
284,144,92005,2,0,B|376:120,2,90,4|0|0,0:0|0:0|0:0,0:0:0:0:
256,192,92755,12,2,96243,0:0:0:0:
