osu file format v13

[General]
AudioFilename: reveng sakura.mp3
AudioLeadIn: 2000
PreviewTime: 19252
Countdown: 0
SampleSet: Normal
StackLeniency: 0.4
Mode: 0
LetterboxInBreaks: 0
WidescreenStoryboard: 0

[Editor]
DistanceSpacing: 1
BeatDivisor: 4
GridSize: 4
TimelineZoom: 3.199999

[Metadata]
Title:Sakura
TitleUnicode:桜
Artist:Reven-G
ArtistUnicode:Reven-G
Creator:yeahyeahyeahhh
Version:Hyper
Source:beatmania IIDX
Tags:8th style DDR Extreme la cataline natteke dance revolution
BeatmapID:183189
BeatmapSetID:61473

[Difficulty]
HPDrainRate:6
CircleSize:4
OverallDifficulty:6
ApproachRate:8
SliderMultiplier:1.6
SliderTickRate:1

[Events]
//Background and Video events
0,0,"bg.jpg",0,0
Video,-53,"sakuralol.avi"
//Break Periods
2,13055,15305
2,44754,47705
2,61255,62005
//Storyboard Layer 0 (Background)
//Storyboard Layer 1 (Fail)
//Storyboard Layer 2 (Pass)
//Storyboard Layer 3 (Foreground)
//Storyboard Sound Samples
//Background Colour Transformations
3,100,163,162,255

[TimingPoints]
55,400,4,1,1,50,1,0
12952,-100,4,2,0,70,0,0
15852,-100,4,1,1,40,0,0
26802,-100,4,2,1,40,0,0
26902,-100,4,1,1,40,0,0
28402,-100,4,2,1,40,0,0
28502,-100,4,1,1,40,0,0
31352,-100,4,2,1,40,0,0
31952,-100,4,1,1,40,0,0
42455,428.571428571429,4,1,1,50,1,0
42666,461.538461538462,4,1,1,50,1,0
43358,521.739130434783,4,1,1,50,1,0
43879,600,4,1,1,50,1,0
44179,750,4,1,1,50,1,0
44554,975.609756097561,4,1,1,50,1,0
48455,400,4,1,1,50,1,0
61255,375,4,1,1,50,1,0
75785,-100,4,2,1,40,0,0
75972,-100,4,1,1,40,0,0
77097,-100,4,2,1,40,0,0
77472,-100,4,1,1,40,0,0
78082,-100,4,2,1,40,0,0
78175,-100,4,1,1,40,0,0
78832,-100,4,2,1,40,0,0
78925,-100,4,1,1,40,0,0
79582,-100,4,2,1,40,0,0
79675,-100,4,1,1,40,0,0
80144,-100,4,2,1,40,0,0
80660,-100,4,1,1,40,0,0
81785,-100,4,2,1,40,0,0
81972,-100,4,1,1,40,0,0
83097,-100,4,2,1,40,0,0
83472,-100,4,1,1,40,0,0
84035,-100,4,2,1,40,0,0
84222,-100,4,1,1,40,0,0
84784,-100,4,2,1,40,0,0
84971,-100,4,1,1,40,0,0
85533,-100,4,2,1,40,0,0
85720,-100,4,1,1,40,0,0
86095,-100,4,2,1,40,0,0
86657,-100,4,1,1,40,0,0
92755,400,4,1,1,20,1,0
93155,444.444444444444,4,1,1,20,1,0
93599,480,4,1,1,20,1,0
94079,545.454545454546,4,1,1,20,1,0
94351,666.666666666667,4,1,1,20,1,0
94517,750,4,1,1,20,1,0
94704,800,4,1,1,20,1,0
95104,857.142857142857,4,1,1,20,1,0
95318,1000,4,1,1,20,1,0
95568,1200,4,1,1,20,1,0
95868,1500,4,1,1,20,1,0

[Colours]
Combo1 : 255,185,255
Combo2 : 255,0,255

[HitObjects]
64,80,55,6,0,B|120:64|192:80,1,120,0|0,0:0|0:0,0:0:0:0:
304,248,855,2,0,B|346:258|394:234,1,80,8|8,0:0|0:0,0:0:0:0:
496,144,1255,2,0,B|454:135|406:158,1,80,0|0,0:0|0:0,0:0:0:0:
464,232,1655,2,0,B|444:299|492:363,1,120,0|0,0:0|0:0,0:0:0:0:
352,48,2455,2,0,B|363:96|339:128,1,80,8|8,0:0|0:0,0:0:0:0:
224,256,2855,2,0,B|213:208|237:176,1,80,0|0,0:0|0:0,0:0:0:0:
224,168,3155,1,0,0:0:0:0:
208,160,3255,6,0,B|138:172|90:140,1,120
0,240,4055,2,0,B|34:265|82:265,1,80,8|8,0:0|0:0,0:0:0:0:
224,253,4455,2,0,B|199:287|200:328,1,80,0|0,0:0|0:0,0:0:0:0:
344,256,4855,6,0,B|376:210|364:141,1,120
440,112,5555,1,0,0:0:0:0:
440,112,5655,2,0,B|440:88|448:72,3,40,0|0|8|0,0:0|0:0|0:0|0:0,0:0:0:0:
512,112,6055,2,0,B|512:157|496:189,1,80,0|8,0:0|0:0,0:0:0:0:
368,192,6455,6,0,B|323:191|291:207,1,80
291,207,6755,2,8,B|283:271|307:327,1,120
224,360,7255,2,0,B|224:328|208:312,2,40
128,360,7655,1,8,0:0:0:0:
128,360,7855,1,0,0:0:0:0:
56,312,8055,6,0,B|55:267|71:235,1,80
71,235,8355,2,8,B|135:227|191:251,1,120
192,128,8855,2,0,B|192:160|208:176,2,40,0|0|0,0:0|0:0|0:0,0:0:0:0:
272,128,9255,1,0,0:0:0:0:
200,48,9455,1,8,0:0:0:0:
280,56,9655,6,0,B|384:72,1,80
359,68,9955,2,8,B|343:140|383:207,1,120
432,256,10455,1,0,0:0:0:0:
432,256,10555,1,0,0:0:0:0:
432,256,10655,1,0,0:0:0:0:
336,272,10855,1,8,0:0:0:0:
240,304,11055,1,4,0:0:0:0:
136,304,11255,5,4,0:0:0:0:
200,120,11555,1,2,0:0:0:0:
8,160,11855,1,6,0:0:0:0:
312,128,12055,1,4,0:0:0:0:
328,139,12155,1,0,0:0:0:0:
346,145,12255,1,0,0:0:0:0:
365,146,12355,1,0,0:0:0:0:
384,145,12455,1,0,0:0:0:0:
403,140,12555,1,0,0:0:0:0:
420,129,12655,1,0,0:0:0:0:
433,114,12755,1,0,0:0:0:0:
441,95,12855,5,4,0:0:0:0:
392,336,16055,5,0,0:0:0:0:
408,264,16455,1,0,0:0:0:0:
336,288,16855,1,0,0:0:0:0:
424,184,17255,1,2,0:0:0:0:
72,256,17655,5,0,0:0:0:0:
168,240,18055,1,0,0:0:0:0:
112,168,18455,1,0,0:0:0:0:
200,152,18655,1,10,0:0:0:0:
200,152,18755,1,8,0:0:0:0:
200,152,18855,1,0,0:0:0:0:
128,328,19055,1,10,0:0:0:0:
24,176,19255,5,0,0:0:0:0:
168,240,19455,1,0,0:0:0:0:
272,216,19655,2,0,B|280:264|256:312,1,80,8|0,0:0|0:0,0:0:0:0:
336,184,20055,2,0,B|366:200|414:192,1,80
414,192,20355,1,8,0:0:0:0:
414,192,20455,1,0,0:0:0:0:
272,144,20655,1,8,0:0:0:0:
320,64,20855,6,0,B|288:48|241:55,1,80
144,128,21255,2,0,B|128:160|135:206,1,80,8|0,0:0|0:0,0:0:0:0:
64,296,21655,2,0,B|71:249|55:217,1,80
55,217,21955,1,8,0:0:0:0:
55,217,22055,1,0,0:0:0:0:
216,200,22255,1,8,0:0:0:0:
416,304,22455,6,0,B|368:312|336:272,1,80
288,232,22755,2,0,B|272:248|272:272,1,40,8|2,0:0|0:0,0:0:0:0:
464,208,23055,1,0,0:0:0:0:
384,144,23255,2,0,B|415:119|407:71,1,80
352,24,23555,2,0,B|336:40|336:64,1,40,8|2,0:0|0:0,0:0:0:0:
296,144,23855,1,0,0:0:0:0:
256,72,24055,6,0,B|216:96|152:88,1,80,0|0,0:0|0:0,0:0:0:0:
16,72,24455,2,0,B|95:84,1,80,2|0,0:0|0:0,0:0:0:0:
120,168,24855,2,0,B|96:208|112:256,1,80
108,245,25155,1,8,0:0:0:0:
108,245,25255,1,0,0:0:0:0:
208,216,25455,1,0,0:0:0:0:
248,344,25655,5,4,0:0:0:0:
248,344,25855,1,0,0:0:0:0:
344,272,26055,1,8,0:0:0:0:
344,272,26255,1,0,0:0:0:0:
368,152,26455,2,0,B|352:136|352:112,3,40,0|0|8|8,0:0|0:0|0:0|0:0,0:0:0:0:
432,96,26855,1,10,0:0:0:0:
104,288,27255,5,0,0:0:0:0:
104,288,27455,1,0,0:0:0:0:
215,217,27655,1,8,0:0:0:0:
215,217,27855,1,0,0:0:0:0:
104,160,28055,2,0,B|120:144|120:120,3,40,0|0|8|8,0:0|0:0|0:0|0:0,0:0:0:0:
128,48,28455,1,10,0:0:0:0:
104,288,28855,6,0,B|136:312|208:304,1,80,0|0,0:0|0:0,0:0:0:0:
352,280,29255,2,0,B|307:273|275:297,1,80,10|0,0:0|0:0,0:0:0:0:
216,216,29655,2,0,B|232:128,1,80
400,104,30055,2,0,B|416:192,1,80,10|0,0:0|0:0,0:0:0:0:
232,136,30455,2,0,B|320:120,1,80,0|0,0:0|0:0,0:0:0:0:
128,176,30855,2,0,B|40:160,1,80,10|0,0:0|0:0,0:0:0:0:
49,161,31255,1,4,0:0:0:0:
104,264,31455,1,8,0:0:0:0:
224,312,31655,1,8,0:0:0:0:
328,280,31855,1,8,0:0:0:0:
328,280,31955,1,0,0:0:0:0:
328,280,32055,6,0,B|376:248|440:256|472:312,2,160,4|8|0,0:0|0:0|0:0,0:0:0:0:
224,312,33055,1,8,0:0:0:0:
224,312,33155,1,0,0:0:0:0:
224,312,33255,2,0,B|192:280|207:232,1,80,2|8,0:0|0:0,0:0:0:0:
153,169,33655,2,0,B|247:127|287:215,2,160,0|8|0,0:0|0:0|0:0,0:0:0:0:
24,128,34655,1,8,0:0:0:0:
24,128,34755,1,0,0:0:0:0:
24,128,34855,2,0,B|23:166|63:194,1,80,2|8,0:0|0:0,0:0:0:0:
112,88,35255,6,4,B|176:96|224:40,1,120,4|8,0:0|0:0,0:0:0:0:
240,72,35655,2,0,B|272:104|336:88,1,80,2|8,0:0|0:0,0:0:0:0:
408,64,36055,2,0,B|448:120|416:176,1,120,6|8,0:0|0:0,0:0:0:0:
400,216,36455,2,0,B|368:184|304:200,1,80,2|8,0:0|0:0,0:0:0:0:
152,296,36855,2,0,B|184:264|248:280,1,80,4|2,0:0|0:0,0:0:0:0:
232,224,37155,2,0,B|264:288|352:280,1,120,8|8,0:0|0:0,0:0:0:0:
496,336,37655,2,0,B|464:304|400:320,1,80,0|2,0:0|0:0,0:0:0:0:
464,272,37955,2,0,B|448:208|496:152,1,120,8|8,0:0|0:0,0:0:0:0:
360,112,38455,6,0,B|440:144,1,80,4|0,0:0|0:0,0:0:0:0:
304,32,38855,2,0,B|396:24,1,80,8|0,0:0|0:0,0:0:0:0:
224,112,39255,2,0,B|304:144,1,80
168,40,39655,2,0,B|248:32,1,80,8|0,0:0|0:0,0:0:0:0:
128,128,40055,5,0,0:0:0:0:
72,184,40255,1,0,0:0:0:0:
96,264,40455,1,8,0:0:0:0:
168,272,40655,1,0,0:0:0:0:
216,208,40855,1,0,0:0:0:0:
288,216,41055,1,0,0:0:0:0:
312,296,41255,1,8,0:0:0:0:
256,352,41455,1,0,0:0:0:0:
368,232,41655,6,0,B|408:160,1,80,0|0,0:0|0:0,0:0:0:0:
336,32,42055,2,0,B|352:116,1,80,8|0,0:0|0:0,0:0:0:0:
236,184,42455,2,0,L|272:112,1,80
168,24,42896,2,0,B|192:108,1,80,8|0,0:0|0:0,0:0:0:0:
120,128,43358,2,0,B|96:120|64:136,3,40
16,192,43879,1,8,0:0:0:0:
16,288,44179,1,8,0:0:0:0:
80,344,44554,1,6,0:0:0:0:
48,152,48455,6,0,B|16:240|96:312,1,160,0|0,0:0|0:0,0:0:0:0:
224,160,49255,2,0,B|152:152|120:208,1,120
152,272,49655,2,0,B|200:296|192:352,1,80
280,96,50255,1,0,0:0:0:0:
280,96,50455,2,0,B|320:176|432:160,1,160
384,256,51055,2,8,B|416:240,2,26.6666666666667
384,256,51255,2,0,B|352:336,1,80,0|8,0:0|0:0,0:0:0:0:
280,296,51655,6,0,B|232:224|136:248,1,160,2|0,0:0|0:0,0:0:0:0:
40,168,52455,2,0,B|104:200|160:152,1,120
104,96,52855,2,0,B|144:64|200:88,1,80
179,80,53455,1,0,0:0:0:0:
328,128,53655,2,0,B|320:176|360:216,1,80
424,304,54055,2,0,B|440:264|424:216,1,80,0|8,0:0|0:0,0:0:0:0:
440,208,54321,2,8,B|453:174,2,26.6666666666667,8|8|0,0:0|0:0|0:0,0:0:0:0:
264,224,54655,1,8,0:0:0:0:
344,280,54855,6,0,B|272:344|184:288,2,160,2|0|0,0:0|0:0|0:0,0:0:0:0:
112,240,56055,1,2,0:0:0:0:
112,240,56155,1,0,0:0:0:0:
112,240,56255,1,0,0:0:0:0:
40,184,56455,2,0,B|24:144|48:96,1,80
132,42,56855,2,0,B|152:80|136:120,1,80,8|0,0:0|0:0,0:0:0:0:
240,72,57255,1,0,0:0:0:0:
328,88,57455,2,8,B|360:72,3,26.6666666666667,8|8|8|0,0:0|0:0|0:0|0:0,0:0:0:0:
264,160,57855,1,8,0:0:0:0:
352,184,58055,6,0,B|416:256,1,80,2|0,0:0|0:0,0:0:0:0:
312,272,58455,2,0,B|320:360,1,80,8|0,0:0|0:0,0:0:0:0:
224,288,58855,2,0,B|160:344,1,80,2|2,0:0|0:0,0:0:0:0:
152,240,59255,2,0,B|64:248,1,80,8|2,0:0|0:0,0:0:0:0:
64,160,59655,5,4,0:0:0:0:
128,96,59855,1,0,0:0:0:0:
48,72,60055,1,10,0:0:0:0:
208,136,60255,2,8,B|240:128,3,26.6666666666667
200,48,60655,5,0,0:0:0:0:
296,40,60855,1,0,0:0:0:0:
392,32,61055,1,0,0:0:0:0:
72,144,62755,6,0,B|70:183|80:240,1,80,4|8,0:0|0:0,0:0:0:0:
200,176,63130,2,0,B|192:216,3,40,0|0|0|0,0:0|0:0|0:0|0:0,0:0:0:0:
192,216,63505,2,0,B|288:208,1,80,8|0,0:0|0:0,0:0:0:0:
432,200,63880,2,0,B|440:240|438:279,1,80,0|0,0:0|0:0,0:0:0:0:
352,352,64255,6,0,B|344:312|345:272,1,80,0|8,0:0|0:0,0:0:0:0:
360,104,64630,2,0,B|368:56,3,40,0|0|0|0,0:0|0:0|0:0|0:0,0:0:0:0:
360,104,65005,2,0,B|320:96|280:96,1,80,0|8,0:0|0:0,0:0:0:0:
192,216,65380,2,0,B|232:224|296:224,1,80,0|8,0:0|0:0,0:0:0:0:
96,200,65755,6,0,B|88:240|96:280,1,80,0|8,0:0|0:0,0:0:0:0:
368,224,66130,2,0,B|360:272,3,40,0|0|0|0,0:0|0:0|0:0|0:0,0:0:0:0:
368,224,66505,2,0,B|376:184|368:144,1,80,8|0,0:0|0:0,0:0:0:0:
224,32,66880,2,0,B|216:72|224:112,1,80,0|0,0:0|0:0,0:0:0:0:
256,336,67255,6,0,B|352:336,1,80,0|8,0:0|0:0,0:0:0:0:
240,232,67630,2,0,B|192:232,3,40,0|0|0|0,0:0|0:0|0:0|0:0,0:0:0:0:
200,232,68005,2,0,B|104:232,1,80,0|8,0:0|0:0,0:0:0:0:
48,144,68380,5,2,0:0:0:0:
33,130,68473,1,0,0:0:0:0:
26,111,68567,1,0,0:0:0:0:
24,88,68661,1,0,0:0:0:0:
32,72,68755,6,0,B|64:48|136:56,1,80,4|8,0:0|0:0,0:0:0:0:
296,64,69130,2,0,B|304:112,3,40,0|0|0|0,0:0|0:0|0:0|0:0,0:0:0:0:
296,64,69505,2,0,B|264:88|192:80,1,80,8|0,0:0|0:0,0:0:0:0:
384,152,69880,2,0,B|416:168|463:162,1,80,0|0,0:0|0:0,0:0:0:0:
152,120,70255,6,0,B|136:160|152:216,1,80,0|8,0:0|0:0,0:0:0:0:
72,208,70630,2,0,B|88:248,3,40,0|0|0|0,0:0|0:0|0:0|0:0,0:0:0:0:
87,245,71005,2,0,B|120:280|184:272,1,80,0|8,0:0|0:0,0:0:0:0:
152,352,71380,2,0,B|200:352|232:320,1,80,0|8,0:0|0:0,0:0:0:0:
225,326,71661,1,0,0:0:0:0:
225,326,71755,5,4,0:0:0:0:
240,240,71942,1,0,0:0:0:0:
160,184,72130,2,0,B|200:152,2,40,8|0|8,0:0|0:0|0:0,0:0:0:0:
144,104,72505,2,0,B|168:56,2,40,2|0|0,0:0|0:0|0:0,0:0:0:0:
56,128,72880,2,0,B|64:80|56:32,1,80,8|8,0:0|0:0,0:0:0:0:
280,64,73255,6,0,B|305:26|353:18,1,80,4|0,0:0|0:0,0:0:0:0:
336,120,73630,2,8,B|288:144,3,40,8|0|8|0,0:0|0:0|0:0|0:0,0:0:0:0:
336,120,74005,2,0,B|376:96|416:104,1,80,2|0,0:0|0:0,0:0:0:0:
368,192,74380,2,0,B|416:184|464:200,1,80,12|0,0:0|0:0,0:0:0:0:
288,240,74755,5,0,0:0:0:0:
288,240,74848,1,0,0:0:0:0:
288,240,74942,2,0,B|216:184|128:232,1,160
16,296,75505,2,0,B|40:336|104:328,1,80,0|0,0:0|0:0,0:0:0:0:
128,128,75880,1,4,0:0:0:0:
360,320,76255,5,0,0:0:0:0:
360,320,76348,1,0,0:0:0:0:
360,320,76442,2,0,B|416:248|372:164,1,160
328,40,77005,2,0,B|288:64|296:128,1,80,0|0,0:0|0:0,0:0:0:0:
208,168,77380,1,0,0:0:0:0:
288,240,77567,1,0,0:0:0:0:
448,136,77755,6,0,B|464:80,2,40,4|0|0,0:0|0:0|0:0,0:0:0:0:
432,256,78130,2,0,B|416:296|424:344,1,80,8|0,0:0|0:0,0:0:0:0:
352,136,78505,6,0,B|352:176,2,40,4|0|0,0:0|0:0|0:0,0:0:0:0:
352,48,78880,2,0,B|312:32|264:40,1,80,0|0,0:0|0:0,0:0:0:0:
160,48,79255,6,0,B|104:32,2,40,4|0|0,0:0|0:0|0:0,0:0:0:0:
224,136,79630,2,0,B|224:184|192:208,1,80,8|0,0:0|0:0,0:0:0:0:
104,176,80005,5,0,0:0:0:0:
112,256,80192,1,8,0:0:0:0:
180,300,80380,1,0,0:0:0:0:
256,280,80567,1,8,0:0:0:0:
300,212,80755,5,4,0:0:0:0:
300,212,80848,1,0,0:0:0:0:
300,212,80942,2,0,B|372:156|468:212,1,160
400,336,81505,2,0,B|360:304|376:248,1,80
460,108,81880,1,12,0:0:0:0:
348,100,82067,1,0,0:0:0:0:
300,212,82255,5,4,0:0:0:0:
300,212,82348,1,0,0:0:0:0:
300,212,82442,2,0,B|228:156|132:212,1,160
40,248,83005,2,0,B|16:216|20:166,1,80,0|8,0:0|0:0,0:0:0:0:
80,72,83380,1,0,0:0:0:0:
80,72,83567,1,0,0:0:0:0:
176,80,83755,6,0,B|168:24,2,40,4|0|0,0:0|0:0|0:0,0:0:0:0:
336,72,84130,2,0,B|288:88|240:48,1,80,8|0,0:0|0:0,0:0:0:0:
232,152,84505,6,0,B|208:184,2,40,4|0|0,0:0|0:0|0:0,0:0:0:0:
328,288,84880,2,0,B|282:265|277:203,1,80,0|0,0:0|0:0,0:0:0:0:
127,146,85255,6,0,B|88:152,2,40,4|0|0,0:0|0:0|0:0,0:0:0:0:
106,235,85630,2,0,B|80:264|96:312,1,80,8|0,0:0|0:0,0:0:0:0:
232,152,86005,6,0,B|247:105|221:76,1,80,0|8,0:0|0:0,0:0:0:0:
328,56,86380,2,0,B|424:40,1,80,0|0,0:0|0:0,0:0:0:0:
480,120,86755,5,4,0:0:0:0:
432,256,86942,2,0,B|376:192|280:224,1,160,8|8,0:0|0:0,0:0:0:0:
208,296,87505,2,0,B|248:328|296:312,1,80,0|0,0:0|0:0,0:0:0:0:
200,128,87880,2,0,B|168:168|184:216,1,80,2|0,0:0|0:0,0:0:0:0:
96,272,88255,5,0,0:0:0:0:
285,222,88442,2,0,B|352:152|296:48,1,160,8|8,0:0|0:0,0:0:0:0:
480,120,89005,2,0,B|448:144|384:120,1,80,0|8,0:0|0:0,0:0:0:0:
360,328,89380,2,0,B|352:288|380:254,1,80,0|8,0:0|0:0,0:0:0:0:
480,240,89755,6,0,B|496:232|520:232,2,40,4|0|0,0:0|0:0|0:0,0:0:0:0:
256,320,90130,2,0,B|240:328|216:328,2,40,8|0|0,0:0|0:0|0:0,0:0:0:0:
280,216,90505,2,0,B|296:208|320:208,2,40,4|0|0,0:0|0:0|0:0,0:0:0:0:
240,136,90880,1,8,0:0:0:0:
220,132,90973,1,0,0:0:0:0:
200,136,91067,1,0,0:0:0:0:
179,135,91161,1,0,0:0:0:0:
160,144,91255,5,4,0:0:0:0:
104,312,91536,1,2,0:0:0:0:
0,176,91817,1,2,0:0:0:0:
0,176,91911,1,0,0:0:0:0:
0,176,92005,5,4,0:0:0:0:
240,256,92286,1,2,0:0:0:0:
184,24,92567,1,0,0:0:0:0:
184,24,92661,1,0,0:0:0:0:
184,24,92755,6,0,B|208:32|252:40,3,40,0|0|0|0,0:0|0:0|0:0|0:0,0:0:0:0:
272,32,93155,2,0,B|288:29|336:40,3,40
360,64,93599,2,0,B|384:64|408:48,3,40
432,104,94079,2,0,B|456:140,1,40
504,144,94351,2,0,B|504:188,1,40
440,232,94704,5,0,0:0:0:0:
368,184,94904,1,0,0:0:0:0:
280,184,95104,1,0,0:0:0:0:
200,216,95318,1,0,0:0:0:0:
272,272,95568,5,0,0:0:0:0:
208,136,95868,1,8,0:0:0:0:
72,96,96243,1,8,0:0:0:0:
