osu file format v13

[General]
AudioFilename: reveng sakura.mp3
AudioLeadIn: 2000
PreviewTime: 19252
Countdown: 0
SampleSet: Normal
StackLeniency: 0.4
Mode: 0
LetterboxInBreaks: 0
WidescreenStoryboard: 1

[Editor]
DistanceSpacing: 0.7
BeatDivisor: 4
GridSize: 4
TimelineZoom: 2.999999

[Metadata]
Title:Sakura
TitleUnicode:桜
Artist:Reven-G
ArtistUnicode:Reven-G
Creator:yeahyeahyeahhh
Version:Extra
Source:beatmania IIDX
Tags:8th style DDR Extreme la cataline natteke dance revolution
BeatmapID:183188
BeatmapSetID:61473

[Difficulty]
HPDrainRate:7
CircleSize:4
OverallDifficulty:8
ApproachRate:9
SliderMultiplier:1.9
SliderTickRate:1

[Events]
//Background and Video events
0,0,"bg.jpg",0,0
Video,-53,"sakuralol.avi"
//Break Periods
2,44754,47855
//Storyboard Layer 0 (Background)
//Storyboard Layer 1 (Fail)
//Storyboard Layer 2 (Pass)
//Storyboard Layer 3 (Foreground)
//Storyboard Sound Samples
//Background Colour Transformations
3,100,163,162,255

[TimingPoints]
55,400,4,1,1,50,1,0
12952,-100,4,2,0,70,0,0
15852,-100,4,1,1,40,0,0
26802,-100,4,2,1,40,0,0
26902,-100,4,1,1,40,0,0
28402,-100,4,2,1,40,0,0
28502,-100,4,1,1,40,0,0
31352,-100,4,2,1,40,0,0
31952,-100,4,1,1,40,0,0
42455,428.571428571429,4,1,1,50,1,0
42666,461.538461538462,4,1,1,50,1,0
43358,521.739130434783,4,1,1,50,1,0
43879,600,4,1,1,50,1,0
44179,750,4,1,1,50,1,0
44554,975.609756097561,4,1,1,50,1,0
48455,400,4,1,1,50,1,0
61255,375,4,1,1,50,1,0
62755,-100,4,1,1,40,0,1
74661,-100,4,1,1,40,0,1
75785,-100,4,2,1,40,0,1
75972,-100,4,1,1,40,0,1
77097,-100,4,2,1,40,0,1
77472,-100,4,1,1,40,0,1
78082,-100,4,2,1,40,0,1
78175,-100,4,1,1,40,0,1
78832,-100,4,2,1,40,0,1
78925,-100,4,1,1,40,0,1
79582,-100,4,2,1,40,0,1
79675,-100,4,1,1,40,0,1
80144,-100,4,2,1,40,0,1
80660,-100,4,1,1,40,0,1
81785,-100,4,2,1,40,0,1
81972,-100,4,1,1,40,0,1
83097,-100,4,2,1,40,0,1
83472,-100,4,1,1,40,0,1
84035,-100,4,2,1,40,0,1
84222,-100,4,1,1,40,0,1
84784,-100,4,2,1,40,0,1
84971,-100,4,1,1,40,0,1
85533,-100,4,2,1,40,0,1
85720,-100,4,1,1,40,0,1
86095,-100,4,2,1,40,0,1
86660,-100,4,2,1,40,0,0
86754,-100,4,1,1,40,0,1
92755,400,4,1,1,20,1,0
93155,444.444444444444,4,1,1,20,1,0
93599,480,4,1,1,20,1,0
94079,545.454545454546,4,1,1,20,1,0
94351,666.666666666667,4,1,1,20,1,0
94517,750,4,1,1,20,1,0
94704,800,4,1,1,20,1,0
95104,857.142857142857,4,1,1,20,1,0
95318,1000,4,1,1,20,1,0
95568,1200,4,1,1,20,1,0
95868,1500,4,1,1,20,1,0

[Colours]
Combo1 : 255,185,255
Combo2 : 255,0,255

[HitObjects]
168,168,55,6,0,B|132:200|144:272|190:293,2,142.5,4|0|8,0:0|0:0|0:0,0:0:0:0:
328,208,855,2,0,B|284:247|240:228,1,95,0|8,0:0|0:0,0:0:0:0:
280,316,1255,2,0,B|336:309|365:362,1,95,0|8,0:0|0:0,0:0:0:0:
360,354,1555,1,0,0:0:0:0:
360,354,1655,1,0,0:0:0:0:
472,264,1955,1,0,0:0:0:0:
340,76,2255,5,8,0:0:0:0:
276,148,2455,1,0,0:0:0:0:
184,168,2655,1,8,0:0:0:0:
96,136,2855,1,0,0:0:0:0:
44,216,3055,1,8,0:0:0:0:
44,216,3155,1,0,0:0:0:0:
44,216,3255,2,0,B|104:264|92:348,2,142.5,0|0|8,0:0|0:0|0:0,0:0:0:0:
96,136,4055,6,0,B|132:96|124:40,1,95,0|8,0:0|0:0,0:0:0:0:
220,266,4455,2,0,B|184:227|200:171,1,95,0|8,0:0|0:0,0:0:0:0:
204,148,4755,1,0,0:0:0:0:
224,128,4855,2,0,B|248:168|328:168|352:128,1,142.5
492,260,5555,5,0,0:0:0:0:
460,256,5655,1,0,0:0:0:0:
428,260,5755,1,0,0:0:0:0:
396,272,5855,1,0,0:0:0:0:
368,292,5955,1,0,0:0:0:0:
352,320,6055,1,0,0:0:0:0:
452,32,6455,6,0,B|407:66|431:138,1,95,4|0,0:0|0:0,0:0:0:0:
436,148,6755,1,8,0:0:0:0:
460,172,6855,1,0,0:0:0:0:
368,200,7055,2,0,B|320:224|276:192,1,95,8|0,0:0|0:0,0:0:0:0:
164,60,7455,2,0,B|216:68|240:132,1,95,8|0,0:0|0:0,0:0:0:0:
188,200,7855,5,8,0:0:0:0:
188,200,7955,1,0,0:0:0:0:
188,200,8055,1,0,0:0:0:0:
236,296,8255,2,0,B|244:324|244:356,2,47.5,0|8|0,0:0|0:0|0:0,0:0:0:0:
236,296,8655,1,8,0:0:0:0:
144,328,8855,1,0,0:0:0:0:
28,192,9055,1,8,0:0:0:0:
112,144,9255,1,0,0:0:0:0:
188,200,9455,5,8,0:0:0:0:
218,215,9555,1,0,0:0:0:0:
251,216,9655,2,0,B|299:216|331:168,1,95
356,148,9955,1,8,0:0:0:0:
388,140,10055,1,0,0:0:0:0:
488,236,10255,1,8,0:0:0:0:
432,320,10455,2,0,B|392:288|400:232,1,95,0|8,0:0|0:0,0:0:0:0:
452,52,10855,2,0,B|492:84|484:140,1,95,0|8,0:0|0:0,0:0:0:0:
484,136,11155,1,0,0:0:0:0:
484,136,11255,5,6,0:0:0:0:
216,352,11555,1,6,0:0:0:0:
36,32,11855,1,6,0:0:0:0:
124,72,12055,5,0,0:0:0:0:
116,100,12155,1,0,0:0:0:0:
100,124,12255,1,0,0:0:0:0:
76,140,12355,1,0,0:0:0:0:
56,160,12455,1,0,0:0:0:0:
44,188,12555,1,0,0:0:0:0:
44,216,12655,1,0,0:0:0:0:
56,244,12755,1,0,0:0:0:0:
76,264,12855,6,0,B|36:360,1,95,4|0,0:0|0:0,0:0:0:0:
160,316,13255,2,0,B|256:300,1,95
252,210,13655,1,0,0:0:0:0:
332,188,13855,1,0,0:0:0:0:
412,210,14055,1,0,0:0:0:0:
470,268,14255,1,0,0:0:0:0:
488,348,14455,1,0,0:0:0:0:
377,299,14655,1,0,0:0:0:0:
332,188,14855,1,0,0:0:0:0:
377,78,15055,1,0,0:0:0:0:
488,32,15255,1,0,0:0:0:0:
52,314,16055,5,0,0:0:0:0:
24,232,16255,1,0,0:0:0:0:
108,240,16455,1,0,0:0:0:0:
188,212,16655,1,0,0:0:0:0:
240,144,16855,1,0,0:0:0:0:
256,60,17055,1,0,0:0:0:0:
336,92,17255,1,10,0:0:0:0:
336,92,17455,1,0,0:0:0:0:
460,200,17655,5,0,0:0:0:0:
412,268,17855,1,0,0:0:0:0:
340,316,18055,1,0,0:0:0:0:
256,316,18255,1,0,0:0:0:0:
176,296,18455,1,0,0:0:0:0:
128,368,18655,5,8,0:0:0:0:
128,368,18755,1,8,0:0:0:0:
128,368,18855,1,10,0:0:0:0:
128,368,19055,1,10,0:0:0:0:
24,232,19255,5,4,0:0:0:0:
104,152,19455,2,0,B|136:116,2,47.5,0|0|8,0:0|0:0|0:0,0:0:0:0:
164,252,19855,2,0,B|176:280|176:304,2,47.5
224,156,20255,2,0,B|248:164|272:160,2,47.5,8|0|8,0:0|0:0|0:0,0:0:0:0:
296,244,20655,2,0,B|328:228|352:228,2,47.5,8|0|0,0:0|0:0|0:0,0:0:0:0:
388,312,21055,1,0,0:0:0:0:
388,312,21155,1,0,0:0:0:0:
388,312,21255,1,8,0:0:0:0:
480,244,21455,1,0,0:0:0:0:
480,244,21555,1,0,0:0:0:0:
480,244,21655,1,0,0:0:0:0:
404,160,21855,1,8,0:0:0:0:
404,160,21955,1,8,0:0:0:0:
404,160,22055,1,8,0:0:0:0:
404,160,22255,1,8,0:0:0:0:
476,72,22455,5,0,0:0:0:0:
376,24,22655,1,0,0:0:0:0:
364,56,22755,1,0,0:0:0:0:
352,88,22855,1,8,0:0:0:0:
268,8,23055,1,8,0:0:0:0:
268,40,23155,1,8,0:0:0:0:
268,72,23255,1,0,0:0:0:0:
156,24,23455,1,0,0:0:0:0:
168,56,23555,1,0,0:0:0:0:
180,88,23655,1,8,0:0:0:0:
52,96,23855,1,8,0:0:0:0:
80,112,23955,1,8,0:0:0:0:
112,132,24055,1,0,0:0:0:0:
24,208,24255,1,0,0:0:0:0:
56,208,24355,1,0,0:0:0:0:
88,208,24455,1,8,0:0:0:0:
52,320,24655,1,8,0:0:0:0:
80,304,24755,1,8,0:0:0:0:
108,288,24855,1,0,0:0:0:0:
208,212,25055,5,8,0:0:0:0:
208,212,25155,1,8,0:0:0:0:
208,212,25255,1,8,0:0:0:0:
208,212,25455,1,8,0:0:0:0:
472,264,25655,5,4,0:0:0:0:
360,244,25855,1,0,0:0:0:0:
252,276,26055,1,8,0:0:0:0:
172,356,26255,1,8,0:0:0:0:
104,264,26455,1,0,0:0:0:0:
80,236,26555,1,0,0:0:0:0:
68,200,26655,1,8,0:0:0:0:
72,164,26755,1,8,0:0:0:0:
88,128,26855,1,8,0:0:0:0:
88,128,27055,1,0,0:0:0:0:
164,36,27255,5,0,0:0:0:0:
260,100,27455,1,0,0:0:0:0:
284,212,27655,1,8,0:0:0:0:
240,316,27855,1,8,0:0:0:0:
352,336,28055,1,0,0:0:0:0:
376,308,28155,1,0,0:0:0:0:
408,292,28255,1,8,0:0:0:0:
444,292,28355,1,8,0:0:0:0:
480,304,28455,1,8,0:0:0:0:
480,304,28655,1,0,0:0:0:0:
448,216,28855,6,0,B|408:200|388:144,1,95,0|0,0:0|0:0,0:0:0:0:
280,300,29255,2,0,B|320:284|336:228,1,95,10|8,0:0|0:0,0:0:0:0:
440,88,29655,2,0,B|396:72|380:16,1,95,0|0,0:0|0:0,0:0:0:0:
272,172,30055,2,0,B|316:152|332:96,1,95,10|8,0:0|0:0,0:0:0:0:
196,128,30455,1,0,0:0:0:0:
44,56,30655,1,0,0:0:0:0:
124,212,30855,1,10,0:0:0:0:
144,24,31055,1,8,0:0:0:0:
24,164,31255,1,0,0:0:0:0:
112,116,31455,5,8,0:0:0:0:
112,116,31655,1,8,0:0:0:0:
112,116,31855,1,8,0:0:0:0:
48,280,32055,5,6,0:0:0:0:
160,304,32255,1,0,0:0:0:0:
160,304,32355,1,0,0:0:0:0:
160,304,32455,1,8,0:0:0:0:
244,224,32655,1,0,0:0:0:0:
352,192,32855,1,0,0:0:0:0:
372,224,32955,1,0,0:0:0:0:
376,260,33055,1,8,0:0:0:0:
368,296,33155,1,8,0:0:0:0:
348,328,33255,1,10,0:0:0:0:
460,308,33455,6,0,B|456:344|464:364,2,47.5
456,196,33855,1,0,0:0:0:0:
436,164,33955,1,0,0:0:0:0:
424,128,34055,1,8,0:0:0:0:
416,16,34255,1,0,0:0:0:0:
320,76,34455,1,0,0:0:0:0:
288,96,34555,1,0,0:0:0:0:
252,100,34655,1,8,0:0:0:0:
216,96,34755,1,8,0:0:0:0:
180,80,34855,1,2,0:0:0:0:
68,56,35055,5,8,0:0:0:0:
28,164,35255,2,0,B|100:212|172:148,1,142.5,6|8,0:0|0:0,0:0:0:0:
159,157,35655,2,0,B|136:208|168:248,1,95,0|8,0:0|0:0,0:0:0:0:
268,348,36055,2,0,B|316:276|252:204,1,142.5,6|8,0:0|0:0,0:0:0:0:
261,216,36455,2,0,B|304:240|352:208,1,95,0|8,0:0|0:0,0:0:0:0:
489,173,36855,6,0,B|465:277,1,95,6|0,0:0|0:0,0:0:0:0:
456,300,37155,1,8,0:0:0:0:
456,300,37255,2,0,B|408:276|336:308,1,95,6|8,0:0|0:0,0:0:0:0:
120,372,37655,5,6,0:0:0:0:
132,340,37755,1,0,0:0:0:0:
152,312,37855,1,8,0:0:0:0:
180,292,37955,1,8,0:0:0:0:
212,284,38055,1,6,0:0:0:0:
188,260,38155,1,8,0:0:0:0:
164,236,38255,1,8,0:0:0:0:
152,204,38355,1,8,0:0:0:0:
148,172,38455,5,14,0:0:0:0:
60,204,38655,1,0,0:0:0:0:
76,112,38855,1,8,0:0:0:0:
148,172,39055,1,0,0:0:0:0:
236,204,39255,1,0,0:0:0:0:
332,208,39455,1,0,0:0:0:0:
424,188,39655,1,8,0:0:0:0:
496,128,39855,1,0,0:0:0:0:
512,224,40055,5,0,0:0:0:0:
512,224,40155,1,0,0:0:0:0:
512,224,40255,1,0,0:0:0:0:
424,188,40455,1,8,0:0:0:0:
496,128,40655,1,0,0:0:0:0:
408,92,40855,1,0,0:0:0:0:
484,32,41055,1,0,0:0:0:0:
496,128,41255,1,8,0:0:0:0:
424,188,41455,1,0,0:0:0:0:
392,276,41655,5,0,0:0:0:0:
392,276,41755,1,0,0:0:0:0:
392,276,41855,1,0,0:0:0:0:
308,320,42055,1,8,0:0:0:0:
220,284,42255,1,0,0:0:0:0:
252,208,42455,1,0,0:0:0:0:
212,124,42666,1,0,0:0:0:0:
264,48,42896,1,8,0:0:0:0:
304,132,43127,1,0,0:0:0:0:
368,192,43358,6,0,B|384:208|412:216,3,47.5
368,192,43879,1,8,0:0:0:0:
280,228,44179,1,8,0:0:0:0:
220,284,44554,1,6,0:0:0:0:
32,336,48455,6,0,B|120:276|84:164,1,190
264,108,49255,2,0,B|296:183|384:176,1,126.666666666667
440,348,49921,2,0,B|396:248|472:172,2,190
500,296,50855,2,0,B|460:240|348:264|356:360,1,190
72,36,51521,5,0,0:0:0:0:
12,88,51655,2,0,B|52:144|164:120|156:24,2,190
68,200,52721,2,0,B|172:244|164:360,1,190
224,168,53521,2,0,B|328:196|404:128,1,190
488,252,54055,2,0,B|392:204|308:272,1,190
184,296,54721,5,0,0:0:0:0:
184,296,54855,1,2,0:0:0:0:
256,60,55255,1,0,0:0:0:0:
328,296,55655,1,0,0:0:0:0:
144,152,56055,1,0,0:0:0:0:
368,152,56455,5,2,0:0:0:0:
256,192,56721,2,0,B|216:300|96:256,1,190
52,216,57255,1,0,0:0:0:0:
124,36,57655,1,0,0:0:0:0:
256,192,58055,5,2,0:0:0:0:
388,36,58455,1,0,0:0:0:0:
460,216,58855,1,2,0:0:0:0:
368,144,59121,1,0,0:0:0:0:
256,296,59521,1,0,0:0:0:0:
144,144,59921,1,0,0:0:0:0:
92,292,60255,1,0,0:0:0:0:
220,204,60455,5,2,0:0:0:0:
60,200,60655,1,0,0:0:0:0:
184,304,60855,1,2,0:0:0:0:
140,224,61055,1,0,0:0:0:0:
256,192,61442,12,4,62755,0:0:0:0:
372,160,62942,5,8,0:0:0:0:
252,128,63130,1,0,0:0:0:0:
160,44,63317,1,8,0:0:0:0:
160,44,63411,1,0,0:0:0:0:
160,44,63505,1,0,0:0:0:0:
96,148,63692,1,8,0:0:0:0:
196,224,63880,1,0,0:0:0:0:
76,328,64067,5,8,0:0:0:0:
76,328,64161,1,0,0:0:0:0:
76,328,64255,2,0,B|116:292|108:240,1,95,0|8,0:0|0:0,0:0:0:0:
340,288,64630,2,0,B|292:264|280:196,1,95,0|8,0:0|0:0,0:0:0:0:
284,214,64911,1,0,0:0:0:0:
284,214,65005,1,0,0:0:0:0:
176,136,65192,1,8,0:0:0:0:
296,108,65380,5,0,0:0:0:0:
324,132,65473,1,8,0:0:0:0:
360,148,65567,1,0,0:0:0:0:
396,152,65661,1,8,0:0:0:0:
436,152,65755,1,0,0:0:0:0:
500,260,65942,6,0,B|444:240|404:284,1,95,8|0,0:0|0:0,0:0:0:0:
284,214,66317,2,0,B|328:236|340:288,1,95,8|0,0:0|0:0,0:0:0:0:
388,172,66692,2,0,B|360:124|376:72,1,95,8|0,0:0|0:0,0:0:0:0:
256,44,67067,1,8,0:0:0:0:
256,44,67161,1,0,0:0:0:0:
256,44,67255,1,0,0:0:0:0:
156,112,67442,2,0,B|120:152|72:148,1,95,8|0,0:0|0:0,0:0:0:0:
36,264,67817,5,8,0:0:0:0:
36,264,67911,1,0,0:0:0:0:
36,264,68005,1,0,0:0:0:0:
140,332,68192,1,8,0:0:0:0:
176,324,68286,1,0,0:0:0:0:
208,304,68380,1,0,0:0:0:0:
224,272,68473,1,8,0:0:0:0:
228,236,68567,1,8,0:0:0:0:
216,200,68661,1,8,0:0:0:0:
200,164,68755,6,0,B|173:107|204:65,1,95,6|8,0:0|0:0,0:0:0:0:
312,20,69130,1,0,0:0:0:0:
428,56,69317,1,8,0:0:0:0:
480,168,69505,1,0,0:0:0:0:
468,292,69692,1,8,0:0:0:0:
364,360,69880,1,0,0:0:0:0:
344,240,70067,5,8,0:0:0:0:
344,240,70161,1,0,0:0:0:0:
344,240,70255,2,0,B|284:220|240:252,1,95,0|8,0:0|0:0,0:0:0:0:
184,156,70630,2,0,B|152:196|160:252,1,95,0|8,0:0|0:0,0:0:0:0:
56,220,71005,2,0,B|48:269|80:309,1,95,0|8,0:0|0:0,0:0:0:0:
196,356,71380,1,0,0:0:0:0:
251,244,71567,5,8,0:0:0:0:
264,208,71661,1,8,0:0:0:0:
268,168,71755,1,6,0:0:0:0:
244,56,71942,1,8,0:0:0:0:
244,56,72130,1,0,0:0:0:0:
352,216,72317,1,8,0:0:0:0:
365,180,72411,1,8,0:0:0:0:
369,140,72505,1,6,0:0:0:0:
345,28,72692,1,8,0:0:0:0:
345,28,72880,1,0,0:0:0:0:
464,32,73067,5,8,0:0:0:0:
468,72,73161,1,8,0:0:0:0:
468,112,73255,1,0,0:0:0:0:
464,148,73348,1,0,0:0:0:0:
456,184,73442,1,8,0:0:0:0:
448,296,73630,1,0,0:0:0:0:
448,296,73723,1,0,0:0:0:0:
448,296,73817,1,8,0:0:0:0:
348,244,74005,1,0,0:0:0:0:
312,244,74098,1,0,0:0:0:0:
276,260,74192,1,8,0:0:0:0:
248,288,74286,1,0,0:0:0:0:
212,304,74380,1,0,0:0:0:0:
176,304,74473,1,8,0:0:0:0:
140,296,74567,1,0,0:0:0:0:
108,276,74661,1,8,0:0:0:0:
80,260,74755,6,0,B|54:250|26:268,2,47.5,6|0|0,0:0|0:0|0:0,0:0:0:0:
184,172,75130,1,0,0:0:0:0:
56,116,75317,1,0,0:0:0:0:
56,116,75411,1,0,0:0:0:0:
56,116,75505,1,0,0:0:0:0:
172,40,75692,1,0,0:0:0:0:
172,40,75786,1,0,0:0:0:0:
172,40,75880,1,8,0:0:0:0:
136,108,76067,1,0,0:0:0:0:
264,180,76255,5,0,0:0:0:0:
264,180,76348,1,0,0:0:0:0:
264,180,76442,1,0,0:0:0:0:
312,304,76630,1,0,0:0:0:0:
396,200,76817,1,0,0:0:0:0:
396,200,76911,1,0,0:0:0:0:
396,200,77005,1,0,0:0:0:0:
324,228,77192,5,8,0:0:0:0:
324,228,77380,1,8,0:0:0:0:
472,208,77567,1,0,0:0:0:0:
448,76,77755,5,6,0:0:0:0:
448,76,77848,1,0,0:0:0:0:
448,76,77942,1,0,0:0:0:0:
448,76,78036,1,0,0:0:0:0:
448,76,78130,2,0,B|400:68|376:12,1,95,8|0,0:0|0:0,0:0:0:0:
280,124,78505,1,6,0:0:0:0:
280,124,78598,1,0,0:0:0:0:
280,124,78692,1,0,0:0:0:0:
280,124,78786,1,0,0:0:0:0:
280,124,78880,2,0,B|312:84|296:28,1,95,8|0,0:0|0:0,0:0:0:0:
376,144,79255,1,6,0:0:0:0:
376,144,79348,1,0,0:0:0:0:
376,144,79442,1,0,0:0:0:0:
376,144,79536,1,0,0:0:0:0:
376,144,79630,2,0,B|380:196|392:248,1,95,8|0,0:0|0:0,0:0:0:0:
436,364,80005,1,6,0:0:0:0:
488,244,80192,5,8,0:0:0:0:
488,244,80380,1,8,0:0:0:0:
488,244,80567,1,8,0:0:0:0:
288,248,80755,5,0,0:0:0:0:
288,248,80848,1,0,0:0:0:0:
288,248,80942,2,0,B|244:272|188:268,1,95
0,264,81317,1,0,0:0:0:0:
0,264,81411,1,0,0:0:0:0:
0,264,81505,2,0,B|56:244|100:248,1,95
136,352,81880,1,8,0:0:0:0:
156,200,82067,1,0,0:0:0:0:
64,76,82255,5,0,0:0:0:0:
64,76,82348,1,0,0:0:0:0:
64,76,82442,1,0,0:0:0:0:
180,12,82630,1,0,0:0:0:0:
304,56,82817,1,0,0:0:0:0:
304,56,82911,1,0,0:0:0:0:
304,56,83005,1,0,0:0:0:0:
308,188,83192,1,8,0:0:0:0:
308,188,83380,1,8,0:0:0:0:
420,136,83567,5,0,0:0:0:0:
420,136,83755,2,0,B|430:180|406:244,1,95,6|0,0:0|0:0,0:0:0:0:
308,188,84130,1,8,0:0:0:0:
260,296,84317,1,0,0:0:0:0:
260,296,84505,2,0,B|304:306|368:282,1,95,6|0,0:0|0:0,0:0:0:0:
308,188,84880,1,8,0:0:0:0:
512,344,85067,1,0,0:0:0:0:
512,344,85255,2,0,B|468:308|416:312,1,95,6|0,0:0|0:0,0:0:0:0:
308,188,85630,1,8,0:0:0:0:
176,196,85817,1,0,0:0:0:0:
92,300,86005,1,6,0:0:0:0:
36,180,86192,5,8,0:0:0:0:
36,180,86380,1,8,0:0:0:0:
36,180,86567,1,8,0:0:0:0:
100,224,86755,5,6,0:0:0:0:
140,96,86942,1,8,0:0:0:0:
140,96,87036,1,8,0:0:0:0:
140,96,87130,2,0,B|188:80|248:112,1,95,0|8,0:0|0:0,0:0:0:0:
436,44,87505,5,0,0:0:0:0:
396,172,87692,1,8,0:0:0:0:
396,172,87786,1,8,0:0:0:0:
396,172,87880,2,0,B|348:188|288:156,1,95,0|8,0:0|0:0,0:0:0:0:
216,264,88255,5,0,0:0:0:0:
340,308,88442,2,0,B|364:320|376:352,2,47.5,8|8|0,0:0|0:0|0:0,0:0:0:0:
472,280,88817,1,8,0:0:0:0:
396,172,89005,5,0,0:0:0:0:
288,96,89192,2,0,B|256:72|240:40,2,47.5,8|8|0,0:0|0:0|0:0,0:0:0:0:
416,56,89567,1,8,0:0:0:0:
300,196,89755,5,4,0:0:0:0:
284,228,89848,1,0,0:0:0:0:
256,252,89942,1,8,0:0:0:0:
152,168,90130,2,0,B|120:152|76:152,2,47.5,0|0|8,0:0|0:0|0:0,0:0:0:0:
16,344,90505,5,0,0:0:0:0:
32,312,90598,1,0,0:0:0:0:
56,284,90692,1,8,0:0:0:0:
88,260,90786,1,0,0:0:0:0:
124,252,90880,1,0,0:0:0:0:
160,252,90973,1,8,0:0:0:0:
196,264,91067,1,0,0:0:0:0:
228,284,91161,1,0,0:0:0:0:
256,312,91255,5,4,0:0:0:0:
464,188,91536,1,0,0:0:0:0:
256,72,91817,1,0,0:0:0:0:
256,72,91911,1,0,0:0:0:0:
256,72,92005,1,4,0:0:0:0:
48,188,92286,1,0,0:0:0:0:
352,312,92567,5,0,0:0:0:0:
352,312,92661,1,0,0:0:0:0:
352,312,92755,2,0,B|328:272,3,47.5,8|0|0|0,0:0|0:0|0:0|0:0,0:0:0:0:
384,216,93155,2,0,B|368:192|328:184,3,47.5,8|0|0|0,0:0|0:0|0:0|0:0,0:0:0:0:
272,224,93599,2,0,B|244:236|216:232,3,47.5,8|8|0|0,0:0|0:0|0:0|0:0,0:0:0:0:
224,156,94079,2,0,B|168:144,1,47.5
177,146,94351,2,0,B|124:168,1,47.5
20,116,94704,5,0,0:0:0:0:
48,76,94904,1,0,0:0:0:0:
84,52,95104,1,8,0:0:0:0:
124,40,95318,1,0,0:0:0:0:
164,40,95568,1,0,0:0:0:0:
200,48,95868,1,8,0:0:0:0:
240,72,96243,1,2,0:0:0:0:
