osu file format v13

[General]
AudioFilename: reveng sakura.mp3
AudioLeadIn: 2000
PreviewTime: 19252
Countdown: 0
SampleSet: Normal
StackLeniency: 0.4
Mode: 0
LetterboxInBreaks: 0
WidescreenStoryboard: 0

[Editor]
DistanceSpacing: 1.4
BeatDivisor: 4
GridSize: 4
TimelineZoom: 1

[Metadata]
Title:Sakura
TitleUnicode:桜
Artist:Reven-G
ArtistUnicode:Reven-G
Creator:yeahyeahyeahhh
Version:Easy
Source:beatmania IIDX
Tags:8th style DDR Extreme la cataline natteke dance revolution
BeatmapID:183187
BeatmapSetID:61473

[Difficulty]
HPDrainRate:2
CircleSize:3
OverallDifficulty:2
ApproachRate:3
SliderMultiplier:0.8
SliderTickRate:1

[Events]
//Background and Video events
0,0,"bg.jpg",0,0
Video,-53,"sakuralol.avi"
//Break Periods
2,13055,14615
2,48656,53415
//Storyboard Layer 0 (Background)
//Storyboard Layer 1 (Fail)
//Storyboard Layer 2 (Pass)
//Storyboard Layer 3 (Foreground)
//Storyboard Sound Samples
//Background Colour Transformations
3,100,163,162,255

[TimingPoints]
55,400,4,1,1,50,1,0
15852,-100,4,1,1,40,0,0
26802,-100,4,2,1,40,0,0
26902,-100,4,1,1,40,0,0
28402,-100,4,2,1,40,0,0
28502,-100,4,1,1,40,0,0
31352,-100,4,2,1,40,0,0
31952,-100,4,1,1,40,0,0
42455,428.571428571429,4,1,1,50,1,0
42666,461.538461538462,4,1,1,50,1,0
43358,521.739130434783,4,1,1,50,1,0
43879,600,4,1,1,50,1,0
44179,750,4,1,1,50,1,0
44554,975.609756097561,4,1,1,50,1,0
48455,400,4,1,1,50,1,0
61255,375,4,1,1,50,1,0
75785,-100,4,2,1,40,0,0
75972,-100,4,1,1,40,0,0
77097,-100,4,2,1,40,0,0
77472,-100,4,1,1,40,0,0
78082,-100,4,2,1,40,0,0
78175,-100,4,1,1,40,0,0
78832,-100,4,2,1,40,0,0
78925,-100,4,1,1,40,0,0
79582,-100,4,2,1,40,0,0
79675,-100,4,1,1,40,0,0
80144,-100,4,2,1,40,0,0
80660,-100,4,1,1,40,0,0
81785,-100,4,2,1,40,0,0
81972,-100,4,1,1,40,0,0
83097,-100,4,2,1,40,0,0
83472,-100,4,1,1,40,0,0
84035,-100,4,2,1,40,0,0
84222,-100,4,1,1,40,0,0
84784,-100,4,2,1,40,0,0
84971,-100,4,1,1,40,0,0
85533,-100,4,2,1,40,0,0
85720,-100,4,1,1,40,0,0
86095,-100,4,2,1,40,0,0
86657,-100,4,1,1,40,0,0
92755,400,4,1,1,20,1,0
93155,444.444444444444,4,1,1,20,1,0
93599,480,4,1,1,20,1,0
94079,545.454545454546,4,1,1,20,1,0
94351,666.666666666667,4,1,1,20,1,0
94517,750,4,1,1,20,1,0
94704,800,4,1,1,20,1,0
95104,857.142857142857,4,1,1,20,1,0
95318,1000,4,1,1,20,1,0
95568,1200,4,1,1,20,1,0
95868,1500,4,1,1,20,1,0

[Colours]
Combo1 : 255,185,255
Combo2 : 255,0,255

[HitObjects]
51,210,55,6,0,B|116:24|304:112,1,320,4|8,0:0|0:0,0:0:0:0:
340,324,2455,2,0,B|356:280|340:236,1,80,8|8,0:0|0:0,0:0:0:0:
448,204,3255,6,0,B|392:20|195:106,1,320,0|8,0:0|0:0,0:0:0:0:
292,308,5655,2,8,B|280:272|280:272|296:224,1,80
400,272,6455,5,4,0:0:0:0:
256,100,7255,1,8,0:0:0:0:
336,308,8055,1,0,0:0:0:0:
256,100,8855,1,8,0:0:0:0:
256,324,9655,5,4,0:0:0:0:
256,100,10455,1,8,0:0:0:0:
172,324,11255,2,8,B|117:269|117:165|173:105,1,240,14|10,0:0|0:0,0:0:0:0:
256,64,12855,5,4,0:0:0:0:
100,108,16055,6,0,B|84:140|100:192,1,80,6|0,0:0|0:0,0:0:0:0:
204,224,16855,2,0,B|216:180|204:140,1,80,10|8,0:0|0:0,0:0:0:0:
296,76,17655,2,0,B|324:144|312:248,1,160,2|14,0:0|0:0,0:0:0:0:
244,320,18855,1,8,0:0:0:0:
136,292,19255,5,6,0:0:0:0:
84,72,20055,1,8,0:0:0:0:
304,32,20855,2,8,B|332:100|348:200,1,160,0|10,0:0|0:0,0:0:0:0:
120,192,22455,6,0,B|124:240|148:284,1,80,0|8,0:0|0:0,0:0:0:0:
244,316,23255,1,0,0:0:0:0:
320,232,23655,2,0,B|316:184|292:140,1,80,8|0,0:0|0:0,0:0:0:0:
192,128,24455,1,8,0:0:0:0:
84,116,24855,2,0,B|72:72|84:32,1,80,8|10,0:0|0:0,0:0:0:0:
196,40,25655,6,0,B|296:32|308:80|320:136|424:108,1,240,4|10,0:0|0:0,0:0:0:0:
416,224,27255,2,0,B|316:216|304:264|292:320|188:292,1,240,4|10,0:0|0:0,0:0:0:0:
116,220,28855,6,0,B|80:192|64:144,1,80,4|8,0:0|0:0,0:0:0:0:
208,228,29655,2,0,B|236:192|284:176,1,80,4|8,0:0|0:0,0:0:0:0:
152,304,30455,2,0,B|155:349|130:393,1,80,4|8,0:0|0:0,0:0:0:0:
56,300,31255,2,0,B|36:228|56:136,1,160,0|6,0:0|0:0,0:0:0:0:
148,80,32455,5,8,0:0:0:0:
256,276,33255,1,8,0:0:0:0:
364,80,34055,1,8,0:0:0:0:
308,176,34455,1,0,0:0:0:0:
256,276,34855,1,8,0:0:0:0:
208,176,35255,6,4,B|184:112|112:100|60:125,1,160,6|6,0:0|0:0,0:0:0:0:
0,284,36855,2,4,B|24:348|96:360|148:335,1,160,6|6,0:0|0:0,0:0:0:0:
236,292,38055,1,0,0:0:0:0:
236,292,38455,5,4,0:0:0:0:
64,192,40055,1,0,0:0:0:0:
228,72,41655,1,0,0:0:0:0:
256,192,44554,12,0,48456,0:0:0:0:
64,268,54855,6,0,B|60:176,1,80,6|0,0:0|0:0,0:0:0:0:
56,76,55655,2,0,B|144:72,1,80,0|0,0:0|0:0,0:0:0:0:
248,68,56455,2,0,B|252:160,1,80,6|0,0:0|0:0,0:0:0:0:
256,260,57255,2,0,B|168:264,1,80,0|0,0:0|0:0,0:0:0:0:
256,192,58055,12,0,61055,0:0:0:0:
256,304,62755,5,4,0:0:0:0:
156,132,63505,1,0,0:0:0:0:
352,140,64255,1,0,0:0:0:0:
256,304,65005,1,0,0:0:0:0:
256,192,65380,1,8,0:0:0:0:
184,108,65755,6,0,B|140:140|116:204|128:264|204:320,1,240,6|8,0:0|0:0,0:0:0:0:
317,312,67255,2,0,B|384:264|396:204|372:140|328:108,1,240,0|8,0:0|0:0,0:0:0:0:
220,84,68755,5,4,0:0:0:0:
108,88,69130,1,8,0:0:0:0:
184,172,69505,1,0,0:0:0:0:
72,172,69880,1,8,0:0:0:0:
148,252,70255,5,0,0:0:0:0:
36,256,70630,1,8,0:0:0:0:
104,344,71005,2,0,B|192:352,2,80,0|8|6,0:0|0:0|0:0,0:0:0:0:
256,180,72505,5,6,0:0:0:0:
440,52,73255,2,0,B|460:92|456:144,1,80,14|8,0:0|0:0,0:0:0:0:
372,204,74005,2,0,B|352:164|356:112,1,80,14|8,0:0|0:0,0:0:0:0:
256,84,74755,6,4,B|208:104|208:104|140:64,2,120,4|4|14,0:0|0:0|0:0,0:0:0:0:
336,160,76255,2,4,B|384:140|384:140|452:180,2,120,4|4|14,0:0|0:0|0:0,0:0:0:0:
360,268,77755,6,0,B|316:300|272:308,1,80,6|14,0:0|0:0,0:0:0:0:
188,260,78505,2,0,B|232:228|276:220,1,80,6|14,0:0|0:0,0:0:0:0:
236,116,79255,2,0,B|280:84|324:76,1,80,6|14,0:0|0:0,0:0:0:0:
408,124,80005,2,0,B|364:156|320:164,1,80,6|14,0:0|0:0,0:0:0:0:
236,208,80755,6,0,B|168:224|128:276,2,120,4|8|14,0:0|0:0|0:0,0:0:0:0:
348,208,82255,2,0,B|416:224|456:276,2,120,4|8|14,0:0|0:0|0:0,0:0:0:0:
288,112,83755,6,0,B|284:76|288:20,1,80,0|14,0:0|0:0,0:0:0:0:
384,88,84505,2,0,B|388:124|384:180,1,80,0|14,0:0|0:0,0:0:0:0:
284,216,85255,2,0,B|288:252|284:308,1,80,0|14,0:0|0:0,0:0:0:0:
188,240,86005,2,0,B|184:204|188:148,1,80,0|14,0:0|0:0,0:0:0:0:
280,96,86755,6,4,B|328:76|328:76|408:80,2,120,4|14|4,0:0|0:0|0:0,0:0:0:0:
348,184,88255,2,4,B|300:204|300:204|220:200,2,120,4|14|4,0:0|0:0|0:0,0:0:0:0:
456,160,89755,5,4,0:0:0:0:
256,260,90505,1,14,0:0:0:0:
56,160,91255,1,14,0:0:0:0:
256,60,92005,1,14,0:0:0:0:
256,192,92755,12,8,96243,0:0:0:0:
