osu file format v13

[General]
AudioFilename: reveng sakura.mp3
AudioLeadIn: 2000
PreviewTime: 19252
Countdown: 0
SampleSet: None
StackLeniency: 0.4
Mode: 0
LetterboxInBreaks: 0
WidescreenStoryboard: 1

[Editor]
DistanceSpacing: 1.5
BeatDivisor: 3
GridSize: 8
TimelineZoom: 2.7

[Metadata]
Title:Sakura
TitleUnicode:桜
Artist:Reven-G
ArtistUnicode:Reven-G
Creator:yeahyeahyeahhh
Version:Another
Source:beatmania IIDX
Tags:8th style DDR Extreme la cataline natteke dance revolution
BeatmapID:475197
BeatmapSetID:61473

[Difficulty]
HPDrainRate:7
CircleSize:4
OverallDifficulty:7
ApproachRate:8
SliderMultiplier:1.9
SliderTickRate:1

[Events]
//Background and Video events
0,0,"bg.jpg",0,0
Video,-53,"sakuralol.avi"
//Break Periods
2,13055,15305
2,44754,47705
//Storyboard Layer 0 (Background)
//Storyboard Layer 1 (Fail)
//Storyboard Layer 2 (Pass)
//Storyboard Layer 3 (Foreground)
//Storyboard Sound Samples
//Background Colour Transformations
3,100,163,162,255

[TimingPoints]
55,400,4,1,1,50,1,0
12952,-100,4,2,0,70,0,0
15852,-100,4,1,1,40,0,0
26802,-100,4,2,1,40,0,0
26902,-100,4,1,1,40,0,0
28402,-100,4,2,1,40,0,0
28502,-100,4,1,1,40,0,0
31352,-100,4,2,1,40,0,0
31952,-100,4,1,1,40,0,0
42455,428.571428571429,4,1,1,50,1,0
42666,461.538461538462,4,1,1,50,1,0
43358,521.739130434783,4,1,1,50,1,0
43879,600,4,1,1,50,1,0
44179,750,4,1,1,50,1,0
44554,975.609756097561,4,1,1,50,1,0
48455,400,4,1,1,50,1,0
61255,375,4,1,1,50,1,0
75785,-100,4,2,1,40,0,0
75972,-100,4,1,1,40,0,0
77097,-100,4,2,1,40,0,0
77472,-100,4,1,1,40,0,0
78082,-100,4,2,1,40,0,0
78175,-100,4,1,1,40,0,0
78832,-100,4,2,1,40,0,0
78925,-100,4,1,1,40,0,0
79582,-100,4,2,1,40,0,0
79675,-100,4,1,1,40,0,0
80144,-100,4,2,1,40,0,0
80660,-100,4,1,1,40,0,0
81785,-100,4,2,1,40,0,0
81972,-100,4,1,1,40,0,0
83097,-100,4,2,1,40,0,0
83472,-100,4,1,1,40,0,0
84035,-100,4,2,1,40,0,0
84222,-100,4,1,1,40,0,0
84784,-100,4,2,1,40,0,0
84971,-100,4,1,1,40,0,0
85533,-100,4,2,1,40,0,0
85720,-100,4,1,1,40,0,0
86095,-100,4,2,1,40,0,0
86657,-100,4,1,1,40,0,0
92755,400,4,1,1,20,1,0
93155,444.444444444444,4,1,1,20,1,0
93599,480,4,1,1,20,1,0
94079,545.454545454546,4,1,1,20,1,0
94351,666.666666666667,4,1,1,20,1,0
94517,750,4,1,1,20,1,0
94704,800,4,1,1,20,1,0
95104,857.142857142857,4,1,1,20,1,0
95318,1000,4,1,1,20,1,0
95568,1200,4,1,1,20,1,0
95868,1500,4,1,1,20,1,0

[Colours]
Combo1 : 255,185,255
Combo2 : 255,0,255

[HitObjects]
126,211,55,6,0,B|176:288|104:336,1,142.5,4|0,0:0|0:0,0:0:0:0:
208,160,855,2,0,B|252:179|297:138,1,95,0|8,0:0|0:0,0:0:0:0:
78,42,1255,2,0,B|71:98|124:127,1,95,0|8,0:0|0:0,0:0:0:0:
192,80,1655,5,0,0:0:0:0:
192,80,1955,1,0,0:0:0:0:
192,80,2455,1,0,0:0:0:0:
200,176,2655,1,8,0:0:0:0:
192,80,2855,1,0,0:0:0:0:
112,128,3055,1,8,0:0:0:0:
192,80,3255,6,0,B|264:112|336:48,1,142.5
324,57,4055,2,0,B|360:96|344:152,1,95,0|8,0:0|0:0,0:0:0:0:
220,266,4455,2,0,B|184:227|200:171,1,95,0|8,0:0|0:0,0:0:0:0:
408,200,4855,6,0,B|384:240|304:240|280:200,1,142.5
136,80,5555,1,0,0:0:0:0:
120,91,5655,1,0,0:0:0:0:
114,109,5755,1,0,0:0:0:0:
119,127,5855,1,8,0:0:0:0:
131,141,5955,1,8,0:0:0:0:
147,150,6055,1,0,0:0:0:0:
147,150,6455,6,0,B|192:184|168:256,1,95,4|0,0:0|0:0,0:0:0:0:
168,256,6755,1,8,0:0:0:0:
152,272,6855,1,0,0:0:0:0:
224,336,7055,1,8,0:0:0:0:
272,248,7255,5,0,0:0:0:0:
360,208,7455,1,8,0:0:0:0:
147,151,7655,5,0,0:0:0:0:
59,191,7855,1,8,0:0:0:0:
48,208,7955,1,0,0:0:0:0:
48,224,8055,6,0,B|88:264|64:320,1,95,0|0,0:0|0:0,0:0:0:0:
67,311,8355,2,0,B|136:320,1,47.5,8|0,0:0|0:0,0:0:0:0:
208,328,8655,1,8,0:0:0:0:
240,240,8855,5,0,0:0:0:0:
320,192,9055,1,8,0:0:0:0:
344,48,9255,5,0,0:0:0:0:
264,96,9455,1,8,0:0:0:0:
248,104,9555,1,0,0:0:0:0:
232,104,9655,6,0,B|184:104|152:56,1,95
136,48,9955,1,8,0:0:0:0:
120,56,10055,1,0,0:0:0:0:
56,128,10255,1,8,0:0:0:0:
88,248,10455,6,0,B|128:216|120:160,1,95,0|8,0:0|0:0,0:0:0:0:
224,328,10855,2,0,B|184:296|192:240,1,95,0|8,0:0|0:0,0:0:0:0:
256,176,11255,5,6,0:0:0:0:
360,40,11555,1,6,0:0:0:0:
472,176,11855,1,6,0:0:0:0:
409,309,12055,5,0,0:0:0:0:
401,320,12155,1,0,0:0:0:0:
389,329,12255,1,8,0:0:0:0:
376,335,12355,1,0,0:0:0:0:
361,337,12455,1,8,0:0:0:0:
347,337,12555,1,8,0:0:0:0:
333,333,12655,1,8,0:0:0:0:
320,324,12755,1,8,0:0:0:0:
312,312,12855,1,6,0:0:0:0:
52,314,16055,5,0,0:0:0:0:
112,240,16455,1,0,0:0:0:0:
136,144,16855,1,0,0:0:0:0:
128,48,17255,1,10,0:0:0:0:
460,314,17655,5,0,0:0:0:0:
400,240,18055,1,0,0:0:0:0:
376,144,18455,1,0,0:0:0:0:
384,48,18655,1,8,0:0:0:0:
384,48,18755,1,8,0:0:0:0:
384,48,18855,1,10,0:0:0:0:
256,192,19255,5,0,0:0:0:0:
256,96,19455,2,0,B|256:48,2,47.5,0|0|8,0:0|0:0|0:0,0:0:0:0:
176,144,19855,2,0,B|136:112,2,47.5
176,240,20255,2,0,B|136:272,2,47.5,0|0|8,0:0|0:0|0:0,0:0:0:0:
256,288,20655,2,0,B|256:344,2,47.5
336,240,21055,2,0,B|376:272,2,47.5,0|0|8,0:0|0:0|0:0,0:0:0:0:
336,144,21455,2,0,B|376:112,2,47.5,0|0|0,0:0|0:0|0:0,0:0:0:0:
424,192,21855,5,8,0:0:0:0:
256,288,22055,1,0,0:0:0:0:
88,192,22255,1,8,0:0:0:0:
184,168,22455,6,0,B|200:120|184:72,1,95
184,74,22755,1,0,0:0:0:0:
184,74,22855,1,8,0:0:0:0:
344,80,23055,1,8,0:0:0:0:
344,80,23155,1,8,0:0:0:0:
344,80,23255,6,0,B|328:128|344:176,1,95
343,173,23555,1,0,0:0:0:0:
343,173,23655,1,8,0:0:0:0:
376,320,23855,1,8,0:0:0:0:
376,320,23955,1,8,0:0:0:0:
376,320,24055,6,0,B|320:304|304:248,1,95
307,259,24355,1,0,0:0:0:0:
307,259,24455,1,8,0:0:0:0:
136,320,24655,1,8,0:0:0:0:
136,320,24755,1,8,0:0:0:0:
136,320,24855,6,0,B|192:304|208:248,1,95,0|8,0:0|0:0,0:0:0:0:
256,40,25255,1,8,0:0:0:0:
256,40,25455,1,8,0:0:0:0:
48,80,25655,5,0,0:0:0:0:
128,136,25855,1,0,0:0:0:0:
152,224,26055,1,8,0:0:0:0:
136,320,26255,1,8,0:0:0:0:
256,192,26455,5,0,0:0:0:0:
234,184,26555,1,0,0:0:0:0:
220,173,26655,1,8,0:0:0:0:
221,155,26755,1,8,0:0:0:0:
228,133,26855,1,8,0:0:0:0:
464,80,27255,5,0,0:0:0:0:
384,136,27455,1,0,0:0:0:0:
360,224,27655,1,8,0:0:0:0:
376,320,27855,1,8,0:0:0:0:
256,192,28055,5,0,0:0:0:0:
278,184,28155,1,0,0:0:0:0:
292,173,28255,1,8,0:0:0:0:
291,155,28355,1,8,0:0:0:0:
284,133,28455,1,8,0:0:0:0:
48,304,28855,6,0,B|72:256|48:200,1,95
120,40,29255,2,8,B|100:84|124:132,1,95,10|8,0:0|0:0,0:0:0:0:
232,352,29655,2,0,B|235:298|191:256,1,95
195,80,30055,2,8,B|194:128|235:163,1,95,10|8,0:0|0:0,0:0:0:0:
464,288,30455,2,0,B|436:242|375:232,1,95
277,86,30855,2,8,B|304:125|357:131,1,95,10|8,0:0|0:0,0:0:0:0:
464,144,31255,5,0,0:0:0:0:
464,144,31455,1,8,0:0:0:0:
464,144,31655,1,8,0:0:0:0:
464,144,31855,1,8,0:0:0:0:
336,224,32055,6,0,B|312:264|336:320,1,95,6|0,0:0|0:0,0:0:0:0:
256,104,32455,2,0,B|280:144|256:200,1,95,8|0,0:0|0:0,0:0:0:0:
360,56,32855,1,0,0:0:0:0:
349,72,32955,1,0,0:0:0:0:
345,90,33055,1,8,0:0:0:0:
347,108,33155,1,8,0:0:0:0:
353,125,33255,1,2,0:0:0:0:
456,304,33455,1,8,0:0:0:0:
456,304,33655,6,0,B|416:328|352:312,1,95,0|0,0:0|0:0,0:0:0:0:
248,144,34055,2,0,B|288:176|296:232,1,95,8|0,0:0|0:0,0:0:0:0:
256,320,34455,1,0,0:0:0:0:
243,328,34555,1,0,0:0:0:0:
229,333,34655,1,8,0:0:0:0:
214,335,34755,1,8,0:0:0:0:
199,334,34855,1,2,0:0:0:0:
112,296,35055,1,8,0:0:0:0:
112,296,35255,6,0,B|160:224|96:152,1,142.5,6|8,0:0|0:0,0:0:0:0:
200,96,35655,2,0,B|176:136|208:184,1,95,0|8,0:0|0:0,0:0:0:0:
280,272,36055,2,0,B|328:200|264:128,1,142.5,6|8,0:0|0:0,0:0:0:0:
368,72,36455,2,0,B|344:112|376:160,1,95,0|8,0:0|0:0,0:0:0:0:
448,216,36855,6,0,B|424:320,1,95,6|0,0:0|0:0,0:0:0:0:
344,296,37155,1,8,0:0:0:0:
344,296,37255,2,0,B|296:272|224:304,1,95,6|8,0:0|0:0,0:0:0:0:
152,272,37655,5,6,0:0:0:0:
141,255,37755,1,0,0:0:0:0:
137,236,37855,1,8,0:0:0:0:
139,217,37955,1,8,0:0:0:0:
148,200,38055,1,6,0:0:0:0:
161,187,38155,1,8,0:0:0:0:
178,179,38255,1,8,0:0:0:0:
196,176,38355,1,8,0:0:0:0:
214,177,38455,5,6,0:0:0:0:
272,192,38655,1,0,0:0:0:0:
312,232,38855,1,8,0:0:0:0:
320,288,39055,1,0,0:0:0:0:
448,320,39255,5,0,0:0:0:0:
408,256,39455,1,0,0:0:0:0:
400,184,39655,1,8,0:0:0:0:
424,112,39855,1,0,0:0:0:0:
336,48,40055,5,0,0:0:0:0:
272,104,40255,1,0,0:0:0:0:
192,128,40455,1,8,0:0:0:0:
104,136,40655,1,0,0:0:0:0:
40,272,40855,5,0,0:0:0:0:
136,232,41055,1,0,0:0:0:0:
240,232,41255,1,8,0:0:0:0:
336,272,41455,1,0,0:0:0:0:
295,180,41655,5,0,0:0:0:0:
281,340,41855,1,0,0:0:0:0:
432,272,42055,1,8,0:0:0:0:
295,180,42255,1,0,0:0:0:0:
271,352,42455,5,0,0:0:0:0:
441,275,42666,1,0,0:0:0:0:
286,171,42896,1,8,0:0:0:0:
271,352,43127,1,0,0:0:0:0:
329,270,43358,6,0,B|353:230,3,47.5
329,270,43879,1,8,0:0:0:0:
256,240,44179,1,8,0:0:0:0:
224,168,44554,1,6,0:0:0:0:
120,336,48455,6,0,B|192:288|176:160,1,190
176,165,49255,2,0,B|208:240|296:232,1,126.666666666667
400,256,49921,2,0,B|352:168|432:80,2,190
464,216,50855,2,0,B|424:160|312:184|320:280,1,190
264,336,51521,1,0,0:0:0:0:
264,336,51655,1,0,0:0:0:0:
168,296,51921,5,0,0:0:0:0:
168,296,52055,2,0,B|216:232|160:152,1,126.666666666667
256,32,52455,2,0,B|208:96|264:176,1,126.666666666667
288,232,52855,2,0,B|432:176,1,126.666666666667
184,208,53521,1,0,0:0:0:0:
360,304,53921,1,0,0:0:0:0:
360,304,54055,2,0,B|256:248|160:344,1,190
40,64,54855,5,2,0:0:0:0:
256,336,55255,1,0,0:0:0:0:
64,240,55655,1,0,0:0:0:0:
256,336,56055,1,0,0:0:0:0:
472,64,56455,5,2,0:0:0:0:
256,336,56855,1,0,0:0:0:0:
448,240,57255,1,0,0:0:0:0:
256,336,57655,1,0,0:0:0:0:
88,184,58055,5,2,0:0:0:0:
128,296,58255,1,0,0:0:0:0:
168,176,58455,1,0,0:0:0:0:
64,256,58655,1,0,0:0:0:0:
192,248,58855,1,2,0:0:0:0:
256,48,59255,1,0,0:0:0:0:
416,104,59655,5,2,0:0:0:0:
376,216,59855,1,0,0:0:0:0:
336,96,60055,1,6,0:0:0:0:
440,176,60255,1,0,0:0:0:0:
312,168,60455,1,2,0:0:0:0:
256,256,60655,1,0,0:0:0:0:
200,168,60855,1,2,0:0:0:0:
256,80,61055,1,0,0:0:0:0:
48,312,62755,5,0,0:0:0:0:
120,248,62942,1,8,0:0:0:0:
168,160,63130,1,0,0:0:0:0:
176,64,63317,1,8,0:0:0:0:
264,24,63505,5,0,0:0:0:0:
272,120,63692,1,8,0:0:0:0:
320,208,63880,1,0,0:0:0:0:
392,272,64067,1,8,0:0:0:0:
264,336,64255,6,0,B|224:296|232:232,1,95,0|8,0:0|0:0,0:0:0:0:
87,335,64630,2,0,B|127:295|119:231,1,95,0|8,0:0|0:0,0:0:0:0:
176,168,65005,1,0,0:0:0:0:
176,168,65098,1,8,0:0:0:0:
176,168,65192,1,0,0:0:0:0:
232,96,65380,5,0,0:0:0:0:
246,108,65473,1,8,0:0:0:0:
257,123,65567,1,0,0:0:0:0:
263,141,65661,1,8,0:0:0:0:
265,159,65755,1,0,0:0:0:0:
320,312,65942,6,0,B|416:336,1,95,8|0,0:0|0:0,0:0:0:0:
304,232,66317,2,0,B|396:196,1,95,8|0,0:0|0:0,0:0:0:0:
240,184,66692,2,0,B|295:101,1,95,8|0,0:0|0:0,0:0:0:0:
160,176,67067,2,0,B|158:77,1,95,8|0,0:0|0:0,0:0:0:0:
88,200,67442,2,0,B|29:119,1,95,8|0,0:0|0:0,0:0:0:0:
184,304,67817,5,8,0:0:0:0:
184,304,68005,1,0,0:0:0:0:
280,304,68192,1,8,0:0:0:0:
294,302,68286,1,0,0:0:0:0:
307,296,68380,1,0,0:0:0:0:
318,287,68473,1,8,0:0:0:0:
326,275,68567,1,8,0:0:0:0:
328,260,68661,1,8,0:0:0:0:
326,245,68755,6,0,B|299:188|330:146,1,95,6|8,0:0|0:0,0:0:0:0:
312,56,69130,1,0,0:0:0:0:
248,128,69317,1,8,0:0:0:0:
160,160,69505,1,0,0:0:0:0:
64,160,69692,1,8,0:0:0:0:
24,248,69880,5,0,0:0:0:0:
120,248,70067,1,8,0:0:0:0:
208,280,70255,1,0,0:0:0:0:
272,352,70442,1,8,0:0:0:0:
392,264,70630,6,0,B|360:304|368:360,1,95,0|8,0:0|0:0,0:0:0:0:
456,320,71005,2,0,B|488:280|480:224,1,95,0|8,0:0|0:0,0:0:0:0:
448,144,71380,1,0,0:0:0:0:
368,88,71567,1,8,0:0:0:0:
352,80,71661,1,8,0:0:0:0:
336,80,71755,1,6,0:0:0:0:
256,176,71942,5,8,0:0:0:0:
168,104,72130,1,0,0:0:0:0:
80,176,72317,1,8,0:0:0:0:
168,248,72505,1,0,0:0:0:0:
295,175,72692,5,8,0:0:0:0:
168,71,72880,1,0,0:0:0:0:
40,175,73067,1,8,0:0:0:0:
168,280,73255,5,0,0:0:0:0:
181,286,73348,1,0,0:0:0:0:
195,287,73442,1,8,0:0:0:0:
269,334,73630,1,0,0:0:0:0:
282,329,73723,1,0,0:0:0:0:
293,321,73817,1,8,0:0:0:0:
396,325,74005,5,0,0:0:0:0:
405,314,74098,1,0,0:0:0:0:
410,300,74192,1,8,0:0:0:0:
411,285,74286,1,0,0:0:0:0:
408,270,74380,1,0,0:0:0:0:
401,257,74473,1,8,0:0:0:0:
391,246,74567,1,0,0:0:0:0:
379,237,74661,1,8,0:0:0:0:
365,233,74755,6,0,B|339:223|311:241,2,47.5
45,127,75317,1,0,0:0:0:0:
168,80,75505,1,0,0:0:0:0:
256,328,75880,1,8,0:0:0:0:
256,328,76067,1,0,0:0:0:0:
256,328,76255,5,0,0:0:0:0:
256,328,76348,1,0,0:0:0:0:
256,328,76442,1,0,0:0:0:0:
467,127,76817,1,0,0:0:0:0:
344,80,77005,1,0,0:0:0:0:
256,248,77192,5,8,0:0:0:0:
256,328,77380,1,8,0:0:0:0:
256,328,77567,1,0,0:0:0:0:
144,272,77755,5,6,0:0:0:0:
144,272,77848,1,0,0:0:0:0:
144,272,77942,1,0,0:0:0:0:
144,272,78036,1,0,0:0:0:0:
144,272,78130,2,0,B|96:264|72:208,1,95,8|0,0:0|0:0,0:0:0:0:
208,216,78505,1,6,0:0:0:0:
208,216,78598,1,0,0:0:0:0:
208,216,78692,1,0,0:0:0:0:
208,216,78786,1,0,0:0:0:0:
208,216,78880,2,0,B|176:176|192:120,1,95,8|0,0:0|0:0,0:0:0:0:
304,216,79255,5,6,0:0:0:0:
304,216,79348,1,0,0:0:0:0:
304,216,79442,1,0,0:0:0:0:
304,216,79536,1,0,0:0:0:0:
304,216,79630,2,0,B|336:176|320:120,1,95,8|0,0:0|0:0,0:0:0:0:
368,272,80005,1,6,0:0:0:0:
368,272,80098,1,0,0:0:0:0:
368,272,80192,1,8,0:0:0:0:
368,272,80286,1,8,0:0:0:0:
368,272,80380,2,8,B|416:264|440:208,1,95,8|8,0:0|0:0,0:0:0:0:
448,80,80755,5,0,0:0:0:0:
448,80,80848,1,0,0:0:0:0:
448,80,80942,1,0,0:0:0:0:
256,264,81317,1,0,0:0:0:0:
256,264,81505,1,0,0:0:0:0:
256,264,81880,1,8,0:0:0:0:
256,264,82067,1,0,0:0:0:0:
64,80,82255,5,0,0:0:0:0:
64,80,82348,1,0,0:0:0:0:
64,80,82442,1,0,0:0:0:0:
256,264,82817,1,0,0:0:0:0:
256,264,83005,1,0,0:0:0:0:
256,264,83192,1,8,0:0:0:0:
256,264,83380,1,8,0:0:0:0:
256,264,83567,1,0,0:0:0:0:
36,234,83755,6,0,B|80:224|144:248,1,95,6|0,0:0|0:0,0:0:0:0:
256,264,84130,1,8,0:0:0:0:
256,264,84317,1,0,0:0:0:0:
475,234,84505,2,0,B|432:224|368:248,1,95,6|0,0:0|0:0,0:0:0:0:
256,224,84880,1,8,0:0:0:0:
256,224,85067,1,0,0:0:0:0:
64,120,85255,6,0,B|160:152,1,95,6|0,0:0|0:0,0:0:0:0:
256,192,85630,1,8,0:0:0:0:
256,192,85817,1,0,0:0:0:0:
448,120,86005,2,0,B|352:152,1,95,6|8,0:0|0:0,0:0:0:0:
256,152,86380,1,8,0:0:0:0:
256,152,86567,1,8,0:0:0:0:
64,304,86755,5,6,0:0:0:0:
184,288,86942,1,8,0:0:0:0:
184,288,87036,1,8,0:0:0:0:
184,288,87130,2,0,B|232:272|288:304,1,95,0|8,0:0|0:0,0:0:0:0:
448,200,87505,5,0,0:0:0:0:
328,216,87692,1,8,0:0:0:0:
328,216,87786,1,8,0:0:0:0:
328,216,87880,2,0,B|280:232|224:200,1,95,0|8,0:0|0:0,0:0:0:0:
112,184,88255,5,0,0:0:0:0:
152,64,88442,1,8,0:0:0:0:
160,72,88536,1,8,0:0:0:0:
168,80,88630,1,0,0:0:0:0:
256,168,88817,1,8,0:0:0:0:
400,184,89005,5,0,0:0:0:0:
360,64,89192,1,8,0:0:0:0:
352,72,89286,1,8,0:0:0:0:
344,80,89380,1,0,0:0:0:0:
256,168,89567,1,8,0:0:0:0:
352,328,89755,5,0,0:0:0:0:
368,312,89848,1,0,0:0:0:0:
376,288,89942,1,8,0:0:0:0:
256,312,90130,1,0,0:0:0:0:
240,328,90223,1,0,0:0:0:0:
232,352,90317,1,8,0:0:0:0:
104,304,90505,5,0,0:0:0:0:
126,295,90598,1,0,0:0:0:0:
145,281,90692,1,8,0:0:0:0:
160,263,90786,1,0,0:0:0:0:
170,241,90880,1,0,0:0:0:0:
173,217,90973,1,8,0:0:0:0:
168,193,91067,1,0,0:0:0:0:
48,192,91255,5,0,0:0:0:0:
464,192,91536,1,0,0:0:0:0:
256,328,91817,1,0,0:0:0:0:
256,328,91911,1,0,0:0:0:0:
256,328,92005,1,0,0:0:0:0:
160,72,92286,1,0,0:0:0:0:
352,72,92567,1,0,0:0:0:0:
352,72,92661,1,0,0:0:0:0:
352,72,92755,6,0,B|328:112,3,47.5,8|0|0|0,0:0|0:0|0:0|0:0,0:0:0:0:
416,152,93155,2,0,B|360:184,3,47.5,8|0|0|0,0:0|0:0|0:0|0:0,0:0:0:0:
424,264,93599,2,0,B|368:256,3,47.5,8|8|0|0,0:0|0:0|0:0|0:0,0:0:0:0:
392,360,94079,2,0,B|344:336,1,47.5
349,338,94351,2,0,B|296:360,1,47.5
216,336,94704,5,0,0:0:0:0:
168,288,94904,1,0,0:0:0:0:
160,224,95104,1,8,0:0:0:0:
176,160,95318,1,0,0:0:0:0:
208,208,95568,1,0,0:0:0:0:
216,264,95868,1,8,0:0:0:0:
264,232,96243,1,2,0:0:0:0:
