osu file format v5

[General]
AudioFilename: Revelation Theory.mp3
AudioLeadIn: 0
PreviewTime: -1
Countdown: 1
SampleSet: Normal
StackLeniency: 0.7
Mode: 0
LetterboxInBreaks: 1

[Metadata]
Title:Hell Yeah
Artist:Rev Theory
Creator:luke0719
Version:Normal
Source:
Tags:

[Difficulty]
HPDrainRate:4
CircleSize:4
OverallDifficulty:3
SliderMultiplier:1.4
SliderTickRate:4

[Events]
//Background and Video events
0,0,"rev.JPG"
//Break Periods
2,96620,107242
2,111084,113227
2,116799,118940
2,153584,178584
2,187512,189298
2,227690,229298
//Storyboard Layer 0 (Background)
//Storyboard Layer 1 (Failing)
//Storyboard Layer 2 (Passing)
//Storyboard Layer 3 (Foreground)
//Storyboard Sound Samples
//Background Colour Transformations
3,100,163,162,255

[TimingPoints]
5340,357.142857142857,4,1,0,100,1

[Colours]
Combo1 : 255,255,255
Combo2 : 5,240,5
Combo3 : 5,5,240
Combo4 : 240,5,5
Combo5 : 255,150,0

[HitObjects]
257,202,51411,1,0
186,114,51768,1,0
289,72,52125,2,4,B|321:40|353:40|385:40|417:72,1,140
467,168,52840,1,0
467,280,53197,1,0
355,283,53554,1,4
355,227,53732,1,4
186,202,54268,5,0
297,199,54625,1,0
244,297,54982,1,4
244,246,55161,1,4
304,86,55697,5,0
192,87,56054,1,0
249,182,56411,1,4
249,126,56590,1,4
89,180,57125,5,0
158,92,57482,1,0
262,53,57840,2,0,L|399:122,1,140
448,187,58554,1,0
448,298,58911,1,0
336,303,59268,2,4,B|309:278|284:268|264:263|264:263,1,70
113,306,59982,5,0
114,193,60340,1,0
204,257,60697,1,0
259,257,60875,1,0
427,258,61411,5,0
428,146,61768,1,0
326,193,62125,1,0
269,192,62304,1,0
101,192,62840,5,0
213,192,63197,1,0
212,303,63554,1,0
213,191,63911,1,0
211,79,64268,1,0
99,79,64625,2,4,B|74:109|97:159,1,70
371,143,65697,5,0
259,143,66054,1,0
147,143,66411,1,0
145,254,66768,1,0
148,142,67125,1,0
217,54,67482,2,4,B|273:39|311:60,1,70
473,259,68554,5,0
394,179,68911,1,0
301,115,69268,1,0
190,98,69625,1,0
84,134,69982,1,0
87,246,70340,2,4,B|137:300|175:309|212:300|254:285|330:209,1,280
412,283,71411,5,0
412,283,71590,1,0
369,179,71947,1,0
369,179,72125,1,0
316,79,72482,1,0
207,49,72840,1,0
97,50,73197,5,0
64,157,73554,1,0
115,163,73732,2,4,B|162:174|179:210|209:222|248:198|293:123,1,210
398,122,74625,5,0
399,233,74982,1,0
395,289,75161,2,4,B|311:356|277:353|247:352|203:339|175:321|151:301|137:294|119:281|77:246,1,350
354,51,77125,5,0
242,49,77482,1,0
140,96,77840,1,0
231,160,78197,1,0
338,129,78554,1,4
438,179,78911,2,4,B|439:214|463:225|480:254|495:278|445:306,1,140
397,304,79447,2,4,B|321:328|285:328|261:304|219:319|193:271,1,210
104,220,80340,1,0
136,112,80697,1,0
188,91,80875,2,4,B|244:104|309:126|356:159|378:191|383:228|343:259|270:238|237:233|198:227,1,350
463,49,82840,5,0
350,50,83197,1,0
238,50,83554,1,0
310,131,83911,1,0
398,185,84268,1,0
438,280,84625,1,0
342,338,84982,1,0
285,336,85161,2,4,B|295:335|272:346|234:364|192:355|174:324|175:297|185:251|162:226,1,210
74,175,86054,1,0
75,62,86411,1,4
130,60,86590,2,4,B|162:88|199:104|239:61|273:46|317:65|346:87,1,210
435,113,87482,5,0
436,224,87839,1,0
416,276,88018,2,4,B|384:312|362:331|333:341|290:348|255:341|220:331,1,210
118,306,88911,2,4,B|72:256|49:224|40:166|51:113|88:80|111:56|155:44|197:40,1,350
296,49,90161,1,0
403,82,90518,1,0
455,180,90875,2,4,B|463:230|450:266|442:292|428:317|390:337|337:332,1,210
242,322,91768,1,0
130,318,92125,5,4
100,270,92304,2,4,B|82:209|87:162|109:125|134:102|164:77,1,210
265,51,93197,1,0
366,98,93554,1,0
429,190,93911,1,4
400,298,94268,1,4
256,192,94625,12,4,96411
257,192,108554,6,0,B|330:147,1,70
365,127,108911,1,0
270,67,109268,1,0
157,67,109625,1,0
159,178,109982,2,0,B|159:262,1,70
215,247,110339,2,0,B|307:247,1,70
341,246,110697,1,0
397,247,110875,1,0
256,194,114268,6,0,B|183:149,1,70
148,129,114625,1,0
243,69,114982,1,0
356,69,115339,1,0
354,180,115697,2,0,B|354:264,1,70
298,249,116054,2,0,B|206:249,1,70
172,248,116411,1,4
116,249,116589,1,4
162,69,119982,6,0,B|116:99|89:131|73:162|60:196,1,140
65,283,120697,1,0
176,290,121054,2,0,B|226:331|281:345|324:331,1,140
416,337,121768,1,0
471,337,121947,1,0
467,56,122839,6,0,B|411:45|379:38|336:39|299:47,1,140
216,45,123554,1,0
103,44,123911,2,0,B|55:86|47:121|42:153|54:182,1,140
161,168,124625,1,0
216,169,124804,1,0
461,303,125697,5,0
431,194,126054,1,0
353,113,126411,1,0
244,83,126768,1,0
132,83,127125,1,0
105,132,127304,6,4,B|73:216,1,70
134,212,127661,6,4,B|222:239,1,70
255,246,128018,1,4
416,290,128554,5,0
416,290,128732,1,0
331,216,129089,5,0
331,216,129268,1,0
346,326,129625,5,0
399,227,129982,5,0
400,115,130339,1,0
299,66,130697,1,0
247,64,130875,2,4,B|136:263,1,210
257,249,131768,1,0
368,249,132125,1,0
418,224,132304,2,4,B|459:171|459:139|434:101|399:84|359:67|333:67,1,210
60,50,134268,5,0
153,112,134625,1,0
246,50,134982,1,0
336,115,135339,1,0
437,163,135697,1,0
438,274,136054,2,4,B|292:274,1,140
241,276,136589,2,4,B|236:283|191:305|153:295|99:300|74:281|53:244,1,210
54,132,137482,5,0
147,70,137839,1,0
203,66,138018,2,4,B|259:105|298:137|318:167|328:202|335:237|338:270|318:308|282:331|236:340,1,350
433,50,139982,5,0
434,161,140339,1,0
434,272,140697,1,0
322,271,141054,1,0
210,274,141411,1,0
97,274,141768,2,4,B|70:231|69:199|87:167|116:139,1,140
142,102,142304,2,4,B|173:62|196:35|242:32|275:32|313:48|345:74,1,210
437,67,143197,5,0
437,178,143554,1,0
380,180,143732,2,4,B|368:164|321:123|277:108|226:114|200:146|184:170,1,210
83,153,144625,1,0
81,264,144982,1,0
135,275,145161,2,0,B|183:300|216:314|254:314|289:309|321:298|355:279,1,210
423,218,146054,6,4,B|404:133|381:107|336:79|292:124|272:158|247:193|213:151|186:109|145:95,1,350
56,50,147304,1,0
63,161,147661,1,0
75,272,148018,6,4,B|104:314|133:339|164:348|198:349|235:345|279:311,1,210
368,322,148911,1,0
431,229,149268,1,0
431,173,149447,2,4,B|412:131|361:112|326:117|305:145|274:174|244:204,1,210
147,193,150339,1,0
85,99,150697,1,0
192,66,151054,1,4
302,50,151411,1,4
256,192,151768,12,0,153554
257,192,179625,1,0
312,191,179804,2,0,B|383:191,1,70
388,135,180161,1,0
219,135,180697,1,0
163,136,180875,2,0,B|163:224,1,70
162,262,181232,1,4
459,66,182482,5,0
421,107,182661,2,0,B|373:158,1,70
334,199,183018,1,0
213,82,183554,1,0
177,125,183732,2,0,B|126:191,1,70
102,226,184089,1,4
475,344,185339,5,0
438,301,185518,2,0,B|385:236,1,70
354,206,185875,1,0
186,208,186411,1,0
228,171,186589,2,0,B|281:125,1,70
327,93,186947,1,4
55,58,190339,5,0
162,59,190697,1,0
121,98,190875,2,4,B|70:112|41:139|45:176|50:221|84:248|104:267,1,210
190,199,191768,1,0
237,97,192125,1,0
292,95,192304,2,4,B|340:78|378:70|421:83|456:97|482:114|494:141|492:173|476:220|440:236|399:268|363:281|190:291,1,560
45,209,194268,5,0
156,211,194625,1,0
157,99,194982,1,0
268,99,195339,1,0
379,99,195697,1,0
470,163,196054,2,4,B|389:173|348:192|326:205,1,140
286,227,196589,2,4,B|244:264|197:287|139:284|114:266|92:244,1,210
93,135,197482,5,0
181,66,197839,1,0
237,65,198018,2,4,B|269:115|322:107|364:80|432:47|462:96|447:131|421:149|389:171|366:227,1,350
48,335,199982,5,0
138,269,200339,1,0
139,156,200697,1,0
139,44,201054,1,0
250,38,201411,1,0
250,150,201768,2,4,B|206:197|196:227|197:254|218:296,1,140
262,291,202304,2,4,B|308:269|334:245|359:207|373:175|386:136|386:109,1,210
304,49,203197,1,0
192,49,203554,1,0
146,81,203732,2,4,B|198:101|224:119|247:158|235:199|154:178|112:168|63:196|36:239|95:268|150:300,1,350
465,318,205697,5,0
353,318,206054,1,0
241,319,206411,1,0
128,319,206768,1,0
65,226,207125,1,0
69,114,207482,2,4,B|118:82|153:64|190:62|219:76,1,140
192,125,208018,2,4,B|177:184|186:212|222:229|257:241|287:242|319:242,1,210
429,242,208911,5,0
463,135,209268,1,0
407,128,209447,2,4,B|439:150|364:194|327:195|279:196|228:193|164:221|165:279|239:313,1,350
446,49,211411,5,0
333,49,211768,1,0
221,49,212125,1,0
332,49,212482,1,0
220,49,212839,1,0
108,53,213197,6,4,B|61:86|44:113|35:145|35:177,1,140
82,196,213732,2,4,B|109:161|143:140|182:125|213:117|256:112|285:113,1,210
380,111,214625,1,0
478,163,214982,1,0
456,214,215161,2,4,B|422:192|393:182|354:175|318:175|276:184|240:202,1,210
142,192,216054,5,0
42,243,216411,1,0
45,299,216589,2,4,B|96:279|129:268|168:267|207:279|231:291|254:304,1,210
358,304,217482,2,0,B|391:236,1,70
413,190,217839,1,0
439,140,218018,1,0
376,47,218375,1,0
264,49,218732,1,0
152,51,219089,1,0
41,66,219447,6,4,B|79:107|104:128|126:142|163:152|193:154|237:137,1,210
335,140,220339,1,0
444,161,220697,1,0
439,216,220875,2,4,B|411:246|386:274|352:299|315:309|262:310|235:295,1,210
154,259,221768,1,0
93,164,222125,1,0
127,57,222482,1,0
256,192,222839,12,0,224268
256,193,224625,5,0
332,111,224982,1,0
387,110,225161,2,4,B|426:138|440:164|397:207|363:226|333:248|291:268,1,210
209,307,226054,1,0
102,272,226411,1,0
62,232,226589,2,4,B|44:186|52:143|92:135|126:193|147:243|166:254|197:259|241:237|271:206|271:126,1,350
57,316,230339,5,0
142,243,230697,1,0
85,241,230875,2,4,B|71:198|115:169|154:161|198:170|233:194|248:221,1,210
250,99,231768,1,0
340,33,232125,1,0
344,88,232304,2,4,B|365:85|400:86|436:114|471:144|479:182|453:214|430:236|405:255|363:283|310:293,1,350
256,192,233554,12,0,235697
