osu file format v14

[General]
AudioFilename: Audiofile.mp3
AudioLeadIn: 0
PreviewTime: 23727
Countdown: 0
SampleSet: Normal
StackLeniency: 0.7
Mode: 0
LetterboxInBreaks: 0
WidescreenStoryboard: 0

[Editor]
Bookmarks: 23735
DistanceSpacing: 1
BeatDivisor: 4
GridSize: 8
TimelineZoom: 3.099999

[Metadata]
Title:ULETAJ
TitleUnicode:ULETAJ
Artist:Retroflex Encoded
ArtistUnicode:Retroflex Encoded
Creator:Marmowka
Version:Normal
Source:
Tags:russian glitch acontrariproject retroflex encoded natalia morozova fly away on the wings of the wind prince igor alexander borodin -bakari-
BeatmapID:639325
BeatmapSetID:282749

[Difficulty]
HPDrainRate:4
CircleSize:3.5
OverallDifficulty:4
ApproachRate:5
SliderMultiplier:1
SliderTickRate:1

[Events]
//Background and Video events
0,0,"sfsfsfs_000001.jpg",0,0
//Break Periods
//Storyboard Layer 0 (Background)
//Storyboard Layer 1 (Fail)
//Storyboard Layer 2 (Pass)
//Storyboard Layer 3 (Foreground)
//Storyboard Sound Samples

[TimingPoints]
24,370.37037037037,4,2,1,45,1,0
24,-133.333333333333,4,2,1,45,0,0
14098,-133.333333333333,4,2,1,25,0,0
14144,-133.333333333333,4,2,1,45,0,0
18172,-133.333333333333,4,2,1,60,0,0
23727,-90.9090909090909,4,1,1,100,0,1
23820,-90.9090909090909,4,1,1,100,0,0
24653,-90.9090909090909,4,1,2,100,0,0
25023,-90.9090909090909,4,1,1,100,0,0
27801,-90.9090909090909,4,1,2,100,0,0
27986,-90.9090909090909,4,1,1,100,0,0
31875,-90.9090909090909,4,1,2,100,0,0
32246,-90.9090909090909,4,1,1,100,0,0
35579,-90.9090909090909,4,1,1,100,0,1
35672,-90.9090909090909,4,1,1,100,0,0
37801,-90.9090909090909,4,1,2,100,0,0
38172,-90.9090909090909,4,1,1,100,0,0
43542,-90.9090909090909,4,1,2,100,0,0
43727,-90.9090909090909,4,1,1,100,0,0

[Colours]
Combo1 : 225,238,111
Combo2 : 255,154,53
Combo3 : 102,221,242
Combo4 : 237,115,247

[HitObjects]
53,118,24,6,0,B|54:77|36:48|36:48|78:41|110:82|110:82|154:34|222:58|225:116,1,300.000011444092
187,168,1875,1,0,0:0:0:0:
158,237,2246,2,0,P|160:277|193:310,1,75.0000028610231,2|0,0:0|0:0,0:0:0:0:
241,347,2986,2,0,B|273:365|309:346|309:346|384:372|460:254|410:180,1,300.000011444092,2|0,0:0|0:0,0:0:0:0:
365,138,4838,6,0,B|395:103|447:125,2,75.0000028610231,0|2|0,0:0|0:0|0:0,0:0:0:0:
307,186,5949,2,0,B|275:212|229:193,1,75.0000028610231
163,180,6690,2,0,P|99:108|187:100,1,225.000008583069,2|0,0:0|0:0,0:0:0:0:
235,152,8172,2,0,P|240:197|215:235,1,75.0000028610231,2|0,0:0|0:0,0:0:0:0:
197,291,8912,2,0,B|229:309|265:290|265:290|340:316|422:197|362:125,1,300.000011444092,2|0,0:0|0:0,0:0:0:0:
321,82,10764,6,0,P|295:119|301:163,2,75.0000028610231,2|2|2,0:0|0:0|0:0,0:0:0:0:
381,37,11875,1,2,0:0:0:0:
381,37,12246,1,0,0:0:0:0:
428,96,12616,2,0,P|454:173|428:248,1,150.000005722046,2|0,0:0|0:0,0:0:0:0:
413,308,13727,2,0,B|430:352|484:353,2,75.0000028610231
366,248,14838,1,2,0:0:0:0:
351,174,15209,2,8,B|347:86|269:60|269:60|257:105|204:95,1,225.000008583069,0|0,0:0|0:0,0:0:0:0:
140,76,16690,6,0,P|98:69|54:89,2,75.0000028610231,2|0|2,0:0|0:0|0:0,0:0:0:0:
189,132,17801,1,0,3:0:0:0:
233,192,18172,2,0,B|265:211|265:211|300:198|300:198|327:217|368:204|368:204|365:162|386:130|386:130|376:83|343:66,1,300.000011444092,0|0,0:0|3:0,0:0:0:0:
275,92,20023,1,0,3:0:0:0:
275,92,20394,1,0,3:0:0:0:
256,192,20764,12,0,22986,3:0:0:0:
32,138,23727,6,0,P|88:130|136:170,1,110.000003356934,4|2,0:0|0:0,0:0:0:0:
157,207,24283,1,0,0:0:0:0:
168,260,24468,2,8,B|209:213|256:248|256:248|270:213|270:213|302:234|302:234|323:195,1,220.000006713867,0|4,0:0|0:0,0:0:0:0:
395,114,25579,2,0,P|404:56|366:4,2,110.000003356934,0|0|0,0:0|0:0|2:0,0:0:0:0:
338,208,26690,2,0,P|272:240|256:288,1,110.000003356934,4|2,0:3|0:3,0:0:0:0:
228,317,27246,1,0,0:0:0:0:
184,352,27431,2,0,P|144:314|152:240,1,110.000003356934,0|0,0:0|2:0,0:0:0:0:
173,217,27986,1,4,0:3:0:0:
218,185,28172,2,0,P|224:126|181:86,1,110.000003356934,4|0,0:3|0:0,0:0:0:0:
96,40,28912,6,0,P|54:85|54:141,2,110.000003356934,0|0|4,0:0|0:0|0:3,0:0:0:0:
147,60,29838,1,0,0:0:0:0:
193,90,30023,1,2,0:3:0:0:
299,62,30394,2,0,B|311:103|311:103|348:113|354:155|354:155|377:190|360:235|360:235|402:258,1,220.000006713867,0|4,0:0|0:3,0:0:0:0:
442,335,31505,5,0,0:0:0:0:
334,359,31875,2,0,P|275:330|215:340,1,110.000003356934,2|0,0:3|0:0,0:0:0:0:
177,336,32431,1,0,0:0:0:0:
122,335,32616,1,4,0:3:0:0:
48,253,32986,2,0,P|14:198|18:139,2,110.000003356934,2|0|0,0:3|0:0|0:0,0:0:0:0:
149,296,34098,1,4,0:3:0:0:
241,237,34468,2,0,P|293:246|338:292,2,110.000003356934,2|0|0,0:3|0:0|0:0,0:0:0:0:
188,218,35394,1,0,0:0:0:0:
142,187,35579,5,4,0:3:0:0:
106,83,35949,2,0,P|162:79|217:108,1,110.000003356934,0|0,0:3|0:0,0:0:0:0:
266,257,36875,2,0,P|279:285|317:304,1,55.0000016784668,8|4,0:3|0:3,0:0:0:0:
398,345,37431,2,0,P|453:312|462:258,2,110.000003356934,0|0|0,0:0|0:0|3:0,0:0:0:0:
342,343,38357,1,0,0:0:0:0:
288,332,38542,1,4,0:3:0:0:
345,238,38912,2,0,B|400:208|397:148,1,110.000003356934,2|0,0:3|0:0,0:0:0:0:
270,41,39838,2,0,P|252:66|254:110,1,55.0000016784668,8|4,0:3|0:3,0:0:0:0:
251,199,40394,5,0,0:0:0:0:
176,280,40764,2,0,P|123:262|102:210,1,110.000003356934
85,162,41320,1,0,0:0:0:0:
76,108,41505,1,4,0:3:0:0:
76,107,41875,2,0,P|138:91|187:109,1,110.000003356934,2|0,0:3|0:0,0:0:0:0:
263,177,42616,2,0,L|308:117,2,55.0000016784668,0|4|4,0:0|0:3|0:3,0:0:0:0:
352,240,43357,6,0,P|376:288|359:341,1,110.000003356934,0|0,0:0|2:0,0:0:0:0:
307,324,43912,1,0,0:0:0:0:
254,305,44098,1,0,2:0:0:0:
208,272,44283,1,0,0:0:0:0:
170,232,44468,2,0,P|115:238|76:281,1,110.000003356934,4|0,0:3|0:0,0:0:0:0:
256,192,45209,12,0,46690,0:0:0:0:
338,122,47431,6,0,L|282:137,1,55.0000016784668,8|4,0:3|0:3,0:0:0:0:
218,163,47801,2,0,L|200:217,1,55.0000016784668,2|4,0:3|0:3,0:0:0:0:
142,258,48172,1,2,0:0:0:0:
