osu file format v14

[General]
AudioFilename: __Track_044_demo.mp3
AudioLeadIn: 0
PreviewTime: 58142
Countdown: 0
SampleSet: Normal
StackLeniency: 0.7
Mode: 0
LetterboxInBreaks: 0
WidescreenStoryboard: 0

[Editor]
DistanceSpacing: 2
BeatDivisor: 4
GridSize: 4
TimelineZoom: 2.100006

[Metadata]
Title:Track
TitleUnicode:Track
Artist:Retro Russian Mix
ArtistUnicode:Retro Russian Mix
Creator:Xazariorus
Version:Marathon
Source:
Tags:Retro, Mix, rus, ruki vverx, 132 bpm, Russia
BeatmapID:714907
BeatmapSetID:321366

[Difficulty]
HPDrainRate:4
CircleSize:4
OverallDifficulty:6
ApproachRate:8
SliderMultiplier:1.6
SliderTickRate:2

[Events]
//Background and Video events
0,0,"1.jpeg",0,0
//Break Periods
//Storyboard Layer 0 (Background)
//Storyboard Layer 1 (Fail)
//Storyboard Layer 2 (Pass)
//Storyboard Layer 3 (Foreground)
//Storyboard Sound Samples

[TimingPoints]
71,454.545454545455,4,1,0,50,1,0
178255,-66.6666666666667,4,1,0,50,0,0
179165,-100,4,1,0,50,0,0

[Colours]
Combo1 : 0,179,0
Combo2 : 0,202,202
Combo3 : 210,0,210
Combo4 : 204,204,0

[HitObjects]
120,116,71,5,4,0:0:0:0:
236,72,525,1,4,0:0:0:0:
276,48,980,2,8,P|292:104|216:188,1,160
428,264,1889,5,4,0:0:0:0:
320,328,2343,1,4,0:0:0:0:
276,344,2798,2,8,P|260:288|336:204,1,160
315,209,3480,6,4,L|352:168,2,40
284,156,3934,1,0,0:0:0:0:
288,108,4161,1,0,0:0:0:0:
324,76,4389,2,8,P|376:60|420:72,1,80
412,108,4843,5,0,0:0:0:0:
416,156,5071,1,4,0:0:0:0:
416,156,5298,1,0,0:0:0:0:
456,132,5525,5,0,0:0:0:0:
336,88,5980,1,0,0:0:0:0:
296,64,6434,2,8,P|280:120|356:204,1,160
280,276,7343,5,0,0:0:0:0:
400,320,7798,1,0,0:0:0:0:
440,344,8252,2,8,P|456:288|380:204,1,160
56,276,9161,5,0,0:0:0:0:
176,320,9616,1,0,0:0:0:0:
216,344,10071,2,8,P|232:288|156:204,1,160
208,120,10980,5,0,0:0:0:0:
88,76,11434,1,0,0:0:0:0:
48,52,11889,2,8,P|32:108|108:192,1,160
184,192,12798,5,0,0:0:0:0:
468,44,13252,1,0,0:0:0:0:
284,140,13707,2,8,L|360:100,2,80
56,80,14616,5,4,0:0:0:0:
255,330,15071,1,4,0:0:0:0:
126,168,15525,2,8,L|179:234,2,80
444,192,16434,5,4,0:0:0:0:
68,192,16889,1,4,0:0:0:0:
228,192,17116,1,8,0:0:0:0:
228,192,17343,1,8,0:0:0:0:
228,192,17571,1,8,0:0:0:0:
228,192,17798,1,8,0:0:0:0:
256,192,18252,12,0,19616,0:0:0:0:
324,252,20071,6,8,P|412:244|444:168,1,160
412,32,20752,2,0,L|336:32,1,40
92,32,21207,2,0,L|136:32,1,40
64,188,21434,2,8,P|120:256|220:244,1,160
64,324,22230,1,4,0:0:0:0:
64,324,22343,1,4,0:0:0:0:
224,320,22571,5,2,0:0:0:0:
412,60,23025,5,8,0:0:0:0:
252,60,23252,1,8,0:0:0:0:
344,256,23707,2,4,P|431:247|477:157,1,160
408,344,24389,5,8,0:0:0:0:
88,340,24843,1,8,0:0:0:0:
248,336,25071,2,4,L|248:256,2,80
440,192,25866,5,4,0:0:0:0:
440,192,25980,1,4,0:0:0:0:
288,236,26207,1,8,0:0:0:0:
40,36,26662,1,4,0:0:0:0:
168,132,26889,1,4,0:0:0:0:
176,256,27343,2,8,P|89:247|43:157,1,160
36,352,28025,5,4,0:0:0:0:
36,32,28480,1,4,0:0:0:0:
36,192,28707,2,8,L|128:192,2,80
256,192,29502,5,4,0:0:0:0:
256,192,29616,1,4,0:0:0:0:
256,32,29843,1,8,0:0:0:0:
256,352,30298,1,4,0:0:0:0:
392,264,30525,1,4,0:0:0:0:
456,60,30980,2,8,P|369:69|323:159,1,160
472,192,31662,5,0,0:0:0:0:
36,192,32116,1,0,0:0:0:0:
180,264,32343,2,8,P|212:182|155:100,1,160
412,48,33139,5,2,0:0:0:0:
172,52,33480,1,8,0:0:0:0:
172,52,33593,1,8,0:0:0:0:
392,152,33934,1,4,0:0:0:0:
240,200,34162,1,4,0:0:0:0:
360,308,34389,1,4,0:0:0:0:
200,320,34616,2,8,P|104:296|88:216,1,160
236,296,35298,5,0,0:0:0:0:
104,204,35525,1,0,0:0:0:0:
264,196,35752,1,0,0:0:0:0:
400,116,35980,2,8,P|341:50|241:66,1,160
32,40,36775,1,4,0:0:0:0:
32,40,36889,1,4,0:0:0:0:
28,192,37116,5,8,0:0:0:0:
348,192,37571,1,2,0:0:0:0:
188,192,37798,1,2,0:0:0:0:
348,192,38025,1,2,0:0:0:0:
508,192,38252,2,8,L|404:192,1,80
268,192,38707,1,4,0:0:0:0:
108,192,38934,5,2,0:0:0:0:
108,192,39162,1,2,0:0:0:0:
32,192,39389,2,8,L|72:192,1,40
132,140,39616,2,4,P|176:196|120:264,1,160
256,360,40298,5,8,0:0:0:0:
256,360,40412,1,8,0:0:0:0:
256,280,40525,1,8,0:0:0:0:
388,192,40752,1,4,0:0:0:0:
380,352,40980,1,4,0:0:0:0:
296,216,41207,1,4,0:0:0:0:
444,280,41434,2,8,L|352:268,1,80
208,236,41889,5,2,0:0:0:0:
464,44,42343,1,4,0:0:0:0:
464,204,42571,1,4,0:0:0:0:
344,96,42798,1,4,0:0:0:0:
192,44,43025,1,4,0:0:0:0:
40,92,43252,2,8,P|68:176|144:192,1,160
136,40,44048,5,4,0:0:0:0:
208,80,44162,1,4,0:0:0:0:
92,192,44389,5,8,0:0:0:0:
252,196,44616,1,8,0:0:0:0:
128,296,44843,1,8,0:0:0:0:
180,144,45071,1,8,0:0:0:0:
232,296,45298,1,8,0:0:0:0:
392,284,45525,6,4,P|428:212|380:140,1,160
476,284,46207,1,8,0:0:0:0:
468,124,46434,1,8,0:0:0:0:
324,52,46662,1,8,0:0:0:0:
164,48,46889,6,4,P|89:77|76:163,1,160
312,120,47684,5,8,0:0:0:0:
128,276,48025,1,8,0:0:0:0:
440,352,48480,6,0,L|376:300,1,80
256,24,49162,5,8,0:0:0:0:
180,52,49389,1,8,0:0:0:0:
116,100,49616,1,8,0:0:0:0:
96,192,49843,1,8,0:0:0:0:
120,272,50071,1,8,0:0:0:0:
176,332,50298,1,8,0:0:0:0:
256,348,50525,1,8,0:0:0:0:
256,24,50980,5,4,0:0:0:0:
332,52,51207,1,4,0:0:0:0:
396,100,51434,1,4,0:0:0:0:
416,192,51661,1,4,0:0:0:0:
392,272,51889,1,4,0:0:0:0:
336,332,52116,1,4,0:0:0:0:
256,348,52343,1,4,0:0:0:0:
376,304,52798,5,2,0:0:0:0:
316,248,52912,1,2,0:0:0:0:
256,192,53025,1,2,0:0:0:0:
200,132,53139,1,2,0:0:0:0:
144,72,53252,1,2,0:0:0:0:
144,312,53707,5,2,0:0:0:0:
200,252,53821,1,2,0:0:0:0:
256,192,53934,1,2,0:0:0:0:
316,136,54048,1,2,0:0:0:0:
376,80,54161,1,2,0:0:0:0:
40,112,54616,2,0,L|40:208,1,80
256,48,55071,2,0,L|352:48,1,80
480,192,55525,2,0,L|480:288,1,80
256,352,55980,2,0,L|160:352,1,80
164,180,56434,6,0,L|164:224,2,40
348,180,57116,6,0,L|348:224,4,40
256,192,58139,12,0,61662,0:0:0:0:
256,192,61889,5,0,0:0:0:0:
168,60,62116,1,0,0:0:0:0:
168,60,62343,1,0,0:0:0:0:
256,196,62571,1,0,0:0:0:0:
164,64,62798,1,0,0:0:0:0:
340,332,63252,5,2,0:0:0:0:
420,192,63480,5,8,0:0:0:0:
420,192,63593,1,8,0:0:0:0:
340,192,63707,1,8,0:0:0:0:
412,52,63934,5,0,0:0:0:0:
252,48,64162,1,0,0:0:0:0:
412,56,64389,1,0,0:0:0:0:
252,52,64616,1,0,0:0:0:0:
208,216,65071,5,2,0:0:0:0:
56,328,65298,5,8,0:0:0:0:
56,328,65412,1,8,0:0:0:0:
52,248,65525,1,8,0:0:0:0:
48,88,65752,5,0,0:0:0:0:
212,88,65980,1,0,0:0:0:0:
52,88,66207,1,0,0:0:0:0:
212,92,66434,1,0,0:0:0:0:
488,192,66889,5,2,0:0:0:0:
264,192,67116,2,0,L|316:192,2,40
256,192,67571,2,0,L|200:192,2,40
392,292,68139,2,0,L|344:292,1,40
112,292,68593,2,0,L|172:292,1,40
256,192,69162,5,0,0:0:0:0:
332,52,69389,1,8,0:0:0:0:
172,56,69616,1,0,0:0:0:0:
332,56,69843,1,8,0:0:0:0:
172,52,70071,1,0,0:0:0:0:
256,360,70525,5,2,0:0:0:0:
340,224,70752,5,8,0:0:0:0:
260,228,70866,1,8,0:0:0:0:
180,224,70980,1,8,0:0:0:0:
256,84,71207,5,0,0:0:0:0:
336,56,71434,1,0,0:0:0:0:
176,60,71662,1,0,0:0:0:0:
256,200,71889,1,0,0:0:0:0:
256,148,72343,5,2,0:0:0:0:
184,184,72571,5,8,0:0:0:0:
256,220,72684,1,8,0:0:0:0:
328,188,72798,1,8,0:0:0:0:
488,192,73025,5,0,0:0:0:0:
256,356,73252,1,0,0:0:0:0:
36,192,73480,1,0,0:0:0:0:
256,192,73707,1,0,0:0:0:0:
512,192,74162,5,4,0:0:0:0:
468,40,74389,2,0,L|408:92,1,80
284,196,74843,1,0,0:0:0:0:
288,188,75071,1,8,0:0:0:0:
128,188,75298,1,0,0:0:0:0:
136,184,75525,1,4,0:0:0:0:
260,44,75752,2,0,P|202:70|189:103,2,80
164,208,76434,5,0,0:0:0:0:
292,304,76662,1,0,0:0:0:0:
292,304,76889,1,0,0:0:0:0:
132,312,77116,2,4,L|72:264,2,40
256,16,77798,5,2,0:0:0:0:
116,92,78025,5,8,0:0:0:0:
116,92,78139,1,8,0:0:0:0:
116,92,78252,1,8,0:0:0:0:
276,100,78480,6,4,L|248:188,3,80
176,272,79616,5,2,0:0:0:0:
344,264,79843,5,8,0:0:0:0:
340,260,79957,1,8,0:0:0:0:
336,256,80071,1,8,0:0:0:0:
332,84,80298,5,0,0:0:0:0:
172,80,80525,1,0,0:0:0:0:
332,84,80752,1,0,0:0:0:0:
176,80,80980,1,0,0:0:0:0:
256,368,81434,5,2,0:0:0:0:
96,356,81662,2,4,L|40:300,1,80
188,356,82116,2,4,L|240:292,1,80
128,176,82571,5,8,0:0:0:0:
136,336,82798,1,8,0:0:0:0:
240,216,83025,2,0,P|297:242|310:275,2,80
448,204,83707,6,8,L|448:12,1,160
364,336,84616,2,8,L|364:144,1,160
256,116,85525,2,8,L|256:20,1,80
160,236,85980,2,2,B|256:308|256:308|364:224,1,240
56,156,87343,2,4,L|108:84,3,80
224,40,88252,1,0,0:0:0:0:
348,76,88480,2,8,B|404:80|460:200|460:200|220:200,1,400
236,268,89843,5,12,0:0:0:0:
236,268,90071,1,8,0:0:0:0:
236,268,90298,1,12,0:0:0:0:
52,336,90980,6,4,L|52:140,1,160
132,336,91889,2,4,L|132:144,1,160
264,336,92798,2,4,L|260:224,1,80
384,192,93252,2,8,B|256:108|256:108|112:192,1,320
428,324,94616,5,2,0:0:0:0:
428,324,95071,2,4,L|380:280,1,40
336,348,95298,1,8,0:0:0:0:
336,348,95752,2,4,L|300:312,2,40
132,104,96434,5,2,0:0:0:0:
448,48,96889,1,0,0:0:0:0:
448,48,97116,1,0,0:0:0:0:
448,48,97343,1,0,0:0:0:0:
448,48,97571,1,0,0:0:0:0:
4,192,98252,6,4,L|172:192,1,160
164,192,99162,2,4,L|328:192,1,160
324,192,100071,2,4,L|488:192,1,160
484,32,100752,1,0,0:0:0:0:
256,32,100980,1,0,0:0:0:0:
36,32,101207,1,0,0:0:0:0:
24,192,101775,6,8,L|96:192,4,40
96,156,102343,1,4,0:0:0:0:
96,228,102571,1,4,0:0:0:0:
236,152,102798,2,8,L|236:264,5,80
392,40,104162,1,0,0:0:0:0:
436,120,104389,1,0,0:0:0:0:
480,196,104616,1,0,0:0:0:0:
436,272,104843,1,0,0:0:0:0:
392,344,105071,1,0,0:0:0:0:
256,20,105525,6,8,L|256:156,2,120
256,180,106434,2,8,L|256:300,2,120
256,340,107343,1,4,0:0:0:0:
508,144,107798,2,4,L|508:252,3,80
28,240,109162,2,4,L|28:136,3,80
472,340,110525,1,0,0:0:0:0:
396,320,110639,1,0,0:0:0:0:
320,296,110752,1,0,0:0:0:0:
244,272,110866,1,0,0:0:0:0:
168,248,110980,1,0,0:0:0:0:
180,128,111434,2,4,L|64:128,4,80
48,48,113025,5,0,0:0:0:0:
148,172,113252,1,8,0:0:0:0:
148,172,113480,1,8,0:0:0:0:
48,48,113707,1,0,0:0:0:0:
148,172,113934,1,0,0:0:0:0:
248,296,114162,1,8,0:0:0:0:
248,296,114389,1,8,0:0:0:0:
476,40,114843,5,0,0:0:0:0:
352,140,115070,1,8,0:0:0:0:
352,140,115298,1,8,0:0:0:0:
476,40,115525,1,0,0:0:0:0:
352,140,115752,1,0,0:0:0:0:
228,240,115980,1,8,0:0:0:0:
228,240,116207,1,8,0:0:0:0:
256,132,116662,5,4,0:0:0:0:
168,264,116889,1,4,0:0:0:0:
328,264,117117,1,4,0:0:0:0:
196,176,117343,1,4,0:0:0:0:
356,188,117571,1,4,0:0:0:0:
244,300,117799,1,4,0:0:0:0:
256,140,118026,1,4,0:0:0:0:
256,40,118252,6,2,L|256:120,1,80
48,40,118707,2,2,L|48:136,2,80
124,240,119389,2,2,L|124:344,2,80
176,92,121434,5,8,0:0:0:0:
336,92,121662,1,8,0:0:0:0:
192,180,121889,2,4,P|264:220|332:160,1,160
256,328,122571,1,8,0:0:0:0:
416,332,122798,1,8,0:0:0:0:
176,332,123139,1,8,0:0:0:0:
68,116,123480,1,4,0:0:0:0:
68,116,123707,1,4,0:0:0:0:
56,276,123934,5,8,0:0:0:0:
216,276,124162,1,8,0:0:0:0:
56,276,124389,2,4,L|136:276,3,80
296,276,125298,1,2,0:0:0:0:
456,276,125525,2,4,L|352:276,2,80
456,116,126207,5,8,0:0:0:0:
316,40,126434,1,8,0:0:0:0:
76,52,126775,2,4,L|124:52,1,40
276,44,127116,1,8,0:0:0:0:
276,44,127343,1,8,0:0:0:0:
256,364,127798,5,6,0:0:0:0:
168,232,128025,1,6,0:0:0:0:
328,228,128252,1,6,0:0:0:0:
256,360,128480,1,6,0:0:0:0:
256,200,128707,1,6,0:0:0:0:
164,68,128934,2,0,P|280:4|352:84,1,240
256,200,129843,1,8,0:0:0:0:
256,200,130071,1,8,0:0:0:0:
16,192,130412,2,4,L|56:192,1,40
16,112,130752,1,8,0:0:0:0:
16,272,130980,1,8,0:0:0:0:
156,192,131207,6,4,L|244:192,1,80
372,108,131662,1,8,0:0:0:0:
372,268,131889,1,8,0:0:0:0:
512,192,132116,2,4,L|400:192,1,80
272,192,132571,1,0,0:0:0:0:
124,132,132798,2,4,P|72:196|132:272,1,160
496,272,133480,1,8,0:0:0:0:
496,112,133707,1,8,0:0:0:0:
496,192,134048,2,4,L|452:192,1,40
296,192,134389,1,8,0:0:0:0:
296,192,134616,1,8,0:0:0:0:
24,24,135071,5,10,0:0:0:0:
24,184,135298,1,10,0:0:0:0:
24,344,135525,1,10,0:0:0:0:
88,196,135752,2,8,L|168:196,1,80
328,192,136207,1,4,0:0:0:0:
472,124,136434,2,8,P|489:235|448:292,1,160
328,192,137116,1,4,0:0:0:0:
256,48,137343,5,8,0:0:0:0:
256,208,137571,2,4,L|256:104,3,80
32,356,138707,1,8,0:0:0:0:
192,352,138934,1,8,0:0:0:0:
352,356,139162,1,8,0:0:0:0:
232,252,139389,2,4,L|144:252,1,80
192,96,139843,1,4,0:0:0:0:
192,96,139957,1,4,0:0:0:0:
192,96,140071,1,4,0:0:0:0:
180,256,140298,1,8,0:0:0:0:
184,168,140525,5,2,0:0:0:0:
344,168,140752,1,2,0:0:0:0:
424,168,140980,2,4,L|276:96,1,160
280,98,141548,1,8,0:0:0:0:
504,12,141889,1,8,0:0:0:0:
364,92,142116,1,4,0:0:0:0:
364,92,142230,1,4,0:0:0:0:
364,92,142343,1,4,0:0:0:0:
208,132,142571,2,0,P|212:216|220:220,1,80
420,300,143139,2,4,L|384:276,1,40
256,184,143480,1,8,0:0:0:0:
256,184,143707,1,8,0:0:0:0:
512,192,144162,5,6,0:0:0:0:
352,192,144389,1,6,0:0:0:0:
432,192,144616,1,6,0:0:0:0:
192,192,144957,2,4,L|236:192,1,40
392,192,145298,1,8,0:0:0:0:
392,192,145525,1,8,0:0:0:0:
72,192,145980,1,0,0:0:0:0:
224,236,146207,2,4,L|224:120,1,80
96,60,146662,5,8,0:0:0:0:
92,220,146889,1,8,0:0:0:0:
196,100,147116,1,8,0:0:0:0:
204,260,147343,1,8,0:0:0:0:
444,232,147684,2,4,L|432:192,1,40
380,40,148025,1,8,0:0:0:0:
160,40,148252,1,8,0:0:0:0:
40,192,148480,1,0,0:0:0:0:
288,184,148707,2,4,L|288:228,1,40
256,376,149162,1,6,0:0:0:0:
32,288,149502,5,12,0:0:0:0:
32,288,149616,1,12,0:0:0:0:
184,340,149843,1,8,0:0:0:0:
60,240,150071,1,8,0:0:0:0:
220,252,150298,1,8,0:0:0:0:
364,320,150525,2,4,L|300:312,1,40
432,100,150980,1,6,0:0:0:0:
196,68,151321,1,12,0:0:0:0:
196,68,151434,1,12,0:0:0:0:
348,120,151662,1,8,0:0:0:0:
192,148,151889,1,8,0:0:0:0:
340,208,152116,1,8,0:0:0:0:
184,236,152343,1,8,0:0:0:0:
184,236,152457,1,0,0:0:0:0:
480,360,152798,5,6,0:0:0:0:
240,336,153139,2,4,L|288:332,1,40
432,284,153480,1,8,0:0:0:0:
272,300,153707,1,8,0:0:0:0:
408,216,153934,1,8,0:0:0:0:
452,64,154162,1,6,0:0:0:0:
452,64,154275,1,6,0:0:0:0:
212,56,154616,2,4,L|112:56,2,80
372,60,155298,1,8,0:0:0:0:
212,56,155525,1,8,0:0:0:0:
68,124,155752,5,8,0:0:0:0:
76,284,155980,1,6,0:0:0:0:
76,284,156093,1,6,0:0:0:0:
36,48,156434,1,8,0:0:0:0:
228,192,156775,2,4,L|288:192,1,40
108,192,157116,1,0,0:0:0:0:
252,264,157343,5,8,0:0:0:0:
252,104,157571,1,8,0:0:0:0:
344,192,157798,5,6,0:0:0:0:
344,192,157912,1,6,0:0:0:0:
108,192,158252,2,4,L|16:192,2,80
268,192,158934,1,8,0:0:0:0:
268,24,159162,1,8,0:0:0:0:
80,104,159389,1,8,0:0:0:0:
292,100,159616,2,0,L|360:76,1,40
488,20,160071,1,0,0:0:0:0:
484,260,160412,2,4,L|484:216,1,40
484,60,160752,1,0,0:0:0:0:
488,236,160980,5,8,0:0:0:0:
324,236,161207,1,8,0:0:0:0:
328,76,161434,1,6,0:0:0:0:
328,76,161548,1,6,0:0:0:0:
100,156,161889,1,8,0:0:0:0:
340,148,162230,2,4,L|296:148,1,40
180,256,162571,1,8,0:0:0:0:
340,260,162798,1,8,0:0:0:0:
256,124,163025,1,8,0:0:0:0:
260,284,163252,1,8,0:0:0:0:
260,364,163366,6,4,L|112:364,2,120
256,336,164162,1,8,0:0:0:0:
416,336,164389,1,8,0:0:0:0:
488,192,164616,1,8,0:0:0:0:
328,192,164843,1,8,0:0:0:0:
468,116,165071,1,6,0:0:0:0:
468,116,165184,1,6,0:0:0:0:
252,8,165525,5,0,0:0:0:0:
256,304,165866,2,4,L|256:260,1,40
256,48,166207,1,8,0:0:0:0:
256,192,166434,1,8,0:0:0:0:
96,192,166662,1,8,0:0:0:0:
52,40,166889,2,4,L|80:80,1,40
196,288,167343,1,0,0:0:0:0:
200,48,167684,2,4,L|200:96,1,40
324,188,168025,2,4,L|324:140,1,40
324,128,168252,1,0,0:0:0:0:
324,112,168366,2,12,L|376:112,3,40
496,352,169162,5,0,0:0:0:0:
496,352,169275,1,0,0:0:0:0:
336,356,169502,1,0,0:0:0:0:
336,356,169616,1,0,0:0:0:0:
76,44,170071,1,0,0:0:0:0:
76,44,170184,1,0,0:0:0:0:
236,48,170412,1,0,0:0:0:0:
236,48,170525,1,0,0:0:0:0:
56,324,170980,5,8,0:0:0:0:
256,192,171321,2,4,L|208:224,1,40
356,124,171662,1,8,0:0:0:0:
480,24,171889,1,8,0:0:0:0:
404,40,172002,2,4,L|464:104,1,80
458,98,172343,1,8,0:0:0:0:
52,312,172798,5,4,0:0:0:0:
52,312,172911,1,4,0:0:0:0:
212,312,173138,1,4,0:0:0:0:
212,312,173252,1,4,0:0:0:0:
440,48,173707,1,4,0:0:0:0:
436,44,173820,1,4,0:0:0:0:
276,48,174048,1,4,0:0:0:0:
276,48,174161,1,4,0:0:0:0:
460,320,174616,5,8,0:0:0:0:
256,192,174957,2,4,L|304:224,1,40
156,124,175298,1,8,0:0:0:0:
32,24,175525,1,8,0:0:0:0:
108,40,175638,2,4,L|48:104,1,80
53,98,175979,1,8,0:0:0:0:
256,348,176434,5,8,0:0:0:0:
256,268,176548,2,6,L|256:324,1,40
256,228,176775,2,10,L|256:184,1,40
192,52,177343,2,4,L|152:52,1,40
312,52,177684,2,4,L|376:52,1,40
60,192,178252,2,8,P|252:308|456:192,1,480.000018310548
336,84,179843,1,8,0:0:0:0:
176,84,180071,1,8,0:0:0:0:
256,192,180298,12,0,183593,0:0:0:0:
256,192,183707,5,8,0:0:0:0:
256,192,183934,1,8,0:0:0:0:
256,192,184162,1,8,0:0:0:0:
256,32,184389,5,4,0:0:0:0:
256,32,184502,1,4,0:0:0:0:
256,32,184616,1,4,0:0:0:0:
256,32,184730,1,4,0:0:0:0:
256,32,184843,1,4,0:0:0:0:
256,32,184957,1,4,0:0:0:0:
256,32,185071,1,4,0:0:0:0:
256,192,185525,5,8,0:0:0:0:
84,84,185866,2,4,L|120:104,1,40
256,188,186207,1,8,0:0:0:0:
96,192,186434,1,8,0:0:0:0:
236,268,186662,1,8,0:0:0:0:
192,116,186889,1,6,0:0:0:0:
192,116,187002,1,6,0:0:0:0:
72,324,187343,5,8,0:0:0:0:
244,156,187684,2,4,L|212:192,1,40
100,296,188025,1,8,0:0:0:0:
256,252,188252,1,8,0:0:0:0:
392,336,188480,1,8,0:0:0:0:
324,192,188707,1,6,0:0:0:0:
324,192,188821,1,6,0:0:0:0:
256,192,189162,12,0,190525,0:0:0:0:
112,84,190980,5,0,0:0:0:0:
272,88,191207,2,4,L|372:88,1,80
112,216,191889,1,0,0:0:0:0:
272,216,192116,2,4,L|372:216,1,80
80,356,192798,1,8,0:0:0:0:
240,356,193025,1,8,0:0:0:0:
400,356,193252,1,8,0:0:0:0:
400,196,193480,2,4,L|400:104,5,80
100,40,195071,5,0,0:0:0:0:
48,192,195298,2,4,L|136:192,1,80
412,44,195980,1,0,0:0:0:0:
468,192,196207,2,4,L|388:192,1,80
104,344,196889,1,14,0:0:0:0:
424,344,197343,1,14,0:0:0:0:
256,72,197798,1,14,0:0:0:0:
8,192,198252,5,0,0:0:0:0:
168,192,198480,2,4,L|88:192,1,80
248,192,198934,2,4,L|328:192,1,80
488,192,199389,1,0,0:0:0:0:
488,192,199616,1,0,0:0:0:0:
360,96,199843,2,4,L|280:96,1,80
480,40,200525,1,0,0:0:0:0:
160,40,200980,2,4,L|244:40,1,80
400,40,201434,1,0,0:0:0:0:
256,328,201889,5,0,0:0:0:0:
256,168,202116,2,4,L|256:248,1,80
256,88,202571,1,0,0:0:0:0:
100,60,202798,6,4,L|100:220,1,160
100,376,203480,1,0,0:0:0:0:
96,380,203707,1,0,0:0:0:0:
32,288,204162,2,4,L|120:288,1,80
112,288,204502,1,8,0:0:0:0:
192,288,204616,2,4,L|376:288,1,160
340,128,205298,5,0,0:0:0:0:
180,128,205525,1,0,0:0:0:0:
256,268,205752,1,8,0:0:0:0:
256,268,205866,1,8,0:0:0:0:
256,268,205980,1,8,0:0:0:0:
112,340,206207,2,4,L|112:272,2,40
52,192,206662,5,0,0:0:0:0:
212,196,206889,1,0,0:0:0:0:
372,196,207116,1,0,0:0:0:0:
256,192,207343,12,0,210071,0:0:0:0:
328,124,210980,6,4,L|380:124,3,40
368,124,211434,1,0,0:0:0:0:
464,124,211662,1,0,0:0:0:0:
464,124,211889,1,0,0:0:0:0:
256,364,212343,5,0,0:0:0:0:
96,360,212571,2,4,L|136:360,1,40
136,360,212798,1,0,0:0:0:0:
256,256,213025,2,4,L|328:256,2,40
96,256,213480,1,0,0:0:0:0:
96,256,213707,1,0,0:0:0:0:
244,192,213934,2,4,L|288:192,1,40
284,192,214162,1,8,0:0:0:0:
492,364,214616,6,4,L|492:304,2,40
484,204,215071,1,0,0:0:0:0:
368,92,215298,2,4,L|368:148,1,40
368,132,215525,1,8,0:0:0:0:
372,292,215752,2,4,L|372:344,1,40
372,332,215980,1,8,0:0:0:0:
296,192,216207,5,6,0:0:0:0:
296,192,216434,1,6,0:0:0:0:
136,192,216662,2,4,L|184:192,2,40
36,160,217116,1,0,0:0:0:0:
36,224,217343,1,0,0:0:0:0:
92,72,217571,6,4,L|136:44,1,40
125,50,217798,1,8,0:0:0:0:
340,288,218252,2,4,L|392:252,2,40
468,192,218707,1,0,0:0:0:0:
308,192,218934,5,0,0:0:0:0:
308,192,219162,1,0,0:0:0:0:
440,100,219389,6,4,L|408:72,1,40
409,73,219616,1,8,0:0:0:0:
256,24,219843,1,0,0:0:0:0:
256,192,220071,2,4,L|256:124,2,40
256,352,220525,1,0,0:0:0:0:
120,264,220752,2,4,L|144:296,1,40
144,296,220980,1,8,0:0:0:0:
304,296,221207,6,4,L|348:264,1,40
336,272,221434,1,8,0:0:0:0:
476,192,221662,1,0,0:0:0:0:
476,192,221889,1,0,0:0:0:0:
468,112,222002,2,4,L|468:52,1,40
404,220,222343,5,0,0:0:0:0:
296,36,222798,1,0,0:0:0:0:
296,208,223025,2,4,L|296:156,1,40
296,168,223252,1,8,0:0:0:0:
108,48,223707,1,0,0:0:0:0:
108,208,223934,1,0,0:0:0:0:
108,368,224162,1,0,0:0:0:0:
192,236,224389,2,4,L|192:176,1,40
192,196,224616,1,8,0:0:0:0:
348,192,224843,6,4,L|304:192,1,40
308,192,225071,1,8,0:0:0:0:
420,44,225525,2,4,L|376:44,2,40
260,44,225980,1,0,0:0:0:0:
392,136,226207,1,0,0:0:0:0:
232,136,226434,1,0,0:0:0:0:
72,136,226662,2,4,L|72:204,1,40
72,184,226889,1,8,0:0:0:0:
64,328,227343,6,4,L|116:328,2,40
228,328,227798,1,8,0:0:0:0:
388,328,228025,2,4,L|448:328,2,40
256,236,228480,2,4,L|256:180,2,40
440,108,229162,5,0,0:0:0:0:
440,108,229275,1,0,0:0:0:0:
440,108,229389,1,0,0:0:0:0:
440,108,229502,1,0,0:0:0:0:
440,108,229616,1,0,0:0:0:0:
76,100,230071,5,4,0:0:0:0:
76,100,230184,1,4,0:0:0:0:
76,100,230298,1,4,0:0:0:0:
76,100,230412,1,4,0:0:0:0:
76,100,230525,1,4,0:0:0:0:
256,364,230980,5,0,0:0:0:0:
256,364,231093,1,4,0:0:0:0:
256,364,231207,1,0,0:0:0:0:
256,364,231321,1,4,0:0:0:0:
256,364,231434,1,0,0:0:0:0:
256,364,231548,1,4,0:0:0:0:
256,364,231662,1,0,0:0:0:0:
256,364,231775,1,4,0:0:0:0:
256,364,231889,1,0,0:0:0:0:
256,364,232002,1,4,0:0:0:0:
256,364,232116,1,0,0:0:0:0:
256,364,232230,1,4,0:0:0:0:
256,364,232343,1,0,0:0:0:0:
256,44,232798,6,4,L|256:136,1,80
256,204,233139,1,0,0:0:0:0:
256,204,233252,1,0,0:0:0:0:
256,204,233366,1,0,0:0:0:0:
256,204,233480,1,0,0:0:0:0:
256,204,233593,1,0,0:0:0:0:
256,204,233707,1,0,0:0:0:0:
432,192,234162,6,0,B|364:336|256:336|256:336|152:336|80:192,1,480
164,192,235980,1,8,0:0:0:0:
324,192,236207,2,4,P|272:96|224:72,1,160
68,72,236889,1,8,0:0:0:0:
156,116,237116,2,6,L|200:132,1,40
256,180,237343,2,4,P|372:156|388:132,1,120
416,96,237798,1,0,0:0:0:0:
416,96,238025,1,0,0:0:0:0:
416,96,238252,1,0,0:0:0:0:
100,40,238707,5,0,0:0:0:0:
328,264,239161,1,0,0:0:0:0:
72,320,239389,6,4,L|72:240,1,80
188,348,239843,1,0,0:0:0:0:
188,188,240071,1,0,0:0:0:0:
188,348,240298,1,0,0:0:0:0:
188,188,240525,2,4,L|188:104,4,80
268,192,241548,2,6,L|308:192,1,40
388,192,241775,1,0,0:0:0:0:
388,192,241889,1,0,0:0:0:0:
388,192,242002,1,0,0:0:0:0:
388,192,242116,1,0,0:0:0:0:
320,48,242343,5,0,0:0:0:0:
188,340,242798,1,0,0:0:0:0:
72,192,243252,5,0,0:0:0:0:
152,192,243366,1,0,0:0:0:0:
232,180,243480,1,0,0:0:0:0:
368,84,243707,2,0,L|300:132,1,80
480,36,244161,1,0,0:0:0:0:
480,360,244616,1,0,0:0:0:0:
440,192,245071,5,0,0:0:0:0:
360,192,245185,1,0,0:0:0:0:
280,180,245298,1,0,0:0:0:0:
156,92,245525,2,0,L|224:140,1,80
32,36,245980,1,0,0:0:0:0:
32,360,246435,1,0,0:0:0:0:
256,32,246889,6,4,L|256:96,1,40
256,152,247116,1,0,0:0:0:0:
256,152,247230,1,0,0:0:0:0:
256,152,247343,1,0,0:0:0:0:
256,312,247571,5,8,0:0:0:0:
148,188,247798,2,4,P|264:220|384:172,1,240
292,100,248707,1,8,0:0:0:0:
208,100,248934,1,8,0:0:0:0:
256,236,249162,2,4,B|256:176|176:180|180:248|180:248|192:296|248:308|248:308|312:312|356:228|336:188|300:152|300:152|264:116|208:108|180:116|200:84|196:80|248:48|360:60,1,720
88,304,252116,5,0,0:0:0:0:
144,240,252343,1,0,0:0:0:0:
88,304,252457,2,6,P|168:324|308:296,1,200
260,232,253139,6,4,L|260:192,1,40
108,136,253480,1,8,0:0:0:0:
256,76,253707,2,4,L|316:76,2,40
404,140,254162,1,8,0:0:0:0:
256,372,254616,5,0,0:0:0:0:
44,132,255071,1,0,0:0:0:0:
356,192,255525,1,8,0:0:0:0:
356,192,255752,1,4,0:0:0:0:
356,192,255980,1,0,0:0:0:0:
496,192,256207,2,4,P|476:128|344:52,2,200
408,328,257571,1,0,0:0:0:0:
408,328,257798,1,0,0:0:0:0:
248,328,258025,1,0,0:0:0:0:
88,332,258252,2,4,L|136:332,2,40
20,188,258707,6,8,L|112:188,2,80
180,192,259389,1,0,0:0:0:0:
340,192,259616,1,0,0:0:0:0:
340,192,259843,2,4,L|456:192,5,80
124,76,261434,6,6,L|124:240,7,160
436,320,265071,1,8,0:0:0:0:
436,320,265298,2,4,L|340:256,2,80
300,236,265980,1,0,0:0:0:0:
284,224,266093,1,0,0:0:0:0:
268,212,266207,1,0,0:0:0:0:
360,276,266434,1,0,0:0:0:0:
228,184,266662,2,4,L|156:136,5,80
468,44,268252,5,0,0:0:0:0:
256,192,268707,1,0,0:0:0:0:
32,352,269162,2,4,L|104:296,2,80
352,340,270071,1,0,0:0:0:0:
500,192,270525,1,0,0:0:0:0:
364,48,270980,2,4,L|276:48,2,80
44,56,271889,2,8,L|128:56,1,80
124,56,272343,1,4,0:0:0:0:
444,48,272798,5,0,0:0:0:0:
256,304,273252,1,0,0:0:0:0:
72,44,273707,1,0,0:0:0:0:
364,176,274162,1,0,0:0:0:0:
276,32,274616,6,4,L|224:112,1,80
232,99,275071,1,8,0:0:0:0:
101,269,275525,2,4,L|40:328,1,80
43,324,275980,1,8,0:0:0:0:
364,324,276434,5,0,0:0:0:0:
324,304,276548,1,0,0:0:0:0:
328,248,276662,1,0,0:0:0:0:
380,236,276775,1,0,0:0:0:0:
400,284,276889,1,0,0:0:0:0:
152,324,277343,5,4,0:0:0:0:
112,304,277457,1,4,0:0:0:0:
116,248,277571,1,4,0:0:0:0:
168,236,277684,1,4,0:0:0:0:
188,284,277798,1,4,0:0:0:0:
396,140,278252,5,0,0:0:0:0:
356,120,278366,1,0,0:0:0:0:
360,64,278480,1,0,0:0:0:0:
412,52,278593,1,0,0:0:0:0:
432,100,278707,1,0,0:0:0:0:
116,144,279162,5,4,0:0:0:0:
76,124,279276,1,4,0:0:0:0:
80,68,279390,1,4,0:0:0:0:
132,56,279503,1,4,0:0:0:0:
152,104,279617,1,4,0:0:0:0:
256,192,280071,12,0,281662,0:0:0:0:
184,120,281775,5,8,0:0:0:0:
184,120,281889,2,4,L|280:120,1,80
264,120,282230,1,8,0:0:0:0:
264,120,282343,1,8,0:0:0:0:
264,120,282457,1,8,0:0:0:0:
264,120,282571,1,8,0:0:0:0:
344,120,282684,2,4,L|392:120,1,40
364,272,285412,5,8,0:0:0:0:
364,272,285526,2,4,L|268:272,1,80
284,272,285867,1,8,0:0:0:0:
284,272,285980,1,8,0:0:0:0:
284,272,286094,1,8,0:0:0:0:
284,272,286208,1,8,0:0:0:0:
204,272,286321,2,4,L|156:272,1,40
40,40,287343,5,2,0:0:0:0:
472,40,287798,1,2,0:0:0:0:
480,360,288252,1,2,0:0:0:0:
36,360,288707,1,2,0:0:0:0:
256,268,289048,5,8,0:0:0:0:
256,268,289162,2,4,L|256:172,1,80
256,188,289503,1,8,0:0:0:0:
256,188,289616,1,8,0:0:0:0:
256,188,289730,1,8,0:0:0:0:
256,188,289844,1,8,0:0:0:0:
256,108,289957,2,4,L|256:60,1,40
256,76,292684,5,8,0:0:0:0:
256,76,292798,2,4,L|256:172,1,80
256,156,293139,1,8,0:0:0:0:
256,156,293252,1,8,0:0:0:0:
256,156,293366,1,8,0:0:0:0:
256,156,293480,1,8,0:0:0:0:
256,236,293593,2,4,L|256:284,1,40
132,272,294616,5,0,0:0:0:0:
388,76,295071,1,4,0:0:0:0:
132,268,295525,1,0,0:0:0:0:
388,72,295980,1,4,0:0:0:0:
180,192,296321,5,8,0:0:0:0:
180,192,296435,2,4,L|276:192,1,80
260,192,296775,1,8,0:0:0:0:
260,192,296888,1,8,0:0:0:0:
260,192,297002,1,8,0:0:0:0:
260,192,297117,1,8,0:0:0:0:
340,192,297230,2,4,L|388:192,1,40
260,108,298139,5,8,0:0:0:0:
260,108,298253,2,4,L|260:204,1,80
260,188,298594,1,8,0:0:0:0:
260,188,298707,1,8,0:0:0:0:
260,188,298821,1,8,0:0:0:0:
260,188,298935,1,8,0:0:0:0:
256,268,299048,2,4,L|256:316,1,40
444,312,299957,5,8,0:0:0:0:
380,264,300071,2,4,L|336:232,4,40
196,112,300866,1,8,0:0:0:0:
252,168,300980,2,4,L|292:192,1,40
416,284,301321,1,2,0:0:0:0:
416,284,301434,1,2,0:0:0:0:
280,200,301662,1,8,0:0:0:0:
148,108,301889,2,4,L|64:48,1,80
412,192,303480,5,8,0:0:0:0:
324,52,303707,2,4,L|224:104,1,80
255,180,304048,1,8,0:0:0:0:
255,180,304161,1,8,0:0:0:0:
260,184,304275,2,4,L|304:216,1,40
188,256,304502,2,8,L|124:296,1,40,4|4,0:0|0:0,0:0:0:0:
472,340,305298,5,8,0:0:0:0:
312,352,305525,2,4,L|348:272,1,80
280,208,305866,1,8,0:0:0:0:
276,204,305980,1,8,0:0:0:0:
272,200,306093,2,4,L|204:176,1,40
268,112,306321,2,12,L|284:68,1,40
256,192,307230,12,0,310071,0:0:0:0:
104,88,310980,5,0,0:0:0:0:
360,280,311434,1,4,0:0:0:0:
104,88,311889,1,0,0:0:0:0:
296,236,312230,2,4,L|352:276,1,40
396,84,312798,5,8,0:0:0:0:
396,84,313025,1,8,0:0:0:0:
396,84,313252,1,8,0:0:0:0:
132,264,313707,1,0,0:0:0:0:
336,136,314048,2,4,L|288:168,1,40
256,312,314389,6,4,L|256:268,1,40
256,272,314616,1,8,0:0:0:0:
56,192,315071,1,0,0:0:0:0:
248,24,315525,1,0,0:0:0:0:
420,192,315866,2,4,L|472:192,1,40
140,192,316434,5,2,0:0:0:0:
300,192,316662,2,4,L|260:192,1,40
180,192,316889,1,8,0:0:0:0:
500,192,317343,1,0,0:0:0:0:
316,344,317684,2,4,L|284:312,1,40
128,320,318025,5,8,0:0:0:0:
128,320,318139,1,8,0:0:0:0:
128,320,318252,1,8,0:0:0:0:
352,92,318707,1,0,0:0:0:0:
36,36,319162,1,0,0:0:0:0:
228,180,319502,2,4,L|268:208,1,40
256,192,320071,12,0,333707,0:0:0:0:
296,144,334616,5,8,0:0:0:0:
44,340,335071,1,8,0:0:0:0:
168,240,335298,2,4,L|208:208,1,40
199,215,335525,2,4,L|116:136,1,80
40,36,335980,2,12,L|164:80,1,120
153,76,336434,2,4,L|256:44,2,80
44,196,337116,1,2,0:0:0:0:
44,196,337230,1,2,0:0:0:0:
44,196,337343,1,2,0:0:0:0:
44,196,337457,1,2,0:0:0:0:
476,348,338252,6,4,L|476:264,1,80
480,108,338707,1,8,0:0:0:0:
320,104,338934,2,4,L|320:184,2,80
320,264,339616,2,4,L|320:312,1,40
320,304,339843,1,8,0:0:0:0:
160,324,340071,2,4,L|160:208,4,80
48,336,341889,6,4,L|156:304,1,80
20,192,342343,1,8,0:0:0:0:
180,192,342571,1,8,0:0:0:0:
260,192,342798,2,4,L|364:192,1,80
460,332,343252,6,4,L|388:288,1,80
391,290,343593,1,0,0:0:0:0:
391,290,343707,1,0,0:0:0:0:
168,204,343934,2,8,L|288:96,1,160
168,204,344616,2,8,L|144:104,1,80
316,256,345525,6,4,L|436:140,1,160
468,44,346434,1,0,0:0:0:0:
388,44,346548,1,0,0:0:0:0:
308,44,346662,1,0,0:0:0:0:
228,44,346775,1,0,0:0:0:0:
148,48,346889,1,0,0:0:0:0:
44,352,347343,5,8,0:0:0:0:
256,112,347798,1,8,0:0:0:0:
472,348,348252,1,8,0:0:0:0:
164,260,348707,6,4,P|132:192|176:96,1,160
308,48,349616,1,8,0:0:0:0:
452,332,350071,2,4,L|384:304,1,40
415,316,350298,2,4,L|344:288,2,40
476,84,350980,6,4,L|408:104,2,40
280,116,351434,1,8,0:0:0:0:
40,84,351889,2,8,L|40:168,1,80
52,296,352343,6,4,P|232:296|288:204,1,280
282,226,353252,1,2,0:0:0:0:
296,140,353707,1,0,0:0:0:0:
264,144,353821,1,0,0:0:0:0:
230,152,353934,2,8,L|144:160,1,80
40,40,354616,6,4,L|116:40,2,40
56,200,355071,2,8,P|192:232|268:296,1,240
180,160,355980,2,4,P|316:128|408:32,1,240
428,16,356889,1,8,0:0:0:0:
468,348,357343,1,0,0:0:0:0:
332,260,357571,1,0,0:0:0:0:
468,344,357798,1,0,0:0:0:0:
152,304,358252,1,0,0:0:0:0:
88,256,358366,1,0,0:0:0:0:
68,180,358480,1,0,0:0:0:0:
72,100,358593,1,0,0:0:0:0:
120,36,358707,1,0,0:0:0:0:
176,160,359048,2,4,L|176:208,1,40
416,192,359502,6,8,P|340:100|288:88,1,160
308,172,360071,1,0,0:0:0:0:
308,172,360184,1,0,0:0:0:0:
308,172,360298,1,0,0:0:0:0:
308,172,360412,1,0,0:0:0:0:
308,172,360525,1,0,0:0:0:0:
308,172,360639,1,0,0:0:0:0:
308,172,360752,1,0,0:0:0:0:
424,284,360980,5,4,0:0:0:0:
252,304,361207,2,8,P|100:244|76:80,2,320
424,284,363252,1,0,0:0:0:0:
468,340,363707,6,4,L|356:324,1,80
228,348,364162,2,4,L|228:296,1,40
72,344,364616,2,4,L|156:276,2,80
256,188,365298,1,0,0:0:0:0:
360,68,365525,2,8,P|424:156|424:232,1,160
192,252,366321,2,4,L|160:224,1,40
68,64,366889,6,8,P|232:72|304:132,1,240
288,196,367798,2,8,P|160:240|56:212,1,240
328,156,368707,1,2,0:0:0:0:
476,96,368934,2,4,P|480:192|412:256,1,160
340,280,369616,5,2,0:0:0:0:
88,80,370071,2,4,L|88:128,1,40
156,76,370298,2,4,L|156:144,1,40
480,192,370980,5,0,0:0:0:0:
480,192,371093,1,0,0:0:0:0:
480,192,371207,1,0,0:0:0:0:
480,192,371321,1,0,0:0:0:0:
400,192,371434,2,4,L|360:192,1,40
216,120,371889,2,8,L|216:280,1,160
32,192,372571,5,0,0:0:0:0:
156,292,372798,2,4,L|200:248,1,40
184,263,373025,2,8,L|104:112,1,160
109,121,373593,2,0,L|152:96,2,40
256,192,374389,5,8,0:0:0:0:
256,192,374616,1,0,0:0:0:0:
256,192,374730,1,0,0:0:0:0:
256,192,374843,1,0,0:0:0:0:
380,292,375071,2,4,P|344:136|272:100,1,240
256,192,375980,12,0,378252,0:0:0:0:
100,76,378707,5,0,0:0:0:0:
420,72,379162,2,8,L|312:72,2,80
128,200,380071,1,0,0:0:0:0:
208,196,380184,1,0,0:0:0:0:
288,192,380298,1,0,0:0:0:0:
368,192,380412,2,8,L|440:192,3,40
260,252,380980,5,4,0:0:0:0:
176,116,381207,1,4,0:0:0:0:
116,264,381434,1,4,0:0:0:0:
384,88,381889,2,8,L|452:156,3,80
448,304,382798,2,8,L|372:244,2,80
216,84,383707,2,8,L|256:144,2,40
260,152,384048,1,0,0:0:0:0:
260,152,384162,1,0,0:0:0:0:
260,152,384275,1,0,0:0:0:0:
260,152,384389,1,0,0:0:0:0:
216,308,384616,5,4,0:0:0:0:
116,184,384843,1,4,0:0:0:0:
64,336,385071,1,4,0:0:0:0:
28,20,385525,6,8,L|92:108,3,80
232,52,386434,5,4,0:0:0:0:
316,188,386662,1,4,0:0:0:0:
408,60,386889,1,4,0:0:0:0:
492,368,387343,6,8,L|420:308,1,80
352,336,387684,2,8,L|264:240,1,120
216,304,388139,2,2,L|180:248,1,40
194,270,388366,2,2,L|164:228,1,40
171,237,388593,2,2,L|132:184,1,40
192,48,389162,6,8,L|96:108,3,80
116,252,390071,2,8,L|188:200,2,80
372,60,390980,2,8,L|400:120,2,40
296,88,391321,2,4,L|324:132,1,40
317,121,391662,1,0,0:0:0:0:
304,280,391889,2,8,L|240:280,1,40
184,280,392116,1,0,0:0:0:0:
184,280,392343,1,0,0:0:0:0:
320,336,392798,6,8,L|416:276,3,80
396,132,393707,2,8,L|324:184,2,80
140,324,394616,2,4,L|112:264,2,40
216,296,394957,2,8,L|188:252,1,40
80,152,395298,1,0,0:0:0:0:
208,104,395525,2,8,L|272:104,1,40
328,104,395752,2,8,L|392:104,3,40
256,192,396434,12,0,406889,0:0:0:0:
256,192,407343,5,0,0:0:0:0:
256,192,407798,1,8,0:0:0:0:
256,192,408252,1,0,0:0:0:0:
80,124,408707,6,8,P|136:184|132:248,1,120
168,144,409162,6,4,P|198:220|160:288,1,160
324,304,409843,2,8,L|424:304,1,80
448,68,410412,1,0,0:0:0:0:
448,68,410525,1,0,0:0:0:0:
448,68,410639,1,0,0:0:0:0:
448,68,410752,1,0,0:0:0:0:
448,68,410866,1,0,0:0:0:0:
448,68,410980,1,0,0:0:0:0:
76,96,412230,6,8,P|192:116|232:168,1,160
136,144,412798,2,8,P|200:188|204:264,1,160
360,304,413480,2,4,P|436:200|436:112,1,200
424,52,414162,1,0,0:0:0:0:
264,52,414389,1,0,0:0:0:0:
360,180,414616,2,8,P|272:252|204:252,1,160
44,352,415980,6,8,P|208:296|312:172,1,320
328,32,417116,2,8,P|224:208|80:288,1,360
60,212,418252,2,4,P|152:168|200:124,1,160
352,156,418934,2,4,P|292:212|264:312,1,160
416,344,419616,5,2,0:0:0:0:
376,272,419730,1,2,0:0:0:0:
304,244,419843,1,2,0:0:0:0:
192,256,420071,2,8,P|104:204|100:168,1,120
136,100,420525,2,8,P|188:176|220:180,1,120
260,140,420980,2,8,P|328:152|400:248,1,160
232,236,421662,2,8,B|168:324|168:324|72:224,1,240
156,88,422571,5,0,0:0:0:0:
316,84,422798,1,8,0:0:0:0:
316,84,422912,1,8,0:0:0:0:
316,84,423025,1,8,0:0:0:0:
192,184,423252,5,0,0:0:0:0:
472,336,423707,2,8,L|424:312,2,40
312,344,424162,1,0,0:0:0:0:
476,72,424616,5,8,0:0:0:0:
476,72,424730,1,8,0:0:0:0:
476,72,424843,1,8,0:0:0:0:
460,232,425071,1,0,0:0:0:0:
144,196,425525,2,8,L|76:196,2,40
304,192,425980,1,0,0:0:0:0:
32,24,426434,5,8,0:0:0:0:
32,24,426548,1,8,0:0:0:0:
32,24,426662,1,8,0:0:0:0:
160,120,426889,1,0,0:0:0:0:
40,348,427343,1,8,0:0:0:0:
356,296,427798,1,0,0:0:0:0:
180,28,428252,1,8,0:0:0:0:
228,344,428707,1,0,0:0:0:0:
356,52,429162,5,0,0:0:0:0:
256,176,429389,1,0,0:0:0:0:
404,116,429616,1,0,0:0:0:0:
244,104,429843,1,0,0:0:0:0:
368,208,430071,1,0,0:0:0:0:
296,64,430298,1,0,0:0:0:0:
312,224,430525,1,0,0:0:0:0:
276,296,430639,5,8,0:0:0:0:
200,280,430752,1,8,0:0:0:0:
144,220,430866,1,8,0:0:0:0:
104,148,430980,1,8,0:0:0:0:
48,44,431434,5,0,0:0:0:0:
472,40,431889,1,0,0:0:0:0:
480,352,432230,2,8,L|436:336,1,40
40,348,432798,5,0,0:0:0:0:
88,196,433025,1,0,0:0:0:0:
212,300,433252,1,0,0:0:0:0:
172,144,433480,1,0,0:0:0:0:
300,240,433707,1,0,0:0:0:0:
440,44,434048,2,8,L|380:88,1,40
484,188,434616,5,0,0:0:0:0:
256,24,435071,1,8,0:0:0:0:
32,192,435525,1,0,0:0:0:0:
256,368,435866,2,8,L|256:320,1,40
256,192,436434,12,0,437798,0:0:0:0:
364,104,438252,6,8,L|364:160,2,40
356,264,438707,2,8,L|296:252,4,40
148,336,439616,2,4,P|100:272|140:116,1,240
264,76,440525,1,0,0:0:0:0:
344,76,440639,2,8,P|400:196|344:328,1,280
132,88,441889,5,0,0:0:0:0:
252,192,442116,1,0,0:0:0:0:
388,108,442343,2,8,P|388:244|356:288,2,160
232,76,443480,2,4,L|120:76,3,80
112,312,444389,2,4,L|192:312,2,80
272,308,445071,6,8,L|380:304,1,80
351,305,445412,2,8,P|440:220|444:184,1,160
444,188,445980,2,4,L|372:188,1,40
456,128,446207,2,8,L|292:128|288:128,1,160
136,136,446889,1,0,0:0:0:0:
284,192,447116,2,4,P|220:264|124:280,1,160
208,128,447798,2,8,L|207:83,1,40
276,128,448025,2,8,L|276:72,1,40
232,20,448252,1,0,0:0:0:0:
240,180,448480,5,0,0:0:0:0:
84,220,448707,2,2,P|256:300|424:192,2,400
76,140,451093,2,8,L|272:92,1,200
344,124,451775,2,8,L|136:184,1,200
444,312,452571,5,0,0:0:0:0:
300,240,452798,2,4,L|200:184,2,80
300,240,453366,1,0,0:0:0:0:
300,240,453480,2,8,L|424:104,1,160
256,76,454162,2,8,L|80:80,1,160
96,79,454843,1,0,0:0:0:0:
92,160,454957,1,0,0:0:0:0:
92,160,455071,2,4,L|256:156,1,160
256,32,455980,5,0,0:0:0:0:
488,192,456207,5,0,0:0:0:0:
428,340,456434,2,8,L|268:316,1,160
136,228,457116,2,8,L|268:128,1,160
404,208,457798,2,8,L|264:336,1,160
285,315,458480,1,0,0:0:0:0:
128,348,458707,2,4,L|72:280,3,80
188,172,459616,2,8,P|296:228|412:204,1,240
404,44,460525,2,4,L|348:60,1,40
365,54,460752,2,8,L|372:164,2,80
204,68,461434,5,0,0:0:0:0:
244,224,461662,2,8,L|140:196,1,80
64,336,462343,2,8,L|168:336,1,80
52,204,462798,1,0,0:0:0:0:
264,320,463139,5,0,0:0:0:0:
264,320,463252,2,4,P|396:272|432:240,4,160
260,48,465525,6,8,L|260:144,1,80
36,356,466207,2,8,L|100:304,1,80
256,192,466662,1,0,0:0:0:0:
476,352,466889,2,8,P|388:256|388:200,1,160
56,44,467798,5,0,0:0:0:0:
40,116,467912,5,0,0:0:0:0:
40,116,468025,2,8,L|76:236,1,120
74,230,468480,1,0,0:0:0:0:
124,168,468593,2,8,B|176:328|312:328|312:328|424:216,1,400
456,172,469843,2,4,L|360:168,1,80
428,104,470184,2,8,L|356:104,7,40
56,320,471662,6,4,L|120:320,1,40
56,252,471889,2,4,L|184:252,1,120
188,332,472343,2,8,B|400:332|400:332|400:220,1,320
396,64,473480,1,0,0:0:0:0:
308,60,473934,2,8,B|308:136|128:288|128:288|88:192,1,400
20,48,475298,1,0,0:0:0:0:
124,72,475752,2,8,B|416:216|416:216|336:240,1,400
192,192,477116,2,4,L|192:240,2,40
128,192,477457,2,4,L|128:248,4,40
56,188,478025,2,2,L|56:276,1,80
200,340,478480,6,8,L|296:340,1,80
288,180,478934,2,4,L|208:180,1,80
204,340,479389,2,8,L|292:340,1,80
444,344,479843,1,0,0:0:0:0:
488,188,480071,6,8,L|408:188,1,80
40,192,480752,2,4,L|172:192,1,120
240,192,481207,1,0,0:0:0:0:
104,108,481434,2,4,L|200:108,2,80
252,44,482116,6,8,L|252:108,2,40
412,44,482571,2,8,L|412:88,2,40
420,204,483025,2,8,L|420:260,2,40
260,192,483480,2,8,L|260:244,2,40
48,44,484162,1,0,0:0:0:0:
40,364,484616,1,0,0:0:0:0:
164,264,484843,1,0,0:0:0:0:
36,360,485071,1,0,0:0:0:0:
164,264,485298,1,0,0:0:0:0:
272,148,485525,5,4,0:0:0:0:
404,56,485752,1,4,0:0:0:0:
408,216,485980,2,8,L|408:300,2,80
156,20,486889,1,0,0:0:0:0:
160,180,487116,1,8,0:0:0:0:
152,20,487343,1,0,0:0:0:0:
156,340,487798,1,8,0:0:0:0:
160,180,488025,1,0,0:0:0:0:
156,340,488252,1,8,0:0:0:0:
160,180,488480,1,0,0:0:0:0:
152,20,488707,1,8,0:0:0:0:
152,20,488934,1,8,0:0:0:0:
256,192,489162,5,0,0:0:0:0:
336,332,489389,2,8,L|336:248,1,80
472,336,489843,2,8,L|468:224,1,80
468,96,490298,1,0,0:0:0:0:
468,96,490412,1,0,0:0:0:0:
468,96,490525,1,0,0:0:0:0:
308,72,490752,1,8,0:0:0:0:
200,192,490980,1,0,0:0:0:0:
40,196,491207,1,8,0:0:0:0:
192,244,491434,1,0,0:0:0:0:
80,132,491662,1,8,0:0:0:0:
132,284,491889,1,0,0:0:0:0:
140,124,492116,1,8,0:0:0:0:
68,268,492343,1,0,0:0:0:0:
188,164,492571,1,8,0:0:0:0:
256,192,492798,5,2,0:0:0:0:
392,156,493025,1,2,0:0:0:0:
392,228,493252,1,2,0:0:0:0:
392,116,493480,1,2,0:0:0:0:
392,276,493707,1,2,0:0:0:0:
84,192,494162,1,0,0:0:0:0:
244,192,494389,2,8,L|304:192,2,40
84,192,495071,1,0,0:0:0:0:
404,192,495525,1,8,0:0:0:0:
404,192,495752,1,8,0:0:0:0:
404,192,495980,1,8,0:0:0:0:
404,192,496207,2,2,L|328:192,1,40
256,192,496434,5,0,0:0:0:0:
72,72,496889,2,8,L|72:240,1,160
144,344,497571,2,8,L|144:164,1,160
256,192,498252,1,0,0:0:0:0:
472,192,498707,1,2,0:0:0:0:
472,192,498934,1,2,0:0:0:0:
472,192,499162,1,2,0:0:0:0:
256,24,499616,5,0,0:0:0:0:
256,192,499843,2,4,L|256:264,2,40
136,300,500525,2,8,L|64:156,1,160
168,36,501207,2,8,L|252:188,1,160
368,288,501889,1,4,0:0:0:0:
368,288,502116,1,4,0:0:0:0:
368,288,502343,1,4,0:0:0:0:
472,36,503252,6,8,L|472:212,1,160
396,32,504162,2,8,L|396:200,1,160
324,332,504843,2,8,L|324:164,1,160
32,192,505980,1,0,0:0:0:0:
256,364,506434,1,4,0:0:0:0:
256,204,506662,1,4,0:0:0:0:
180,64,506889,2,2,L|180:140,1,40
112,60,507116,2,8,L|112:120,2,40
52,208,507571,5,0,0:0:0:0:
52,208,507798,1,0,0:0:0:0:
128,348,508025,5,8,0:0:0:0:
128,348,508252,1,8,0:0:0:0:
192,200,508480,5,0,0:0:0:0:
192,200,508707,1,0,0:0:0:0:
248,352,508934,1,8,0:0:0:0:
248,352,509162,6,4,L|248:288,1,40
248,232,509389,2,8,L|248:84,2,120
472,352,510525,2,2,L|472:240,1,80
476,40,511207,2,2,L|476:132,1,80
44,332,512116,6,8,L|40:260,2,40
36,36,512798,2,2,L|36:120,1,80
176,192,513252,1,0,0:0:0:0:
336,192,513480,2,4,L|432:192,2,80
448,308,514162,2,4,L|336:308,2,80
288,304,514843,2,8,L|176:304,3,80
40,304,515980,1,0,0:0:0:0:
40,244,516434,1,0,0:0:0:0:
40,184,516889,1,0,0:0:0:0:
40,120,517116,6,8,L|132:120,1,80
280,120,517571,1,0,0:0:0:0:
440,120,517798,2,8,L|440:212,1,80
440,360,518252,1,0,0:0:0:0:
280,356,518480,2,4,L|280:264,3,80
480,24,519616,1,0,0:0:0:0:
36,32,520071,1,0,0:0:0:0:
152,144,520525,6,8,L|152:312,1,160
484,352,521434,1,0,0:0:0:0:
40,352,521889,1,0,0:0:0:0:
348,268,522343,2,8,L|348:104,1,160
184,144,523252,2,8,L|184:232,1,80
