osu file format v14

[General]
AudioFilename: He Has No Matte.mp3
AudioLeadIn: 0
PreviewTime: 24626
Countdown: 0
SampleSet: Soft
StackLeniency: 0.7
Mode: 0
LetterboxInBreaks: 0
CountdownOffset: 3
WidescreenStoryboard: 0

[Editor]
DistanceSpacing: 0.5
BeatDivisor: 4
GridSize: 4
TimelineZoom: 2.599999

[Metadata]
Title:He Has No Matte
TitleUnicode:He Has No Matte
Artist:Retions
ArtistUnicode:Retions
Creator:- BiDulGi -
Version:4444
Source:DC Inside
Tags:Kitsune^2 Lapfox Synthesis
BeatmapID:762706
BeatmapSetID:345358

[Difficulty]
HPDrainRate:4
CircleSize:2.7
OverallDifficulty:4
ApproachRate:9.4
SliderMultiplier:2.2
SliderTickRate:1

[Events]
//Background and Video events
0,0,"BG.jpg",0,0
//Break Periods
//Storyboard Layer 0 (Background)
//Storyboard Layer 1 (Fail)
//Storyboard Layer 2 (Pass)
//Storyboard Layer 3 (Foreground)
//Storyboard Sound Samples

[TimingPoints]
55,285.714285714286,4,2,0,100,1,0
2340,-66.6666666666667,4,2,0,100,0,0
25197,-50,4,2,0,100,0,1
32055,571.428571428571,4,2,0,100,1,0
32055,-200,4,2,0,100,0,0
33197,285.714285714286,4,2,0,100,1,0
33197,-66.6666666666667,4,2,0,100,0,0

[Colours]
Combo1 : 128,255,128
Combo2 : 128,0,0
Combo3 : 255,0,0
Combo4 : 255,128,128
Combo5 : 0,128,0
Combo6 : 0,255,0

[HitObjects]
56,105,55,5,4,0:0:0:0:
64,138,126,1,0,0:0:0:0:
84,166,197,1,0,0:0:0:0:
114,184,269,1,0,0:0:0:0:
149,190,340,1,2,0:0:0:0:
184,184,412,1,0,0:0:0:0:
214,167,483,1,0,0:0:0:0:
238,142,555,1,0,0:0:0:0:
256,112,626,5,0,0:0:0:0:
273,82,697,1,0,0:0:0:0:
298,57,769,1,0,0:0:0:0:
329,41,840,1,0,0:0:0:0:
363,35,912,1,2,0:0:0:0:
397,41,983,1,0,0:0:0:0:
427,59,1055,1,0,0:0:0:0:
447,87,1126,1,0,0:0:0:0:
456,121,1197,5,0,0:0:0:0:
443,153,1268,1,0,0:0:0:0:
426,183,1339,1,0,0:0:0:0:
400,207,1411,1,0,0:0:0:0:
368,220,1482,1,2,0:0:0:0:
336,234,1554,1,0,0:0:0:0:
310,257,1625,1,0,0:0:0:0:
292,287,1697,1,0,0:0:0:0:
280,320,1769,6,0,L|383:356,1,110
512,272,2055,2,0,L|408:235,1,110,2|2,0:0|0:0,0:0:0:0:
287,139,2340,6,0,P|276:60|322:-6,1,165.000006294251,4|0,0:0|0:0,0:0:0:0:
404,92,2626,1,2,0:0:0:0:
292,287,2769,1,0,0:0:0:0:
160,140,2912,6,0,L|0:184,1,165.000006294251
292,287,3197,2,0,L|452:243,1,165.000006294251,2|0,0:0|0:0,0:0:0:0:
170,244,3483,6,0,P|158:322|209:384,1,165.000006294251,0|0,0:0|0:0,0:0:0:0:
451,243,3769,1,2,0:0:0:0:
61,141,3912,1,0,0:0:0:0:
121,0,4055,6,0,P|172:61|159:140,1,165.000006294251,0|0,0:0|0:0,0:0:0:0:
391,384,4340,2,0,P|339:322|352:243,1,165.000006294251,2|2,0:0|0:0,0:0:0:0:
332,8,4626,6,0,L|496:22,1,165.000006294251
348,88,4912,2,0,L|512:102,1,165.000006294251,2|0,0:0|0:0,0:0:0:0:
180,376,5197,6,0,L|15:361,1,165.000006294251
164,296,5483,2,0,L|0:281,1,165.000006294251,2|0,0:0|0:0,0:0:0:0:
177,13,5769,6,0,P|212:85|184:160,1,165.000006294251
334,370,6055,2,0,P|299:298|328:224,1,165.000006294251,2|0,0:0|0:0,0:0:0:0:
77,270,6340,2,0,P|149:235|224:264,1,165.000006294251
434,113,6626,2,0,P|362:148|288:120,1,165.000006294251,2|2,0:0|0:0,0:0:0:0:
139,5,6912,5,0,0:0:0:0:
45,24,7055,1,0,0:0:0:0:
29,111,7197,1,2,0:0:0:0:
112,160,7340,1,0,0:0:0:0:
189,105,7483,1,0,0:0:0:0:
272,153,7626,1,0,0:0:0:0:
256,241,7768,1,2,0:0:0:0:
162,259,7911,1,0,0:0:0:0:
304,336,8055,6,0,L|464:376,1,165.000006294251
208,240,8340,2,0,L|48:280,1,165.000006294251,2|0,0:0|0:0,0:0:0:0:
304,144,8626,2,0,L|464:104,1,165.000006294251,0|0,0:0|0:0,0:0:0:0:
208,48,8912,2,0,L|48:8,1,165.000006294251,2|2,0:0|0:0,0:0:0:0:
112,144,9197,5,0,0:0:0:0:
176,288,9339,1,0,0:0:0:0:
400,144,9484,1,2,0:0:0:0:
336,288,9626,1,0,0:0:0:0:
176,144,9769,1,0,0:0:0:0:
112,288,9911,1,0,0:0:0:0:
336,144,10056,1,2,0:0:0:0:
400,288,10198,1,0,0:0:0:0:
220,104,10340,5,0,0:0:0:0:
204,44,10412,1,0,0:0:0:0:
256,4,10483,1,0,0:0:0:0:
308,44,10555,1,0,0:0:0:0:
291,104,10626,2,0,B|316:184|316:184|378:235,1,165.000006294251,2|0,0:0|0:0,0:0:0:0:
221,104,10912,2,0,B|196:184|196:184|133:235,1,165.000006294251,0|2,0:0|0:0,0:0:0:0:
256,324,11197,1,2,0:0:0:0:
72,28,11483,6,0,L|141:177,1,165.000006294251,4|0,0:0|0:0,0:0:0:0:
64,352,11769,1,2,0:0:0:0:
256,192,11912,1,0,0:0:0:0:
440,28,12055,6,0,L|370:177,1,165.000006294251
448,352,12340,1,2,0:0:0:0:
256,192,12483,1,0,0:0:0:0:
160,31,12626,6,0,P|109:93|128:171,1,165.000006294251
351,352,12912,2,0,P|402:290|383:212,1,165.000006294251,2|0,0:0|0:0,0:0:0:0:
95,287,13197,2,0,P|157:338|235:319,1,165.000006294251
416,96,13483,2,0,P|354:45|276:64,1,165.000006294251,2|2,0:0|0:0,0:0:0:0:
136,148,13769,5,0,0:0:0:0:
300,176,13912,1,0,0:0:0:0:
424,288,14055,2,0,L|487:135,1,165.000006294251,2|0,0:0|0:0,0:0:0:0:
163,228,14340,6,0,P|121:296|140:374,1,165.000006294251
220,312,14626,2,0,L|101:196,1,165.000006294251,2|0,0:0|0:0,0:0:0:0:
358,28,14912,5,0,0:0:0:0:
358,156,15055,1,0,0:0:0:0:
486,156,15197,1,2,0:0:0:0:
486,28,15340,1,0,0:0:0:0:
90,1,15483,5,0,0:0:0:0:
0,92,15626,1,0,0:0:0:0:
90,182,15768,1,2,0:0:0:0:
181,92,15911,1,2,0:0:0:0:
320,256,16055,6,0,L|436:372,1,165.000006294251
192,256,16340,2,0,L|75:372,1,165.000006294251,2|0,0:0|0:0,0:0:0:0:
192,128,16626,2,0,L|75:11,1,165.000006294251
320,128,16912,2,0,L|436:11,1,165.000006294251,2|0,0:0|0:0,0:0:0:0:
448,360,17197,6,0,L|331:243,1,165.000006294251
88,384,17483,2,0,L|204:267,1,165.000006294251,2|0,0:0|0:0,0:0:0:0:
64,24,17769,2,0,L|180:140,1,165.000006294251
424,0,18055,2,0,L|307:116,1,165.000006294251,2|2,0:0|0:0,0:0:0:0:
440,272,18340,5,0,0:0:0:0:
176,376,18483,1,0,0:0:0:0:
72,112,18626,1,2,0:0:0:0:
336,8,18769,1,0,0:0:0:0:
331,383,18912,5,0,0:0:0:0:
64,267,19055,1,0,0:0:0:0:
180,0,19198,1,2,0:0:0:0:
447,116,19341,1,0,0:0:0:0:
258,198,19483,1,0,0:0:0:0:
250,196,19555,1,0,0:0:0:0:
250,187,19626,1,0,0:0:0:0:
258,185,19697,1,0,0:0:0:0:
263,192,19769,1,2,0:0:0:0:
400,192,19912,5,0,0:0:0:0:
256,48,20055,1,0,0:0:0:0:
112,192,20197,1,2,0:0:0:0:
256,336,20340,1,2,0:0:0:0:
480,80,20626,6,0,L|315:80,1,165.000006294251,4|4,0:0|0:0,0:0:0:0:
32,80,20912,1,2,0:0:0:0:
56,80,20983,1,0,0:0:0:0:
81,80,21054,1,0,0:0:0:0:
106,80,21126,1,0,0:0:0:0:
32,192,21197,6,0,L|197:192,1,165.000006294251,4|4,0:0|0:0,0:0:0:0:
480,192,21483,1,2,0:0:0:0:
456,192,21554,1,0,0:0:0:0:
431,192,21625,1,0,0:0:0:0:
406,192,21697,1,0,0:0:0:0:
480,304,21769,6,0,L|315:304,1,165.000006294251,4|4,0:0|0:0,0:0:0:0:
32,304,22055,1,2,0:0:0:0:
56,304,22126,1,0,0:0:0:0:
81,304,22197,1,0,0:0:0:0:
106,304,22269,1,0,0:0:0:0:
192,272,22340,5,4,0:0:0:0:
192,112,22483,1,4,0:0:0:0:
256,232,22626,1,2,0:0:0:0:
256,152,22769,1,0,0:0:0:0:
315,192,22912,6,0,L|480:192,1,165.000006294251,4|4,0:0|0:0,0:0:0:0:
436,80,23198,1,2,0:0:0:0:
412,80,23269,1,0,0:0:0:0:
387,80,23340,1,0,0:0:0:0:
362,80,23412,1,0,0:0:0:0:
226,140,23483,6,0,L|144:-1,1,165.000006294251,4|4,0:0|0:0,0:0:0:0:
69,92,23769,1,2,0:0:0:0:
81,112,23840,1,0,0:0:0:0:
93,134,23911,1,0,0:0:0:0:
106,156,23983,1,0,0:0:0:0:
226,243,24055,6,0,L|144:385,1,165.000006294251,4|4,0:0|0:0,0:0:0:0:
262,403,24341,1,2,0:0:0:0:
274,383,24412,1,0,0:0:0:0:
287,361,24483,1,0,0:0:0:0:
299,339,24555,1,0,0:0:0:0:
344,252,24626,5,4,0:0:0:0:
316,104,24769,1,0,0:0:0:0:
168,132,24912,1,2,0:0:0:0:
196,280,25055,1,2,0:0:0:0:
408,192,25197,6,0,P|379:90|450:14,1,220,4|0,0:0|0:0,0:0:0:0:
484,116,25483,1,2,0:0:0:0:
288,20,25626,1,0,0:0:0:0:
247,236,25769,2,0,P|91:351|-4:181,2,440,4|2|4,0:0|0:0|0:0,0:0:0:0:
119,224,26483,5,0,0:0:0:0:
192,116,26626,2,0,L|384:10,1,220,6|0,0:0|0:0,0:0:0:0:
484,116,26912,2,0,B|513:172|491:234|431:261|372:235|372:235|313:210|253:236|231:298|260:355,2,440,4|2|4,0:0|0:0|0:0,0:0:0:0:
328,28,27626,5,0,0:0:0:0:
76,100,27769,1,2,0:0:0:0:
300,264,27912,1,0,0:0:0:0:
192,25,28055,2,0,B|236:96|208:192|136:224|136:224|160:344|160:344|236:388,2,440,4|2|4,0:0|0:0|0:0,0:0:0:0:
128,20,28697,5,0,0:0:0:0:
86,69,28768,1,0,0:0:0:0:
79,134,28839,1,0,0:0:0:0:
111,191,28912,1,6,0:0:0:0:
169,220,28982,1,0,0:0:0:0:
233,211,29054,1,0,0:0:0:0:
278,172,29126,1,0,0:0:0:0:
342,163,29198,1,4,0:0:0:0:
400,192,29269,1,0,0:0:0:0:
432,249,29341,1,0,0:0:0:0:
425,314,29412,1,0,0:0:0:0:
383,364,29483,2,0,P|232:293|396:260,1,440,6|4,0:0|0:0,0:0:0:0:
436,40,29912,5,0,0:0:0:0:
211,135,30055,2,0,L|44:278,1,220,6|0,0:0|0:0,0:0:0:0:
256,16,30340,2,0,P|321:198|131:235,2,440,4|6|4,0:0|0:0|0:0,0:0:0:0:
212,136,31055,1,0,0:0:0:0:
296,384,31197,2,0,L|508:324,1,220,6|0,0:0|0:0,0:0:0:0:
380,235,31483,2,0,P|190:198|255:16,1,440,4|6,0:0|0:0,0:0:0:0:
216,384,32055,6,0,L|4:324,1,220,4|4,0:0|3:0,0:0:0:0:
372,44,33911,5,0,0:0:0:0:
256,112,34054,1,2,0:0:0:0:
140,44,34197,1,0,0:0:0:0:
87,227,34339,6,0,P|157:269|185:345,1,165.000006294251,4|0,0:0|0:0,0:0:0:0:
52,360,34625,1,2,0:0:0:0:
256,192,34768,1,0,0:0:0:0:
396,384,34911,2,0,L|512:267,1,165.000006294251
512,0,35197,2,0,L|395:116,1,165.000006294251,2|0,0:0|0:0,0:0:0:0:
160,128,35482,6,0,P|79:137|10:95,1,165.000006294251
108,8,35768,1,2,0:0:0:0:
144,268,35911,1,0,0:0:0:0:
248,36,36054,2,0,L|408:76,1,165.000006294251
328,192,36339,1,2,0:0:0:0:
144,268,36482,1,2,0:0:0:0:
348,348,36625,6,0,P|428:338|497:380,2,165.000006294251,0|0|2,0:0|0:0|0:0,0:0:0:0:
256,192,37054,1,0,0:0:0:0:
164,348,37197,2,0,P|83:338|14:380,2,165.000006294251,0|0|2,0:0|0:0|0:0,0:0:0:0:
256,192,37625,1,0,0:0:0:0:
424,24,37768,6,0,L|391:185,1,165.000006294251
448,308,38054,1,2,0:0:0:0:
296,64,38197,1,0,0:0:0:0:
212,316,38339,2,0,P|140:350|68:316,1,165.000006294251
68,182,38625,2,0,P|140:148|212:182,1,165.000006294251,2|2,0:0|0:0,0:0:0:0:
332,336,38911,6,0,L|453:223,1,165.000006294251
339,155,39197,2,0,P|304:82|315:1,1,165.000006294251,2|0,0:0|0:0,0:0:0:0:
444,60,39482,1,0,0:0:0:0:
264,256,39625,1,0,0:0:0:0:
152,108,39768,2,0,L|-5:157,1,165.000006294251,2|0,0:0|0:0,0:0:0:0:
139,376,40054,6,0,P|147:295|104:227,2,165.000006294251,0|0|2,0:0|0:0|0:0,0:0:0:0:
16,328,40482,1,0,0:0:0:0:
264,256,40625,2,0,B|352:256|352:256|397:193,1,165.000006294251
472,32,40911,2,0,B|384:32|384:32|338:94,1,165.000006294251,2|2,0:0|0:0,0:0:0:0:
124,176,41197,5,0,0:0:0:0:
272,60,41339,1,0,0:0:0:0:
388,208,41482,1,2,0:0:0:0:
240,324,41625,1,0,0:0:0:0:
132,35,41768,5,0,0:0:0:0:
412,68,41910,1,0,0:0:0:0:
379,348,42053,1,2,0:0:0:0:
99,315,42196,1,0,0:0:0:0:
258,198,42339,1,0,0:0:0:0:
250,196,42411,1,0,0:0:0:0:
250,187,42482,1,0,0:0:0:0:
258,185,42553,1,0,0:0:0:0:
263,192,42625,1,2,0:0:0:0:
144,132,42768,5,0,0:0:0:0:
368,252,42911,1,0,0:0:0:0:
196,304,43054,1,0,0:0:0:0:
316,80,43197,1,2,0:0:0:0:
36,192,43482,6,0,L|36:26,1,165.000006294251,4|4,0:0|0:0,0:0:0:0:
124,192,43768,1,2,0:0:0:0:
124,192,43839,1,0,0:0:0:0:
124,192,43911,1,0,0:0:0:0:
124,192,43982,1,0,0:0:0:0:
212,192,44054,6,0,L|212:358,1,165.000006294251,4|4,0:0|0:0,0:0:0:0:
300,192,44340,1,2,0:0:0:0:
300,192,44411,1,0,0:0:0:0:
300,192,44483,1,0,0:0:0:0:
300,192,44554,1,0,0:0:0:0:
388,192,44625,6,0,L|388:26,1,165.000006294251,4|4,0:0|0:0,0:0:0:0:
476,192,44911,1,2,0:0:0:0:
476,192,44982,1,0,0:0:0:0:
476,192,45054,1,0,0:0:0:0:
476,192,45125,1,0,0:0:0:0:
472,280,45197,6,0,L|307:280,1,165.000006294251,4|4,0:0|0:0,0:0:0:0:
40,280,45482,2,0,L|205:280,1,165.000006294251,2|0,0:0|0:0,0:0:0:0:
328,96,45768,6,0,B|360:48|360:48|467:48,1,165.000006294251,4|4,0:0|0:0,0:0:0:0:
176,48,46054,1,2,0:0:0:0:
151,48,46125,1,0,0:0:0:0:
126,48,46196,1,0,0:0:0:0:
101,48,46268,1,0,0:0:0:0:
184,192,46339,6,0,B|152:144|152:144|44:144,1,165.000006294251,4|4,0:0|0:0,0:0:0:0:
336,144,46625,1,2,0:0:0:0:
361,144,46696,1,0,0:0:0:0:
386,144,46767,1,0,0:0:0:0:
411,144,46839,1,0,0:0:0:0:
328,288,46911,6,0,B|360:240|360:240|467:240,1,165.000006294251,4|4,0:0|0:0,0:0:0:0:
176,240,47197,1,2,0:0:0:0:
151,240,47268,1,0,0:0:0:0:
126,240,47339,1,0,0:0:0:0:
101,240,47411,1,0,0:0:0:0:
64,272,47482,5,0,0:0:0:0:
48,240,47554,1,0,0:0:0:0:
32,208,47625,1,0,0:0:0:0:
48,176,47697,1,0,0:0:0:0:
32,144,47768,2,0,B|104:104|104:104|130:25,1,165.000006294251,2|0,0:0|0:0,0:0:0:0:
256,192,48054,12,2,48339,0:0:0:0:
