osu file format v12

[General]
AudioFilename: Qing Cheng.mp3
AudioLeadIn: 0
PreviewTime: 164689
Countdown: 1
SampleSet: Soft
StackLeniency: 0.7
Mode: 0
LetterboxInBreaks: 1

[Editor]
Bookmarks: 92747,110249
DistanceSpacing: 1.6
BeatDivisor: 6
GridSize: 4

[Metadata]
Title:Qing Cheng
TitleUnicode:Qing Cheng
Artist:Resuto
ArtistUnicode:Resuto
Creator:lollibaby
Version:Insane
Source:Vocaloid
Tags:xian yu jun luo tian yi luotianyi tianyi ju xiao xue xiaoxue piano vocal classic
BeatmapID:244335
BeatmapSetID:89956

[Difficulty]
HPDrainRate:6
CircleSize:5
OverallDifficulty:7
ApproachRate:9
SliderMultiplier:1
SliderTickRate:2

[Events]
//Background and Video events
0,0,"25452168_p0.jpg",0,0
//Break Periods
2,66693,82259
2,148011,154542
//Storyboard Layer 0 (Background)
//Storyboard Layer 1 (Fail)
//Storyboard Layer 2 (Pass)
//Storyboard Layer 3 (Foreground)
//Storyboard Sound Samples
//Background Colour Transformations
3,100,163,162,255

[TimingPoints]
1030,340.95636524863,3,2,1,30,1,0
3416,-66.6666666666667,3,2,1,30,0,0
4098,-100,3,2,1,30,0,0
5097,-66.6666666666667,3,2,1,30,0,0
11542,-83.3333333333333,3,2,1,30,0,0
12111,-66.6666666666667,3,2,1,30,0,0
12452,-66.6666666666667,3,2,1,10,0,0
12622,-66.6666666666667,3,2,1,30,0,0
35011,-66.6666666666667,3,2,1,10,0,0
35125,-66.6666666666667,3,2,1,30,0,0
37057,-66.6666666666667,3,2,1,10,0,0
37171,-66.6666666666667,3,2,1,30,0,0
38137,-66.6666666666667,3,2,1,5,0,0
38194,-66.6666666666667,3,2,1,30,0,0
38478,-66.6666666666667,3,2,1,5,0,0
38535,-66.6666666666667,3,2,1,30,0,0
38819,-66.6666666666667,3,2,1,5,0,0
38876,-66.6666666666667,3,2,1,30,0,0
39160,-66.6666666666667,3,2,1,5,0,0
39217,-66.6666666666667,3,2,1,30,0,0
39501,-66.6666666666667,3,2,1,5,0,0
39558,-66.6666666666667,3,2,1,30,0,0
39899,-66.6666666666667,3,2,1,30,0,0
46263,-66.6666666666667,3,2,1,5,0,0
46377,-66.6666666666667,3,2,1,30,0,0
47002,-100,3,2,1,30,0,0
47172,-100,3,2,1,5,0,0
47229,-100,3,2,1,30,0,0
47343,-100,3,2,1,5,0,0
47400,-100,3,2,1,30,0,0
47513,-100,3,2,1,5,0,0
47570,-100,3,2,1,30,0,0
47684,-100,3,2,1,5,0,0
47741,-100,3,2,1,30,0,0
47854,-100,3,2,1,5,0,0
47911,-100,3,2,1,30,0,0
48081,-66.6666666666667,3,2,1,30,0,0
90336,-50,3,2,1,30,0,0
91383,-66.6666666666667,3,2,1,30,0,0
92747,-50,3,2,1,30,0,0
99168,-100,3,2,1,30,0,0
112465,-50,3,2,1,30,0,0
115420,-50,3,2,1,30,0,0
119625,-100,3,2,1,30,0,0
121728,-188.679245283019,3,2,1,30,0,0
122751,-200,3,2,1,5,0,0
123376,-66.6666666666667,3,2,1,30,0,0
126786,-90.9090909090909,3,2,1,30,0,0
127467,-66.6666666666667,3,2,1,30,0,0
128831,-66.6666666666667,3,2,1,30,0,0
131957,-100,3,2,1,30,0,0
144174,-50,3,2,1,30,0,0
144458,-50,3,2,1,5,0,0
144572,-66.6666666666667,3,2,1,30,0,0
147811,-66.6666666666667,3,2,1,5,0,0
155085,-62.5,3,2,1,30,0,0
156506,-66.6666666666667,3,2,1,30,0,0
160029,-66.6666666666667,3,2,1,5,0,0
160199,-55.5555555555556,3,2,1,30,0,0
160199,-66.6666666666667,3,2,1,30,0,0
160370,-55.5555555555556,3,2,1,5,0,0
160540,-111.111111111111,3,2,1,30,0,0
162586,-200,3,2,1,30,0,0
164689,-50,3,2,1,30,0,1
166734,-66.6666666666667,3,2,1,30,0,1
167018,-66.6666666666667,3,2,1,5,0,1
167246,-100,3,2,1,30,0,1
168780,-50,3,2,1,30,0,1
170826,-83.3333333333333,3,2,1,30,0,1
172417,-50,3,2,1,30,0,1
175940,-66.6666666666667,3,2,1,30,0,1
176622,-50,3,2,1,30,0,1
176963,-66.6666666666667,3,2,1,30,0,1
179009,-133.333333333333,3,2,1,30,0,1
181054,-50,3,2,1,30,0,1
183098,-66.6666666666667,3,2,1,30,0,1
183382,-66.6666666666667,3,2,1,5,0,1
183610,-100,3,2,1,30,0,1
185144,-50,3,2,1,30,0,1
187190,-83.3333333333333,3,2,1,30,0,1
188781,-50,3,2,1,30,0,1
192304,-66.6666666666667,3,2,1,30,0,1
192986,-50,3,2,1,30,0,1
193327,-66.6666666666667,3,2,1,30,0,1
195373,-133.333333333333,3,2,1,30,0,1
197420,-133.333333333333,3,2,1,30,0,0

[HitObjects]
104,204,1030,2,0,P|140:224|204:236,1,100
304,224,1540,1,0,0:0:0:0:
380,168,1711,1,0,0:0:0:0:
248,40,2052,1,0,0:0:0:0:
88,152,2393,1,0,0:0:0:0:
68,208,2563,1,0,0:0:0:0:
72,268,2734,1,0,0:0:0:0:
248,224,3075,5,0,0:0:0:0:
144,84,3416,2,0,L|228:116,1,75.0000028610231
320,72,3757,1,0,0:0:0:0:
324,236,4098,2,0,P|268:308|164:336,1,200
168,148,5121,5,0,0:0:0:0:
428,148,5462,2,0,L|356:88,1,75.0000028610231
292,148,5803,1,0,0:0:0:0:
104,248,6144,1,0,0:0:0:0:
376,268,6485,2,0,L|316:216,1,75.0000076293945
360,148,6826,1,0,0:0:0:0:
164,264,7167,6,0,P|216:312|292:320,1,150.000005722046
376,268,7678,1,0,0:0:0:0:
296,224,7849,2,0,P|300:184|296:148,1,75.000002861023
304,60,8190,2,0,P|232:60|80:212,1,300.000011444092
248,272,9212,5,0,0:0:0:0:
456,236,9553,2,0,L|456:312,2,75.0000028610231
372,48,10235,5,0,0:0:0:0:
244,272,10576,2,0,B|228:240|212:224|212:224|220:228|228:224,1,75.0000028610231
344,160,10917,1,0,0:0:0:0:
472,168,11258,5,0,0:0:0:0:
212,224,11599,2,0,L|160:256,1,59.9999981689454
88,296,11940,1,0,0:0:0:0:
92,296,12281,2,0,P|84:264|92:224,1,75.0000028610231
108,244,12622,6,0,P|164:196|172:124,1,150.000005722046
244,64,13133,1,0,0:0:0:0:
324,104,13304,2,0,P|382:146|384:222,1,150.000005722046
360,296,13815,1,0,0:0:0:0:
336,220,13986,2,0,P|344:148|408:108,2,150.000005722046
360,296,14838,1,0,0:0:0:0:
278,281,15009,1,0,0:0:0:0:
198,301,15179,1,0,0:0:0:0:
142,245,15350,5,0,0:0:0:0:
170,169,15521,1,0,0:0:0:0:
246,205,15691,1,0,0:0:0:0:
172,172,15861,1,0,0:0:0:0:
206,97,16032,1,0,0:0:0:0:
172,168,16202,1,0,0:0:0:0:
142,245,16373,2,0,P|88:204|96:128,2,150.000005722046
420,236,17395,5,0,0:0:0:0:
264,40,17736,2,0,L|312:108,1,75.0000028610231
356,40,18077,1,0,0:0:0:0:
420,236,18418,5,0,0:0:0:0:
176,320,18759,2,0,L|240:276,1,75.0000028610231
244,188,19100,1,0,0:0:0:0:
96,288,19441,5,0,0:0:0:0:
344,168,19782,2,0,P|352:200|352:244,1,75.0000028610231
344,168,20123,1,0,0:0:0:0:
100,252,20464,5,0,0:0:0:0:
184,180,20805,2,0,L|240:128,1,75.0000028610231
304,68,21146,1,0,0:0:0:0:
436,312,21487,5,0,0:0:0:0:
248,124,21828,2,0,L|284:192,1,75.0000028610231
140,276,22169,2,0,L|208:240,1,75.0000028610231
344,268,22510,5,0,0:0:0:0:
208,84,22851,2,0,L|208:172,1,75.0000028610231
208,240,23192,1,0,0:0:0:0:
364,288,23533,5,0,0:0:0:0:
444,72,23874,1,0,0:0:0:0:
392,108,24044,1,0,0:0:0:0:
352,156,24215,1,0,0:0:0:0:
140,160,24555,5,0,0:0:0:0:
256,336,24896,2,0,P|280:328|320:296,1,75.0000028610231
352,232,25237,1,0,0:0:0:0:
440,344,25635,5,0,0:0:0:0:
320,60,25919,2,0,L|376:112,1,75.0000028610231
320,60,26260,1,0,0:0:0:0:
256,336,26601,5,0,0:0:0:0:
180,196,26942,2,0,L|236:144,1,75.0000028610231
320,144,27283,1,0,0:0:0:0:
176,324,27624,5,0,0:0:0:0:
336,204,27965,2,0,P|348:248|372:264,1,75.0000076293945
384,152,28306,1,0,0:0:0:0:
296,304,28647,5,0,0:0:0:0:
204,28,28988,2,0,B|212:28|212:28|216:64|200:92,1,75.0000076293945
140,140,29329,2,0,B|132:140|132:140|128:176|144:204,1,75.0000076293945
144,280,29670,5,0,0:0:0:0:
240,72,30011,1,0,0:0:0:0:
260,172,30181,1,0,0:0:0:0:
368,196,30352,1,0,0:0:0:0:
308,351,30693,5,0,0:0:0:0:
368,196,31034,1,0,0:0:0:0:
308,56,31204,1,0,0:0:0:0:
316,136,31375,2,0,P|308:176|288:204,1,75.0000076293945
256,192,31716,12,0,33420,0:0:0:0:
62,284,33761,5,0,0:0:0:0:
91,278,33875,1,0,0:0:0:0:
120,271,33989,1,0,0:0:0:0:
148,261,34102,1,0,0:0:0:0:
176,250,34216,1,0,0:0:0:0:
202,236,34330,1,0,0:0:0:0:
227,220,34443,1,0,0:0:0:0:
249,199,34557,1,0,0:0:0:0:
268,176,34671,1,0,0:0:0:0:
284,148,34784,2,0,P|292:200|276:248,1,100.000007629395
252,280,35125,1,0,0:0:0:0:
392,320,35466,1,0,0:0:0:0:
426,182,35807,5,0,0:0:0:0:
400,168,35921,1,0,0:0:0:0:
381,144,36034,1,0,0:0:0:0:
367,116,36148,1,0,0:0:0:0:
357,87,36262,1,0,0:0:0:0:
344,59,36375,1,0,0:0:0:0:
324,36,36489,1,0,0:0:0:0:
298,19,36603,1,0,0:0:0:0:
268,13,36716,1,0,0:0:0:0:
276,52,36830,2,0,P|284:104|268:152,1,100.000007629395
244,184,37171,1,0,0:0:0:0:
208,304,37512,2,0,P|200:256|180:240,1,75.0000028610231
120,224,37853,6,0,P|132:152|168:116,1,125.000007629395
180,144,38194,2,0,P|252:132|288:96,1,125.000007629395
224,88,38535,2,0,P|188:123|176:195,1,125.000007629395
264,140,38876,2,0,P|306:80|306:29,1,125.000007629395
232,124,39217,2,0,P|232:173|274:233,1,125.000007629395
296,160,39558,1,0,0:0:0:0:
224,184,39728,1,0,0:0:0:0:
276,232,39899,6,0,P|216:296|156:312,1,150.000015258789
72,260,40410,1,0,0:0:0:0:
128,172,40580,1,0,0:0:0:0:
216,224,40921,2,0,P|312:180|320:72,1,225.000008583069
320,72,41602,1,0,0:0:0:0:
128,172,41944,6,0,P|280:80|328:72,1,225.000015258789
312,168,42626,1,0,0:0:0:0:
416,40,42967,1,0,0:0:0:0:
473,114,43138,1,0,0:0:0:0:
469,207,43308,1,0,0:0:0:0:
416,288,43479,1,0,0:0:0:0:
368,204,43649,2,0,P|368:168|388:136,1,75.0000028610231
288,148,43990,6,0,P|240:108|156:96,1,150.000015258789
56,124,44501,1,0,0:0:0:0:
128,196,44672,1,0,0:0:0:0:
152,316,45013,5,0,0:0:0:0:
204,264,45183,1,0,0:0:0:0:
164,196,45354,1,0,0:0:0:0:
88,216,45524,1,0,0:0:0:0:
84,288,45695,2,0,P|96:252|88:216,1,75.0000076293945
160,276,46036,6,0,P|112:236|72:228,1,100.000007629395
64,244,46377,2,0,P|160:172|172:152,1,125.000007629395
144,160,46718,2,0,P|183:148|217:154,1,75.0000076293945
312,120,47059,6,0,L|316:84,1,33.3333320617676
352,128,47229,2,0,L|368:88,1,33.3333320617676
380,148,47400,2,0,L|412:120,1,33.3333320617676
404,172,47570,2,0,L|436:156,1,33.3333320617676
412,204,47741,2,0,L|448:196,1,33.3333320617676
408,236,47911,2,0,L|444:236,1,33.3333320617676
384,268,48081,6,0,B|324:280|300:308|300:308|184:312|120:332,1,275.000030517578
272,56,49104,1,0,0:0:0:0:
224,264,49445,1,0,0:0:0:0:
72,120,49786,1,0,0:0:0:0:
432,192,50127,5,0,0:0:0:0:
312,168,50298,1,0,0:0:0:0:
352,280,50468,1,0,0:0:0:0:
312,168,50639,5,0,0:0:0:0:
192,144,50810,1,0,0:0:0:0:
224,264,50980,1,0,0:0:0:0:
192,144,51150,5,0,0:0:0:0:
72,120,51321,1,0,0:0:0:0:
112,232,51491,1,0,0:0:0:0:
72,120,51662,5,0,0:0:0:0:
152,32,51833,1,0,0:0:0:0:
192,144,52003,1,0,0:0:0:0:
152,32,52173,5,0,0:0:0:0:
272,56,52344,1,0,0:0:0:0:
312,168,52514,1,0,0:0:0:0:
272,56,52684,5,0,0:0:0:0:
392,80,52855,1,0,0:0:0:0:
432,192,53025,1,0,0:0:0:0:
392,80,53196,5,0,0:0:0:0:
432,196,53367,1,0,0:0:0:0:
352,280,53537,1,0,0:0:0:0:
232,256,53707,5,0,0:0:0:0:
312,168,53877,1,0,0:0:0:0:
272,56,54048,1,0,0:0:0:0:
312,168,54219,5,0,0:0:0:0:
232,256,54389,1,0,0:0:0:0:
112,232,54560,1,0,0:0:0:0:
72,120,54730,5,0,0:0:0:0:
112,232,54901,1,0,0:0:0:0:
232,256,55071,1,0,0:0:0:0:
112,232,55242,5,0,0:0:0:0:
192,144,55412,1,0,0:0:0:0:
272,56,55583,1,0,0:0:0:0:
152,32,55753,5,0,0:0:0:0:
272,56,55924,1,0,0:0:0:0:
312,168,56094,1,0,0:0:0:0:
352,280,56264,5,0,0:0:0:0:
232,256,56435,1,0,0:0:0:0:
112,232,56605,1,0,0:0:0:0:
72,120,56776,5,0,0:0:0:0:
192,144,56946,1,0,0:0:0:0:
152,32,57117,1,0,0:0:0:0:
152,32,57287,5,0,0:0:0:0:
272,56,57458,1,0,0:0:0:0:
392,80,57628,1,0,0:0:0:0:
312,168,57799,5,0,0:0:0:0:
432,192,57969,1,0,0:0:0:0:
352,280,58140,1,0,0:0:0:0:
432,192,58310,5,0,0:0:0:0:
312,216,58481,1,0,0:0:0:0:
352,104,58651,1,0,0:0:0:0:
312,216,58822,5,0,0:0:0:0:
192,240,58993,1,0,0:0:0:0:
232,128,59163,1,0,0:0:0:0:
192,240,59333,5,0,0:0:0:0:
72,264,59504,1,0,0:0:0:0:
112,152,59674,1,0,0:0:0:0:
72,264,59845,5,0,0:0:0:0:
152,352,60016,1,0,0:0:0:0:
192,240,60186,1,0,0:0:0:0:
152,352,60356,5,0,0:0:0:0:
272,328,60527,1,0,0:0:0:0:
312,216,60697,1,0,0:0:0:0:
272,328,60867,5,0,0:0:0:0:
392,304,61038,1,0,0:0:0:0:
432,192,61208,1,0,0:0:0:0:
392,304,61379,5,0,0:0:0:0:
432,188,61550,1,0,0:0:0:0:
352,104,61720,1,0,0:0:0:0:
232,128,61890,5,0,0:0:0:0:
312,216,62060,1,0,0:0:0:0:
272,328,62231,1,0,0:0:0:0:
312,216,62402,5,0,0:0:0:0:
232,128,62572,1,0,0:0:0:0:
112,152,62743,1,0,0:0:0:0:
72,264,62913,5,0,0:0:0:0:
112,152,63084,1,0,0:0:0:0:
232,128,63254,1,0,0:0:0:0:
112,152,63425,5,0,0:0:0:0:
192,240,63595,1,0,0:0:0:0:
272,328,63766,1,0,0:0:0:0:
152,352,63936,5,0,0:0:0:0:
272,328,64107,1,0,0:0:0:0:
312,216,64277,1,0,0:0:0:0:
352,104,64447,5,0,0:0:0:0:
232,128,64618,1,0,0:0:0:0:
112,152,64788,1,0,0:0:0:0:
192,240,64959,5,0,0:0:0:0:
72,264,65129,1,0,0:0:0:0:
152,352,65300,1,0,0:0:0:0:
152,352,65470,5,0,0:0:0:0:
272,328,65641,1,0,0:0:0:0:
392,304,65811,1,0,0:0:0:0:
312,216,65982,5,0,0:0:0:0:
432,192,66152,1,0,0:0:0:0:
352,104,66323,1,0,0:0:0:0:
352,104,66493,1,0,0:0:0:0:
36,308,82859,6,0,P|260:224|296:184,1,300.000011444092
320,92,83882,2,0,P|384:44|456:40,2,150.000005722046
172,152,84905,2,0,P|244:136|316:156,1,150.000005722046
288,216,85416,1,0,0:0:0:0:
260,280,85587,2,0,P|332:300|404:284,1,150.000005722046
408,117,86269,2,0,L|408:192,1,75.0000028610231
408,116,86610,1,0,0:0:0:0:
272,348,86951,5,0,0:0:0:0:
72,116,87291,2,0,P|60:160|60:192,1,75.0000028610231
176,300,87632,2,0,P|164:256|164:224,1,75.0000028610231
292,216,87973,5,0,0:0:0:0:
400,64,88314,2,0,L|336:108,1,75.0000028610231
292,216,88655,1,0,0:0:0:0:
464,324,88996,5,0,0:0:0:0:
80,56,89337,2,0,P|80:112|88:128,1,75.0000028610231
176,216,89678,1,0,0:0:0:0:
208,36,90019,1,0,0:0:0:0:
301,192,90360,2,0,B|302:242|280:267|280:267|277:256|280:248,1,100
356,160,90701,1,0,0:0:0:0:
188,304,91042,5,0,0:0:0:0:
204,144,91383,2,0,L|256:200,1,75.0000028610231
320,64,91724,1,0,0:0:0:0:
88,300,92065,5,0,0:0:0:0:
204,80,92406,1,0,0:0:0:0:
204,80,92576,1,0,0:0:0:0:
204,80,92747,2,0,L|104:80,1,100
104,172,93088,1,0,0:0:0:0:
104,80,93429,5,0,0:0:0:0:
184,160,93599,1,0,0:0:0:0:
264,80,93770,1,0,0:0:0:0:
340,160,93940,1,0,0:0:0:0:
408,240,94111,5,0,0:0:0:0:
184,80,94452,1,0,0:0:0:0:
104,160,94622,1,0,0:0:0:0:
184,240,94793,1,0,0:0:0:0:
104,320,94963,1,0,0:0:0:0:
184,240,95133,5,0,0:0:0:0:
440,160,95474,1,0,0:0:0:0:
360,80,95645,1,0,0:0:0:0:
276,160,95815,1,0,0:0:0:0:
360,240,95986,1,0,0:0:0:0:
360,160,96156,5,0,0:0:0:0:
208,180,96497,1,0,0:0:0:0:
108,68,96668,1,0,0:0:0:0:
196,92,96838,1,0,0:0:0:0:
288,220,97009,1,0,0:0:0:0:
136,244,97179,1,0,0:0:0:0:
256,192,97350,12,0,98884,0:0:0:0:
265,322,99225,5,0,0:0:0:0:
289,298,99339,1,0,0:0:0:0:
305,266,99453,1,0,0:0:0:0:
313,234,99566,1,0,0:0:0:0:
310,206,99680,1,0,0:0:0:0:
296,180,99794,1,0,0:0:0:0:
280,160,99907,1,0,0:0:0:0:
263,185,100021,1,0,0:0:0:0:
244,208,100135,1,0,0:0:0:0:
219,223,100248,5,0,0:0:0:0:
189,225,100362,1,0,0:0:0:0:
161,216,100475,1,0,0:0:0:0:
139,197,100589,1,0,0:0:0:0:
130,169,100703,1,0,0:0:0:0:
132,140,100816,1,0,0:0:0:0:
146,114,100930,1,0,0:0:0:0:
228,92,101100,1,0,0:0:0:0:
228,93,101271,5,0,0:0:0:0:
250,114,101385,1,0,0:0:0:0:
262,142,101498,1,0,0:0:0:0:
268,172,101612,1,0,0:0:0:0:
270,203,101726,1,0,0:0:0:0:
276,233,101839,1,0,0:0:0:0:
288,264,101953,1,0,0:0:0:0:
308,288,102067,1,0,0:0:0:0:
340,296,102180,1,0,0:0:0:0:
367,294,102294,5,0,0:0:0:0:
394,278,102408,1,0,0:0:0:0:
412,254,102521,1,0,0:0:0:0:
417,225,102635,1,0,0:0:0:0:
411,196,102749,1,0,0:0:0:0:
392,174,102862,1,0,0:0:0:0:
365,161,102976,1,0,0:0:0:0:
288,188,103146,1,0,0:0:0:0:
286,190,103317,5,0,0:0:0:0:
269,215,103430,1,0,0:0:0:0:
252,240,103544,1,0,0:0:0:0:
233,264,103658,1,0,0:0:0:0:
212,285,103771,1,0,0:0:0:0:
188,302,103885,1,0,0:0:0:0:
161,314,103999,1,0,0:0:0:0:
132,318,104112,1,0,0:0:0:0:
103,316,104226,1,0,0:0:0:0:
75,307,104340,5,0,0:0:0:0:
52,289,104453,1,0,0:0:0:0:
34,266,104567,1,0,0:0:0:0:
19,241,104681,1,0,0:0:0:0:
13,212,104794,1,0,0:0:0:0:
13,182,104908,1,0,0:0:0:0:
21,153,105022,1,0,0:0:0:0:
88,92,105192,1,0,0:0:0:0:
87,94,105363,5,0,0:0:0:0:
117,92,105476,1,0,0:0:0:0:
147,97,105590,1,0,0:0:0:0:
175,109,105703,1,0,0:0:0:0:
201,126,105817,1,0,0:0:0:0:
216,153,105931,1,0,0:0:0:0:
223,183,106044,1,0,0:0:0:0:
227,213,106158,1,0,0:0:0:0:
232,240,106272,1,0,0:0:0:0:
244,272,106385,5,0,0:0:0:0:
264,296,106499,1,0,0:0:0:0:
295,303,106613,1,0,0:0:0:0:
325,303,106726,1,0,0:0:0:0:
351,287,106840,1,0,0:0:0:0:
370,264,106954,1,0,0:0:0:0:
384,236,107067,2,0,P|380:200|392:172,1,66.6666641235352
416,152,107408,5,0,0:0:0:0:
404,180,107522,1,0,0:0:0:0:
380,200,107636,1,0,0:0:0:0:
356,216,107749,1,0,0:0:0:0:
333,226,107863,1,0,0:0:0:0:
303,230,107977,1,0,0:0:0:0:
273,234,108090,1,0,0:0:0:0:
244,244,108204,1,0,0:0:0:0:
224,266,108317,1,0,0:0:0:0:
196,280,108431,5,0,0:0:0:0:
167,278,108545,1,0,0:0:0:0:
142,263,108658,1,0,0:0:0:0:
124,240,108772,1,0,0:0:0:0:
122,211,108886,1,0,0:0:0:0:
130,183,108999,1,0,0:0:0:0:
151,161,109113,1,0,0:0:0:0:
292,128,109283,1,0,0:0:0:0:
249,270,109454,5,0,0:0:0:0:
220,268,109568,1,0,0:0:0:0:
195,253,109681,1,0,0:0:0:0:
177,230,109795,1,0,0:0:0:0:
175,201,109909,1,0,0:0:0:0:
183,173,110022,1,0,0:0:0:0:
204,151,110136,1,0,0:0:0:0:
234,141,110249,5,0,0:0:0:0:
264,140,110362,1,0,0:0:0:0:
291,153,110476,1,0,0:0:0:0:
316,172,110589,1,0,0:0:0:0:
336,196,110703,1,0,0:0:0:0:
352,224,110817,1,0,0:0:0:0:
364,252,110930,1,0,0:0:0:0:
364,284,111044,1,0,0:0:0:0:
352,312,111158,2,0,P|352:336|376:360,1,50
392,324,111499,2,0,B|312:328|248:368|248:368|256:340|272:316,1,200
266,324,112352,1,0,0:0:0:0:
388,220,112522,6,0,P|444:216|488:228,1,100
328,272,112863,2,0,P|272:276|228:264,1,100
436,164,113204,2,0,B|440:160|448:160|448:160|440:196|380:224,1,100
284,128,113545,1,0,0:0:0:0:
256,192,113602,12,0,115079,0:0:0:0:
28,88,115591,6,0,B|56:88|56:88|56:80|56:80|64:88|64:88|64:76|64:76|72:88|72:88|72:72|72:72|80:88|80:88|80:68|80:68|88:88|88:88|88:64|88:64|96:88|96:88|96:68|96:68|104:72|104:72|104:88|104:88|112:76|112:76|112:88|112:88|120:80|120:80|120:88|120:88|128:88|128:88|128:196,1,400
128,192,116443,1,0,0:0:0:0:
128,192,116614,2,0,B|128:220|128:220|136:220|136:220|128:228|128:228|140:228|140:228|128:236|128:236|144:236|144:236|128:244|128:244|148:244|148:244|128:252|128:252|152:252|152:252|128:260|128:260|148:260|148:260|144:268|144:268|128:268|128:268|140:276|140:276|128:276|128:276|136:284|136:284|128:284|128:284|128:292|128:292|236:292,1,400
324,192,117466,1,0,0:0:0:0:
128,192,117637,2,0,B|152:192|152:192|168:196|168:196|168:188|168:188|180:200|180:200|180:184|180:184|188:204|188:204|188:180|188:180|196:204|196:204|196:180|196:180|204:204|204:204|204:180|204:180|212:200|212:200|212:184|212:184|224:188|224:188|224:196|224:196|240:192|240:192|296:192|296:192|300:184|300:184|300:200|300:200|304:184|304:184|304:200|304:200|308:184|308:184|308:200|308:200|312:184|312:184|312:200|312:200|316:184|316:184|316:200|316:200|320:184|320:184|320:200|320:200|324:184|324:184|324:200|324:200|328:184|328:184|328:200|328:200|336:192,1,600
224,164,118830,1,0,0:0:0:0:
128,224,119000,1,0,0:0:0:0:
28,192,119171,1,0,0:0:0:0:
144,120,119341,1,0,0:0:0:0:
224,276,119512,1,0,0:0:0:0:
388,192,119682,2,0,L|238:192,1,150
312,112,120364,1,0,0:0:0:0:
392,280,120535,1,0,0:0:0:0:
476,192,120705,2,0,L|326:192,1,150
184,220,121387,1,0,0:0:0:0:
396,148,121558,1,0,0:0:0:0:
244,144,121728,2,0,B|328:188|328:188|328:332,1,238.500000363922
200,260,123433,5,0,0:0:0:0:
204,108,123603,1,0,0:0:0:0:
328,192,123774,2,0,B|244:272|120:260,1,225.000008583069
176,176,124456,5,0,0:0:0:0:
220,344,124626,1,0,0:0:0:0:
200,260,124797,2,0,B|320:252|400:348,1,225.000008583069
220,344,125479,5,0,0:0:0:0:
316,188,125649,1,0,0:0:0:0:
128,192,125820,2,0,B|102:166|102:122|102:122|70:174|74:266,1,225.000008583069
220,348,126501,5,0,0:0:0:0:
384,300,126672,1,0,0:0:0:0:
288,268,126842,2,0,P|200:260|128:288,1,165.000005035401
316,328,127524,2,0,P|352:320|384:300,1,75.0000028610231
256,308,127865,2,0,P|288:208|280:164,1,150.000005722046
196,328,128377,1,0,0:0:0:0:
404,224,128547,1,0,0:0:0:0:
312,40,128718,1,0,0:0:0:0:
100,136,128888,2,0,P|128:256|200:332,1,225.000008583069
256,192,129570,2,0,P|280:160|312:140,2,75.0000028610231
256,192,129968,12,0,131616,0:0:0:0:
92,36,131957,5,0,0:0:0:0:
120,52,132070,1,0,0:0:0:0:
148,68,132184,1,0,0:0:0:0:
176,84,132298,1,0,0:0:0:0:
204,100,132411,1,0,0:0:0:0:
232,116,132525,1,0,0:0:0:0:
260,132,132639,5,0,0:0:0:0:
232,148,132752,1,0,0:0:0:0:
204,164,132866,1,0,0:0:0:0:
176,180,132980,1,0,0:0:0:0:
148,196,133093,1,0,0:0:0:0:
120,212,133207,1,0,0:0:0:0:
88,228,133321,6,0,L|128:252,1,33.3333333333333
152,268,133548,2,0,L|192:292,1,33.3333333333333,0|0,0:0|0:0,0:0:0:0:
208,300,133775,2,0,L|248:324,1,33.3333333333333
276,48,134002,6,0,L|308:68,1,33.3333333333333
332,80,134230,1,0,0:0:0:0:
364,100,134343,2,0,L|392:117,1,33.3333333333333
420,136,134571,1,0,0:0:0:0:
392,153,134683,5,0,0:0:0:0:
364,169,134797,1,0,0:0:0:0:
336,185,134910,1,0,0:0:0:0:
308,201,135024,1,0,0:0:0:0:
280,217,135138,1,0,0:0:0:0:
252,233,135251,1,0,0:0:0:0:
280,249,135365,5,0,0:0:0:0:
308,265,135479,1,0,0:0:0:0:
336,281,135592,1,0,0:0:0:0:
364,297,135706,1,0,0:0:0:0:
392,313,135820,1,0,0:0:0:0:
420,329,135933,1,0,0:0:0:0:
192,112,136048,5,0,0:0:0:0:
192,112,136162,1,0,0:0:0:0:
192,112,136276,1,0,0:0:0:0:
192,112,136389,1,0,0:0:0:0:
192,112,136502,1,0,0:0:0:0:
192,112,136616,1,0,0:0:0:0:
208,176,136730,5,0,0:0:0:0:
208,176,136844,1,0,0:0:0:0:
208,176,136957,1,0,0:0:0:0:
208,176,137072,1,0,0:0:0:0:
208,176,137185,1,0,0:0:0:0:
208,176,137298,1,0,0:0:0:0:
272,192,137412,5,0,0:0:0:0:
272,192,137526,1,0,0:0:0:0:
272,192,137640,1,0,0:0:0:0:
272,192,137753,1,0,0:0:0:0:
272,192,137866,1,0,0:0:0:0:
272,192,137980,1,0,0:0:0:0:
288,256,138094,5,0,0:0:0:0:
288,256,138208,1,0,0:0:0:0:
288,256,138322,1,0,0:0:0:0:
288,256,138435,1,0,0:0:0:0:
288,256,138548,1,0,0:0:0:0:
288,256,138662,1,0,0:0:0:0:
352,272,138776,5,0,0:0:0:0:
352,272,138890,1,0,0:0:0:0:
352,272,139003,1,0,0:0:0:0:
352,272,139118,1,0,0:0:0:0:
352,272,139231,1,0,0:0:0:0:
352,272,139344,1,0,0:0:0:0:
368,336,139458,5,0,0:0:0:0:
368,336,139572,1,0,0:0:0:0:
368,336,139686,1,0,0:0:0:0:
368,336,139799,1,0,0:0:0:0:
368,336,139912,1,0,0:0:0:0:
368,336,140026,1,0,0:0:0:0:
440,260,140140,6,0,L|476:228,2,33.3333320617676
416,160,140481,6,0,L|444:132,2,33.3333320617676
380,72,140822,6,0,L|416:40,2,33.3333320617676
288,56,141163,6,0,L|252:56,2,33.3333320617676
340,136,141504,6,0,L|324:176,2,33.3333320617676
432,112,141845,6,0,L|468:112,2,33.3333320617676
380,28,142185,5,0,0:0:0:0:
408,56,142298,1,0,0:0:0:0:
436,84,142412,1,0,0:0:0:0:
464,112,142526,1,0,0:0:0:0:
464,152,142639,1,0,0:0:0:0:
464,192,142752,1,0,0:0:0:0:
460,232,142866,5,0,0:0:0:0:
428,260,142980,1,0,0:0:0:0:
396,288,143095,1,0,0:0:0:0:
356,288,143207,1,0,0:0:0:0:
316,288,143321,1,0,0:0:0:0:
276,288,143435,1,0,0:0:0:0:
236,288,143549,5,0,0:0:0:0:
196,288,143663,1,0,0:0:0:0:
156,288,143777,1,0,0:0:0:0:
116,288,143889,1,0,0:0:0:0:
84,316,144004,1,0,0:0:0:0:
52,344,144118,1,0,0:0:0:0:
212,200,144231,6,0,B|216:184|204:164|204:164|176:220|196:296,1,166.666666666667
168,328,144572,2,0,P|200:336|232:312,1,75.0000028610231
332,56,144913,2,0,P|300:48|268:72,1,75.0000028610231
436,272,145254,2,0,B|440:264|440:264|432:260|432:260|440:256|440:256|432:252|432:252|440:248|440:248|432:244|432:244|440:240|440:240|432:236|432:236|440:232|440:232|432:228|432:228|440:224|440:224|432:220|432:220|440:216|440:216|432:212|432:212|440:208|440:208|432:204|432:204|440:200|440:200|432:196|432:196|440:192|440:192|432:188|432:188|440:184|440:184|432:180|432:180|440:176|440:176|432:172|432:172|436:164|436:164|436:12|436:12,1,375.000014305115
388,44,146277,5,0,0:0:0:0:
344,80,146391,1,0,0:0:0:0:
300,120,146504,1,0,0:0:0:0:
238,137,146618,5,0,0:0:0:0:
256,192,146732,1,0,0:0:0:0:
271,249,146845,1,0,0:0:0:0:
216,272,146959,5,0,0:0:0:0:
172,308,147073,1,0,0:0:0:0:
128,348,147186,1,0,0:0:0:0:
328,252,147300,2,0,B|376:252|376:252|372:272|372:272|216:272,1,225.000008583069
304,192,155142,6,0,L|320:112,1,80
240,240,155483,1,0,0:0:0:0:
384,64,155653,1,0,0:0:0:0:
304,192,155824,1,0,0:0:0:0:
224,320,155994,1,0,0:0:0:0:
368,240,156165,1,0,0:0:0:0:
232,163,156335,1,0,0:0:0:0:
112,80,156506,6,0,P|176:160|272:240,1,225.000008583069
256,80,157188,1,0,0:0:0:0:
68,228,157358,1,0,0:0:0:0:
192,192,157528,2,0,B|344:192|344:192|344:272,1,225.000008583069
148,272,158210,1,0,0:0:0:0:
432,224,158381,1,0,0:0:0:0:
292,248,158551,2,0,P|288:96|324:36,1,225.000008583069
240,208,159233,2,0,P|200:204|168:184,1,75.0000028610231
228,144,159574,2,0,P|252:260|228:364,1,225.000008583069
252,144,160256,6,0,P|228:116|212:80,1,75.0000028610231
340,196,160597,2,0,B|344:188|344:188|356:208|356:208|344:228|344:228|344:308,1,134.999995880127
136,260,161279,1,0,0:0:0:0:
340,112,161449,1,0,0:0:0:0:
240,188,161620,2,0,L|264:320,1,134.999995880127
192,148,162302,2,0,P|212:132|232:124,1,44.999998626709
184,208,162643,2,0,P|144:284|92:320,1,150
248,320,164007,1,0,0:0:0:0:
232,104,164348,1,0,0:0:0:0:
32,36,164689,6,0,P|92:124|268:188,1,300
208,68,165370,1,0,0:0:0:0:
328,308,165541,1,0,0:0:0:0:
476,92,165711,6,0,P|371:72|201:151,1,300
140,300,166393,1,0,0:0:0:0:
348,160,166564,1,0,0:0:0:0:
120,68,166734,6,0,P|144:136|208:184,1,150.000005722046
448,144,167246,2,0,P|382:112|308:124,1,150
308,320,167928,1,0,0:0:0:0:
128,244,168098,1,0,0:0:0:0:
384,140,168269,1,0,0:0:0:0:
204,64,168439,1,0,0:0:0:0:
308,320,168610,1,0,0:0:0:0:
488,108,168780,6,0,P|348:128|208:212,1,300
120,336,169462,1,0,0:0:0:0:
404,252,169632,1,0,0:0:0:0:
208,64,169803,6,0,P|228:204|312:344,1,300,0|0,0:0|0:0,0:0:0:0:
312,100,170485,1,0,0:0:0:0:
364,240,170655,1,0,0:0:0:0:
408,144,170826,2,0,L|184:232,1,239.999992675781
120,236,171622,1,0,0:0:0:0:
68,204,171735,1,0,0:0:0:0:
44,144,171849,5,0,0:0:0:0:
56,80,171962,1,0,0:0:0:0:
108,40,172076,1,0,0:0:0:0:
172,32,172190,1,0,0:0:0:0:
228,60,172303,1,0,0:0:0:0:
260,112,172417,2,0,P|276:172|268:244,1,133.333333333333
344,148,172872,6,0,B|391:61|391:61|436:156|364:252,1,300
344,148,173553,1,0,0:0:0:0:
392,64,173724,1,0,0:0:0:0:
364,252,173894,2,0,B|261:308|173:251|173:251|266:216,1,300
364,252,174576,1,0,0:0:0:0:
176,252,174747,1,0,0:0:0:0:
276,96,174917,22,0,B|336:96|336:96|336:200|176:152|176:256,1,300
264,252,175599,2,0,L|364:252,1,100
180,144,175940,2,0,P|112:228|112:344,1,225.000008583069
196,312,176622,2,0,B|232:288|200:252|236:224,1,100
284,268,176963,2,0,B|432:268|432:268|468:336,1,225.000008583069
280,360,177645,1,0,0:0:0:0:
352,180,177815,1,0,0:0:0:0:
284,268,177986,2,0,B|136:268|136:268|100:200,1,225.000008583069
288,176,178668,1,0,0:0:0:0:
372,316,178838,1,0,0:0:0:0:
208,244,179009,2,0,B|176:172|208:68|320:72|372:136|372:136|372:213,1,375.000014305115
208,244,181054,6,0,P|268:156|444:92,1,300
304,316,181735,1,0,0:0:0:0:
184,76,181906,1,0,0:0:0:0:
36,292,182076,6,0,P|140:311|310:232,1,300
372,84,182758,1,0,0:0:0:0:
164,224,182929,1,0,0:0:0:0:
392,316,183099,6,0,P|368:248|304:200,1,150.000005722046
64,240,183611,2,0,P|129:271|204:260,1,150
384,140,184293,1,0,0:0:0:0:
128,244,184463,1,0,0:0:0:0:
204,64,184634,1,0,0:0:0:0:
308,320,184804,1,0,0:0:0:0:
204,64,184975,1,0,0:0:0:0:
24,276,185145,6,0,P|164:256|304:172,1,300
392,48,185827,1,0,0:0:0:0:
128,244,185997,1,0,0:0:0:0:
304,320,186168,6,0,P|284:180|200:40,1,300,0|0,0:0|0:0,0:0:0:0:
200,284,186850,1,0,0:0:0:0:
148,144,187020,1,0,0:0:0:0:
104,240,187191,2,0,L|328:152,1,239.999992675781
392,148,187987,1,0,0:0:0:0:
444,180,188100,1,0,0:0:0:0:
468,240,188214,5,0,0:0:0:0:
456,304,188327,1,0,0:0:0:0:
404,344,188441,1,0,0:0:0:0:
340,352,188555,1,0,0:0:0:0:
284,324,188668,1,0,0:0:0:0:
256,268,188782,2,0,P|240:208|248:136,1,133.333333333333
168,236,189237,6,0,B|120:322|120:322|76:228|148:132,1,300
168,236,189918,1,0,0:0:0:0:
120,320,190089,1,0,0:0:0:0:
148,132,190259,2,0,B|250:75|338:132|338:132|245:167,1,300
148,132,190941,1,0,0:0:0:0:
336,132,191112,1,0,0:0:0:0:
236,288,191282,22,0,B|176:288|176:288|176:184|336:232|336:128,1,300
248,132,191964,2,0,L|148:132,1,100
332,240,192305,2,0,P|400:156|400:40,1,225.000008583069
316,72,192987,2,0,B|280:96|312:132|276:160,1,100
228,116,193328,2,0,B|80:116|80:116|44:48,1,225.000008583069
232,24,194010,1,0,0:0:0:0:
156,196,194180,1,0,0:0:0:0:
228,116,194351,2,0,B|376:116|376:116|412:184,1,225.000008583069
156,196,195034,2,0,L|100:140,1,75.0000076293945
256,192,195375,12,0,197079,0:0:0:0:
