osu file format v14

[General]
AudioFilename: Legende.mp3
AudioLeadIn: 0
PreviewTime: 95972
Countdown: 0
SampleSet: Normal
StackLeniency: 0.2
Mode: 1
LetterboxInBreaks: 0
WidescreenStoryboard: 0

[Editor]
DistanceSpacing: 0.6
BeatDivisor: 4
GridSize: 8
TimelineZoom: 1

[Metadata]
Title:Legende
TitleUnicode:Legende
Artist:Resonecia
ArtistUnicode:Resonecia
Creator:lolcubes
Version:Legendary Oni
Source:
Tags:c85 erbschaft
BeatmapID:380524
BeatmapSetID:155063

[Difficulty]
HPDrainRate:4
CircleSize:5
OverallDifficulty:5.5
ApproachRate:5
SliderMultiplier:1.4
SliderTickRate:1

[Events]
//Background and Video events
0,0,"bglol.jpg",0,102
//Break Periods
//Storyboard Layer 0 (Background)
//Storyboard Layer 1 (Fail)
//Storyboard Layer 2 (Pass)
//Storyboard Layer 3 (Foreground)
//Storyboard Sound Samples

[TimingPoints]
2720,342.857142857143,4,1,0,88,1,0
24662,-100,4,1,0,88,0,1
35634,-100,4,1,0,88,0,0
95977,-100,4,1,0,88,0,1
117920,-100,4,1,0,88,0,0
128891,342.857142857143,5,1,0,88,1,0
154605,342.857142857143,3,1,0,88,1,0
171062,342.857142857143,4,1,0,88,1,0
173804,-100,4,1,0,88,0,1
195747,-100,4,1,0,88,0,0
212204,-100,4,1,0,88,0,1
223176,-100,4,1,0,88,0,0
231490,-100,4,3,0,5,0,0
233804,-100,4,1,0,88,0,0
267062,-100,4,1,0,88,0,1
283519,-100,4,1,0,88,0,0
289004,-100,4,1,0,88,0,1
310947,-100,4,1,0,88,0,0
332890,-89.2857142857143,4,1,0,88,0,1
343776,-89.2857142857143,4,1,0,88,0,0
344462,-100,4,1,0,88,0,0
349347,-86.9565217391304,4,1,0,88,0,1
353376,-86.9565217391304,4,3,0,5,0,1
355519,-86.9565217391304,4,3,0,5,0,0

[HitObjects]
256,192,2719,5,4,0:0:0:0:
256,192,3234,1,8,0:0:0:0:
256,192,3320,1,8,0:0:0:0:
256,192,3405,1,0,0:0:0:0:
256,192,3577,1,0,0:0:0:0:
256,192,3748,1,0,0:0:0:0:
256,192,3920,1,0,0:0:0:0:
256,192,4091,1,12,0:0:0:0:
256,192,4605,1,8,0:0:0:0:
256,192,4691,1,8,0:0:0:0:
256,192,4777,1,8,0:0:0:0:
256,192,4948,1,0,0:0:0:0:
256,192,5034,1,0,0:0:0:0:
256,192,5120,1,0,0:0:0:0:
256,192,5205,1,0,0:0:0:0:
256,192,5291,1,0,0:0:0:0:
256,192,5462,1,4,0:0:0:0:
256,192,5977,1,8,0:0:0:0:
256,192,6062,1,8,0:0:0:0:
256,192,6148,1,0,0:0:0:0:
256,192,6234,1,0,0:0:0:0:
256,192,6320,1,0,0:0:0:0:
256,192,6491,1,8,0:0:0:0:
256,192,6662,1,0,0:0:0:0:
256,192,6834,1,12,0:0:0:0:
256,192,7348,1,8,0:0:0:0:
256,192,7434,1,0,0:0:0:0:
256,192,7520,1,8,0:0:0:0:
256,192,7691,1,8,0:0:0:0:
256,192,7862,1,0,0:0:0:0:
256,192,7948,1,0,0:0:0:0:
256,192,8034,1,0,0:0:0:0:
256,192,8205,1,4,0:0:0:0:
256,192,8548,1,0,0:0:0:0:
256,192,8720,1,0,0:0:0:0:
256,192,8805,1,0,0:0:0:0:
256,192,8891,1,8,0:0:0:0:
256,192,9062,1,0,0:0:0:0:
256,192,9148,1,8,0:0:0:0:
256,192,9234,1,0,0:0:0:0:
256,192,9405,1,8,0:0:0:0:
256,192,9577,1,0,0:0:0:0:
256,192,9834,1,8,0:0:0:0:
256,192,9920,1,0,0:0:0:0:
256,192,10091,1,8,0:0:0:0:
256,192,10262,1,8,0:0:0:0:
256,192,10605,1,0,0:0:0:0:
256,192,10691,1,0,0:0:0:0:
256,192,10777,1,0,0:0:0:0:
256,192,10948,1,12,0:0:0:0:
256,192,11120,1,0,0:0:0:0:
256,192,11205,1,0,0:0:0:0:
256,192,11291,1,0,0:0:0:0:
256,192,11377,1,0,0:0:0:0:
256,192,11462,1,8,0:0:0:0:
256,192,11634,1,8,0:0:0:0:
256,192,11805,1,8,0:0:0:0:
256,192,11891,1,8,0:0:0:0:
256,192,11977,1,0,0:0:0:0:
256,192,12062,1,0,0:0:0:0:
256,192,12148,1,8,0:0:0:0:
256,192,12320,1,12,0:0:0:0:
256,192,12491,1,8,0:0:0:0:
256,192,12577,1,8,0:0:0:0:
256,192,12662,1,0,0:0:0:0:
256,192,12748,1,0,0:0:0:0:
256,192,12834,1,8,0:0:0:0:
256,192,12920,1,0,0:0:0:0:
256,192,13005,1,8,0:0:0:0:
256,192,13091,1,8,0:0:0:0:
256,192,13177,1,0,0:0:0:0:
256,192,13262,1,0,0:0:0:0:
256,192,13348,1,8,0:0:0:0:
256,192,13434,1,8,0:0:0:0:
256,192,13520,1,8,0:0:0:0:
256,192,13605,1,8,0:0:0:0:
256,192,13691,1,0,0:0:0:0:
256,192,13862,1,8,0:0:0:0:
256,192,13948,1,0,0:0:0:0:
256,192,14034,1,0,0:0:0:0:
256,192,14120,1,0,0:0:0:0:
256,192,14205,1,8,0:0:0:0:
256,192,14291,1,8,0:0:0:0:
256,192,14377,1,0,0:0:0:0:
256,192,14548,1,8,0:0:0:0:
256,192,14634,1,0,0:0:0:0:
256,192,14720,1,8,0:0:0:0:
256,192,14805,1,8,0:0:0:0:
256,192,14891,1,0,0:0:0:0:
256,192,15062,1,12,0:0:0:0:
256,192,15234,1,0,0:0:0:0:
256,192,15320,1,0,0:0:0:0:
256,192,15405,1,8,0:0:0:0:
256,192,15491,1,0,0:0:0:0:
256,192,15577,1,8,0:0:0:0:
256,192,15662,1,8,0:0:0:0:
256,192,15748,1,0,0:0:0:0:
256,192,15920,1,8,0:0:0:0:
256,192,16091,1,0,0:0:0:0:
256,192,16177,1,0,0:0:0:0:
256,192,16262,1,8,0:0:0:0:
256,192,16434,1,0,0:0:0:0:
256,192,16520,1,0,0:0:0:0:
256,192,16605,1,8,0:0:0:0:
256,192,16691,1,0,0:0:0:0:
256,192,16777,1,0,0:0:0:0:
256,192,16862,1,0,0:0:0:0:
256,192,16948,1,8,0:0:0:0:
256,192,17120,1,0,0:0:0:0:
256,192,17291,1,8,0:0:0:0:
256,192,17377,1,0,0:0:0:0:
256,192,17462,1,8,0:0:0:0:
256,192,17548,1,8,0:0:0:0:
256,192,17634,1,0,0:0:0:0:
256,192,17805,1,12,0:0:0:0:
256,192,17977,1,8,0:0:0:0:
256,192,18062,1,8,0:0:0:0:
256,192,18148,1,0,0:0:0:0:
256,192,18234,1,0,0:0:0:0:
256,192,18320,1,8,0:0:0:0:
256,192,18491,1,0,0:0:0:0:
256,192,18577,1,0,0:0:0:0:
256,192,18662,1,8,0:0:0:0:
256,192,18748,1,8,0:0:0:0:
256,192,18834,1,0,0:0:0:0:
256,192,19005,1,8,0:0:0:0:
256,192,19177,1,0,0:0:0:0:
256,192,19262,1,0,0:0:0:0:
256,192,19348,1,8,0:0:0:0:
256,192,19434,1,0,0:0:0:0:
256,192,19520,1,8,0:0:0:0:
256,192,19691,1,8,0:0:0:0:
256,192,19777,1,8,0:0:0:0:
256,192,19862,1,0,0:0:0:0:
256,192,19948,1,0,0:0:0:0:
256,192,20034,1,8,0:0:0:0:
256,192,20120,1,0,0:0:0:0:
256,192,20205,1,8,0:0:0:0:
256,192,20291,1,8,0:0:0:0:
256,192,20377,1,0,0:0:0:0:
256,192,20548,1,8,0:0:0:0:
256,192,20720,1,8,0:0:0:0:
256,192,20805,1,8,0:0:0:0:
256,192,20891,1,0,0:0:0:0:
256,192,21062,1,8,0:0:0:0:
256,192,21234,1,8,0:0:0:0:
256,192,21320,1,8,0:0:0:0:
256,192,21405,1,0,0:0:0:0:
256,192,21491,1,0,0:0:0:0:
256,192,21577,1,8,0:0:0:0:
256,192,21748,1,8,0:0:0:0:
256,192,21920,1,4,0:0:0:0:
256,192,22091,1,8,0:0:0:0:
256,192,22177,1,0,0:0:0:0:
256,192,22262,1,0,0:0:0:0:
256,192,22348,1,0,0:0:0:0:
256,192,22434,1,8,0:0:0:0:
256,192,22605,1,8,0:0:0:0:
256,192,22777,1,0,0:0:0:0:
256,192,22862,1,8,0:0:0:0:
256,192,22948,1,0,0:0:0:0:
256,192,23034,1,0,0:0:0:0:
256,192,23120,1,8,0:0:0:0:
256,192,23291,1,12,0:0:0:0:
256,192,23462,1,0,0:0:0:0:
256,192,23548,1,0,0:0:0:0:
256,192,23634,1,0,0:0:0:0:
256,192,23720,1,0,0:0:0:0:
256,192,23805,1,8,0:0:0:0:
256,192,23891,1,0,0:0:0:0:
256,192,23977,1,8,0:0:0:0:
256,192,24062,1,8,0:0:0:0:
256,192,24148,1,0,0:0:0:0:
256,192,24234,1,0,0:0:0:0:
256,192,24320,1,8,0:0:0:0:
256,192,24662,1,8,0:0:0:0:
256,192,24748,1,0,0:0:0:0:
256,192,24834,1,8,0:0:0:0:
256,192,24920,1,8,0:0:0:0:
256,192,25005,1,0,0:0:0:0:
256,192,25091,1,0,0:0:0:0:
256,192,25177,1,8,0:0:0:0:
256,192,25262,1,0,0:0:0:0:
256,192,25348,1,0,0:0:0:0:
256,192,25434,1,0,0:0:0:0:
256,192,25520,1,8,0:0:0:0:
256,192,25605,1,0,0:0:0:0:
256,192,25691,1,0,0:0:0:0:
256,192,25777,1,0,0:0:0:0:
256,192,25862,1,8,0:0:0:0:
256,192,25948,1,8,0:0:0:0:
256,192,26034,1,0,0:0:0:0:
256,192,26120,1,0,0:0:0:0:
256,192,26205,1,8,0:0:0:0:
256,192,26291,1,0,0:0:0:0:
256,192,26377,1,0,0:0:0:0:
256,192,26462,1,0,0:0:0:0:
256,192,26548,1,8,0:0:0:0:
256,192,26634,1,0,0:0:0:0:
256,192,26720,1,0,0:0:0:0:
256,192,26805,1,0,0:0:0:0:
256,192,26891,1,8,0:0:0:0:
256,192,26977,1,8,0:0:0:0:
256,192,27062,1,0,0:0:0:0:
256,192,27234,1,12,0:0:0:0:
256,192,27405,1,8,0:0:0:0:
256,192,27491,1,0,0:0:0:0:
256,192,27577,1,8,0:0:0:0:
256,192,27662,1,0,0:0:0:0:
256,192,27748,1,0,0:0:0:0:
256,192,27834,1,0,0:0:0:0:
256,192,27920,1,8,0:0:0:0:
256,192,28005,1,0,0:0:0:0:
256,192,28091,1,0,0:0:0:0:
256,192,28177,1,0,0:0:0:0:
256,192,28262,1,8,0:0:0:0:
256,192,28348,1,0,0:0:0:0:
256,192,28434,1,0,0:0:0:0:
256,192,28520,1,0,0:0:0:0:
256,192,28605,1,8,0:0:0:0:
256,192,28691,1,8,0:0:0:0:
256,192,28777,1,0,0:0:0:0:
256,192,28862,1,0,0:0:0:0:
256,192,28948,1,8,0:0:0:0:
256,192,29034,1,0,0:0:0:0:
256,192,29120,1,0,0:0:0:0:
256,192,29205,1,0,0:0:0:0:
256,192,29291,1,8,0:0:0:0:
256,192,29377,1,0,0:0:0:0:
256,192,29462,1,0,0:0:0:0:
256,192,29634,1,12,0:0:0:0:
256,192,29805,1,0,0:0:0:0:
256,192,29977,1,12,0:0:0:0:
256,192,30148,1,8,0:0:0:0:
256,192,30234,1,8,0:0:0:0:
256,192,30320,1,0,0:0:0:0:
256,192,30405,1,8,0:0:0:0:
256,192,30491,1,0,0:0:0:0:
256,192,30577,1,0,0:0:0:0:
256,192,30662,1,8,0:0:0:0:
256,192,30748,1,0,0:0:0:0:
256,192,30834,1,0,0:0:0:0:
256,192,30920,1,0,0:0:0:0:
256,192,31005,1,8,0:0:0:0:
256,192,31091,1,0,0:0:0:0:
256,192,31177,1,0,0:0:0:0:
256,192,31262,1,0,0:0:0:0:
256,192,31348,1,8,0:0:0:0:
256,192,31434,1,8,0:0:0:0:
256,192,31520,1,0,0:0:0:0:
256,192,31605,1,0,0:0:0:0:
256,192,31691,1,8,0:0:0:0:
256,192,31777,1,0,0:0:0:0:
256,192,31862,1,0,0:0:0:0:
256,192,31948,1,0,0:0:0:0:
256,192,32034,1,8,0:0:0:0:
256,192,32120,1,0,0:0:0:0:
256,192,32205,1,0,0:0:0:0:
256,192,32291,1,0,0:0:0:0:
256,192,32377,1,8,0:0:0:0:
256,192,32462,1,8,0:0:0:0:
256,192,32548,1,0,0:0:0:0:
256,192,32720,1,12,0:0:0:0:
256,192,32891,1,8,0:0:0:0:
256,192,32977,1,0,0:0:0:0:
256,192,33062,1,8,0:0:0:0:
256,192,33148,1,0,0:0:0:0:
256,192,33234,1,0,0:0:0:0:
256,192,33320,1,0,0:0:0:0:
256,192,33405,1,8,0:0:0:0:
256,192,33491,1,0,0:0:0:0:
256,192,33577,1,0,0:0:0:0:
256,192,33662,1,0,0:0:0:0:
256,192,33748,1,8,0:0:0:0:
256,192,33834,1,0,0:0:0:0:
256,192,33920,1,0,0:0:0:0:
256,192,34005,1,0,0:0:0:0:
256,192,34091,1,8,0:0:0:0:
256,192,34177,1,8,0:0:0:0:
256,192,34262,1,0,0:0:0:0:
256,192,34348,1,0,0:0:0:0:
256,192,34434,1,8,0:0:0:0:
256,192,34520,1,0,0:0:0:0:
256,192,34605,1,0,0:0:0:0:
256,192,34691,1,0,0:0:0:0:
256,192,34777,1,8,0:0:0:0:
256,192,34862,1,0,0:0:0:0:
256,192,34948,1,0,0:0:0:0:
256,192,35034,1,0,0:0:0:0:
256,192,35120,1,8,0:0:0:0:
256,192,35205,1,0,0:0:0:0:
256,192,35291,1,0,0:0:0:0:
256,192,35377,1,0,0:0:0:0:
256,192,35462,1,8,0:0:0:0:
256,192,35634,1,4,0:0:0:0:
256,192,36320,1,12,0:0:0:0:
256,192,37005,1,12,0:0:0:0:
256,192,37520,1,8,0:0:0:0:
256,192,37605,1,0,0:0:0:0:
256,192,37691,1,8,0:0:0:0:
256,192,37948,1,8,0:0:0:0:
256,192,38205,1,8,0:0:0:0:
256,192,38377,1,4,0:0:0:0:
256,192,39748,1,4,0:0:0:0:
256,192,39920,1,8,0:0:0:0:
256,192,40005,1,8,0:0:0:0:
256,192,40091,1,0,0:0:0:0:
256,192,40262,1,8,0:0:0:0:
256,192,40348,1,0,0:0:0:0:
256,192,40434,1,8,0:0:0:0:
256,192,40520,1,8,0:0:0:0:
256,192,40605,1,0,0:0:0:0:
256,192,40691,1,0,0:0:0:0:
256,192,40777,1,8,0:0:0:0:
256,192,41120,1,4,0:0:0:0:
256,192,41291,1,0,0:0:0:0:
256,192,41462,1,0,0:0:0:0:
256,192,41634,1,8,0:0:0:0:
256,192,41720,1,0,0:0:0:0:
256,192,41805,1,0,0:0:0:0:
256,192,41977,1,0,0:0:0:0:
256,192,42148,1,8,0:0:0:0:
256,192,42234,1,8,0:0:0:0:
256,192,42320,1,0,0:0:0:0:
256,192,42491,1,8,0:0:0:0:
256,192,42577,1,0,0:0:0:0:
256,192,42662,1,0,0:0:0:0:
256,192,42834,1,0,0:0:0:0:
256,192,43005,1,8,0:0:0:0:
256,192,43091,1,0,0:0:0:0:
256,192,43177,1,0,0:0:0:0:
256,192,43348,1,0,0:0:0:0:
256,192,43434,1,0,0:0:0:0:
256,192,43520,1,8,0:0:0:0:
256,192,43605,1,8,0:0:0:0:
256,192,43691,1,0,0:0:0:0:
256,192,43862,1,8,0:0:0:0:
256,192,43948,1,0,0:0:0:0:
256,192,44034,1,0,0:0:0:0:
256,192,44205,1,0,0:0:0:0:
256,192,44377,1,8,0:0:0:0:
256,192,44462,1,0,0:0:0:0:
256,192,44548,1,0,0:0:0:0:
256,192,44720,1,0,0:0:0:0:
256,192,44891,1,8,0:0:0:0:
256,192,44977,1,8,0:0:0:0:
256,192,45062,1,0,0:0:0:0:
256,192,45234,1,8,0:0:0:0:
256,192,45320,1,0,0:0:0:0:
256,192,45405,1,0,0:0:0:0:
256,192,45577,1,0,0:0:0:0:
256,192,45748,1,8,0:0:0:0:
256,192,45834,1,0,0:0:0:0:
256,192,45920,1,0,0:0:0:0:
256,192,46091,1,0,0:0:0:0:
256,192,46177,1,0,0:0:0:0:
256,192,46262,1,8,0:0:0:0:
256,192,46348,1,8,0:0:0:0:
256,192,46434,1,0,0:0:0:0:
256,192,46605,1,12,0:0:0:0:
256,192,46777,1,0,0:0:0:0:
256,192,46948,1,0,0:0:0:0:
256,192,47120,1,8,0:0:0:0:
256,192,47205,1,8,0:0:0:0:
256,192,47291,1,0,0:0:0:0:
256,192,47462,1,0,0:0:0:0:
256,192,47634,1,8,0:0:0:0:
256,192,47720,1,8,0:0:0:0:
256,192,47805,1,0,0:0:0:0:
256,192,47977,1,8,0:0:0:0:
256,192,48062,1,8,0:0:0:0:
256,192,48148,1,0,0:0:0:0:
256,192,48320,1,0,0:0:0:0:
256,192,48491,1,8,0:0:0:0:
256,192,48577,1,8,0:0:0:0:
256,192,48662,1,0,0:0:0:0:
256,192,48834,1,0,0:0:0:0:
256,192,48920,1,0,0:0:0:0:
256,192,49005,1,8,0:0:0:0:
256,192,49091,1,8,0:0:0:0:
256,192,49177,1,0,0:0:0:0:
256,192,49348,1,8,0:0:0:0:
256,192,49434,1,8,0:0:0:0:
256,192,49520,1,8,0:0:0:0:
256,192,49691,1,0,0:0:0:0:
256,192,49862,1,8,0:0:0:0:
256,192,49948,1,0,0:0:0:0:
256,192,50034,1,8,0:0:0:0:
256,192,50205,1,0,0:0:0:0:
256,192,50291,1,8,0:0:0:0:
256,192,50377,1,0,0:0:0:0:
256,192,50462,1,0,0:0:0:0:
256,192,50548,1,8,0:0:0:0:
256,192,50720,1,4,0:0:0:0:
256,192,50891,1,8,0:0:0:0:
256,192,50977,1,0,0:0:0:0:
256,192,51148,1,0,0:0:0:0:
256,192,51234,1,8,0:0:0:0:
256,192,51405,1,8,0:0:0:0:
256,192,51491,1,8,0:0:0:0:
256,192,51577,1,0,0:0:0:0:
256,192,51662,1,0,0:0:0:0:
256,192,51748,1,8,0:0:0:0:
256,192,51834,1,8,0:0:0:0:
256,192,51920,1,0,0:0:0:0:
256,192,52005,1,0,0:0:0:0:
256,192,52091,1,8,0:0:0:0:
256,192,52262,1,0,0:0:0:0:
256,192,52348,1,0,0:0:0:0:
256,192,52434,1,0,0:0:0:0:
256,192,52520,1,0,0:0:0:0:
256,192,52605,1,8,0:0:0:0:
256,192,52691,1,0,0:0:0:0:
256,192,52777,1,0,0:0:0:0:
256,192,52862,1,0,0:0:0:0:
256,192,52948,1,8,0:0:0:0:
256,192,53120,1,0,0:0:0:0:
256,192,53205,1,0,0:0:0:0:
256,192,53291,1,8,0:0:0:0:
256,192,53377,1,0,0:0:0:0:
256,192,53462,1,0,0:0:0:0:
256,192,53548,1,0,0:0:0:0:
256,192,53634,1,8,0:0:0:0:
256,192,53720,1,8,0:0:0:0:
256,192,53805,1,0,0:0:0:0:
256,192,53977,1,12,0:0:0:0:
256,192,54148,1,8,0:0:0:0:
256,192,54234,1,8,0:0:0:0:
256,192,54320,1,8,0:0:0:0:
256,192,54405,1,8,0:0:0:0:
256,192,54491,1,8,0:0:0:0:
256,192,54577,1,8,0:0:0:0:
256,192,54662,1,8,0:0:0:0:
256,192,54834,1,4,0:0:0:0:
256,192,55176,1,0,0:0:0:0:
256,192,55348,1,8,0:0:0:0:
256,192,55434,1,0,0:0:0:0:
256,192,55519,1,0,0:0:0:0:
256,192,55691,1,0,0:0:0:0:
256,192,55777,1,0,0:0:0:0:
256,192,55862,1,8,0:0:0:0:
256,192,55948,1,8,0:0:0:0:
256,192,56034,1,0,0:0:0:0:
256,192,56205,1,8,0:0:0:0:
256,192,56291,1,0,0:0:0:0:
256,192,56376,1,0,0:0:0:0:
256,192,56548,1,0,0:0:0:0:
256,192,56719,1,8,0:0:0:0:
256,192,56805,1,0,0:0:0:0:
256,192,56891,1,0,0:0:0:0:
256,192,57062,1,0,0:0:0:0:
256,192,57148,1,0,0:0:0:0:
256,192,57234,1,8,0:0:0:0:
256,192,57319,1,8,0:0:0:0:
256,192,57405,1,0,0:0:0:0:
256,192,57576,1,8,0:0:0:0:
256,192,57662,1,0,0:0:0:0:
256,192,57748,1,0,0:0:0:0:
256,192,57919,1,0,0:0:0:0:
256,192,58091,1,8,0:0:0:0:
256,192,58176,1,0,0:0:0:0:
256,192,58262,1,0,0:0:0:0:
256,192,58434,1,0,0:0:0:0:
256,192,58520,1,0,0:0:0:0:
256,192,58605,1,8,0:0:0:0:
256,192,58691,1,8,0:0:0:0:
256,192,58776,1,0,0:0:0:0:
256,192,58948,1,8,0:0:0:0:
256,192,59034,1,0,0:0:0:0:
256,192,59119,1,0,0:0:0:0:
256,192,59291,1,0,0:0:0:0:
256,192,59462,1,8,0:0:0:0:
256,192,59548,1,0,0:0:0:0:
256,192,59634,1,0,0:0:0:0:
256,192,59805,1,0,0:0:0:0:
256,192,59891,1,0,0:0:0:0:
256,192,59976,1,8,0:0:0:0:
256,192,60062,1,8,0:0:0:0:
256,192,60148,1,0,0:0:0:0:
256,192,60319,1,12,0:0:0:0:
256,192,60491,1,0,0:0:0:0:
256,192,60662,1,0,0:0:0:0:
256,192,60834,1,8,0:0:0:0:
256,192,60919,1,8,0:0:0:0:
256,192,61005,1,0,0:0:0:0:
256,192,61176,1,0,0:0:0:0:
256,192,61348,1,8,0:0:0:0:
256,192,61434,1,8,0:0:0:0:
256,192,61519,1,0,0:0:0:0:
256,192,61691,1,8,0:0:0:0:
256,192,61776,1,8,0:0:0:0:
256,192,61862,1,0,0:0:0:0:
256,192,61948,1,0,0:0:0:0:
256,192,62034,1,0,0:0:0:0:
256,192,62205,1,8,0:0:0:0:
256,192,62291,1,8,0:0:0:0:
256,192,62376,1,0,0:0:0:0:
256,192,62548,1,0,0:0:0:0:
256,192,62634,1,0,0:0:0:0:
256,192,62719,1,8,0:0:0:0:
256,192,62805,1,8,0:0:0:0:
256,192,62891,1,0,0:0:0:0:
256,192,62977,1,0,0:0:0:0:
256,192,63062,1,8,0:0:0:0:
256,192,63234,1,8,0:0:0:0:
256,192,63320,1,0,0:0:0:0:
256,192,63491,1,0,0:0:0:0:
256,192,63577,1,8,0:0:0:0:
256,192,63748,1,0,0:0:0:0:
256,192,63834,1,0,0:0:0:0:
256,192,63920,1,8,0:0:0:0:
256,192,64005,1,0,0:0:0:0:
256,192,64091,1,0,0:0:0:0:
256,192,64177,1,0,0:0:0:0:
256,192,64262,1,8,0:0:0:0:
256,192,64434,1,4,0:0:0:0:
256,192,64605,1,8,0:0:0:0:
256,192,64691,1,0,0:0:0:0:
256,192,64862,1,0,0:0:0:0:
256,192,64948,1,8,0:0:0:0:
256,192,65120,1,0,0:0:0:0:
256,192,65205,1,0,0:0:0:0:
256,192,65291,1,8,0:0:0:0:
256,192,65377,1,0,0:0:0:0:
256,192,65462,1,8,0:0:0:0:
256,192,65548,1,8,0:0:0:0:
256,192,65634,1,0,0:0:0:0:
256,192,65805,1,12,0:0:0:0:
256,192,66148,1,8,0:0:0:0:
256,192,66319,1,0,0:0:0:0:
256,192,66405,1,0,0:0:0:0:
256,192,66491,1,0,0:0:0:0:
256,192,66662,1,0,0:0:0:0:
256,192,66834,1,8,0:0:0:0:
256,192,67005,1,0,0:0:0:0:
256,192,67091,1,0,0:0:0:0:
256,192,67177,1,0,0:0:0:0:
256,192,67348,1,0,0:0:0:0:
256,192,67519,1,8,0:0:0:0:
256,192,67691,1,0,0:0:0:0:
256,192,67777,1,0,0:0:0:0:
256,192,67862,1,0,0:0:0:0:
256,192,68034,1,0,0:0:0:0:
256,192,68205,1,8,0:0:0:0:
256,192,68377,1,0,0:0:0:0:
256,192,68462,1,8,0:0:0:0:
256,192,68548,1,0,0:0:0:0:
256,192,68719,1,0,0:0:0:0:
256,192,68891,1,8,0:0:0:0:
256,192,69062,1,0,0:0:0:0:
256,192,69148,1,0,0:0:0:0:
256,192,69234,1,0,0:0:0:0:
256,192,69405,1,0,0:0:0:0:
256,192,69577,1,8,0:0:0:0:
256,192,69748,1,0,0:0:0:0:
256,192,69834,1,0,0:0:0:0:
256,192,69919,1,8,0:0:0:0:
256,192,70091,1,0,0:0:0:0:
256,192,70262,1,0,0:0:0:0:
256,192,70434,1,8,0:0:0:0:
256,192,70519,1,8,0:0:0:0:
256,192,70605,1,8,0:0:0:0:
256,192,70777,1,0,0:0:0:0:
256,192,70948,1,8,0:0:0:0:
256,192,71119,1,8,0:0:0:0:
256,192,71205,1,8,0:0:0:0:
256,192,71291,1,0,0:0:0:0:
256,192,71462,1,0,0:0:0:0:
256,192,71634,1,8,0:0:0:0:
256,192,71805,1,0,0:0:0:0:
256,192,71891,1,0,0:0:0:0:
256,192,71977,1,0,0:0:0:0:
256,192,72148,1,0,0:0:0:0:
256,192,72319,1,8,0:0:0:0:
256,192,72491,1,0,0:0:0:0:
256,192,72577,1,8,0:0:0:0:
256,192,72662,1,0,0:0:0:0:
256,192,72834,1,0,0:0:0:0:
256,192,73005,1,8,0:0:0:0:
256,192,73177,1,0,0:0:0:0:
256,192,73262,1,0,0:0:0:0:
256,192,73348,1,0,0:0:0:0:
256,192,73519,1,0,0:0:0:0:
256,192,73691,1,8,0:0:0:0:
256,192,73862,1,8,0:0:0:0:
256,192,73948,1,8,0:0:0:0:
256,192,74034,1,0,0:0:0:0:
256,192,74205,1,0,0:0:0:0:
256,192,74377,1,8,0:0:0:0:
256,192,74548,1,0,0:0:0:0:
256,192,74634,1,8,0:0:0:0:
256,192,74719,1,0,0:0:0:0:
256,192,74891,1,0,0:0:0:0:
256,192,75062,1,8,0:0:0:0:
256,192,75234,1,0,0:0:0:0:
256,192,75319,1,0,0:0:0:0:
256,192,75405,1,8,0:0:0:0:
256,192,75577,1,0,0:0:0:0:
256,192,75748,1,8,0:0:0:0:
256,192,75919,1,8,0:0:0:0:
256,192,76005,1,8,0:0:0:0:
256,192,76091,1,0,0:0:0:0:
256,192,76177,1,0,0:0:0:0:
256,192,76262,1,0,0:0:0:0:
256,192,76348,1,0,0:0:0:0:
256,192,76434,1,0,0:0:0:0:
256,192,76519,1,0,0:0:0:0:
256,192,76605,1,0,0:0:0:0:
256,192,76777,1,4,0:0:0:0:
256,192,76948,1,0,0:0:0:0:
256,192,77291,1,0,0:0:0:0:
256,192,77377,1,0,0:0:0:0:
256,192,77462,1,8,0:0:0:0:
256,192,77634,1,0,0:0:0:0:
256,192,77977,1,8,0:0:0:0:
256,192,78062,1,8,0:0:0:0:
256,192,78148,1,0,0:0:0:0:
256,192,78320,1,0,0:0:0:0:
256,192,78405,1,0,0:0:0:0:
256,192,78491,1,8,0:0:0:0:
256,192,78662,1,0,0:0:0:0:
256,192,78748,1,8,0:0:0:0:
256,192,78834,1,0,0:0:0:0:
256,192,79005,1,0,0:0:0:0:
256,192,79091,1,0,0:0:0:0:
256,192,79177,1,8,0:0:0:0:
256,192,79348,1,8,0:0:0:0:
256,192,79434,1,8,0:0:0:0:
256,192,79520,1,0,0:0:0:0:
256,192,79691,1,0,0:0:0:0:
256,192,80034,1,0,0:0:0:0:
256,192,80120,1,0,0:0:0:0:
256,192,80205,1,8,0:0:0:0:
256,192,80377,1,0,0:0:0:0:
256,192,80720,1,8,0:0:0:0:
256,192,80805,1,8,0:0:0:0:
256,192,80891,1,0,0:0:0:0:
256,192,81063,1,0,0:0:0:0:
256,192,81148,1,0,0:0:0:0:
256,192,81234,1,8,0:0:0:0:
256,192,81405,1,8,0:0:0:0:
256,192,81491,1,8,0:0:0:0:
256,192,81577,1,0,0:0:0:0:
256,192,81748,1,8,0:0:0:0:
256,192,81834,1,0,0:0:0:0:
256,192,81920,1,8,0:0:0:0:
256,192,82005,1,8,0:0:0:0:
256,192,82091,1,0,0:0:0:0:
256,192,82177,1,8,0:0:0:0:
256,192,82263,1,0,0:0:0:0:
256,192,82434,1,0,0:0:0:0:
256,192,82605,1,8,0:0:0:0:
256,192,82777,1,0,0:0:0:0:
256,192,82862,1,0,0:0:0:0:
256,192,82948,1,0,0:0:0:0:
256,192,83120,1,0,0:0:0:0:
256,192,83291,1,8,0:0:0:0:
256,192,83462,1,0,0:0:0:0:
256,192,83548,1,8,0:0:0:0:
256,192,83634,1,0,0:0:0:0:
256,192,83805,1,0,0:0:0:0:
256,192,83977,1,8,0:0:0:0:
256,192,84148,1,0,0:0:0:0:
256,192,84234,1,8,0:0:0:0:
256,192,84320,1,0,0:0:0:0:
256,192,84491,1,0,0:0:0:0:
256,192,84662,1,8,0:0:0:0:
256,192,84834,1,8,0:0:0:0:
256,192,84920,1,8,0:0:0:0:
256,192,85005,1,0,0:0:0:0:
256,192,85177,1,0,0:0:0:0:
256,192,85348,1,8,0:0:0:0:
256,192,85520,1,8,0:0:0:0:
256,192,85605,1,8,0:0:0:0:
256,192,85691,1,0,0:0:0:0:
256,192,85862,1,0,0:0:0:0:
256,192,86034,1,8,0:0:0:0:
256,192,86205,1,0,0:0:0:0:
256,192,86291,1,8,0:0:0:0:
256,192,86377,1,0,0:0:0:0:
256,192,86548,1,0,0:0:0:0:
256,192,86720,1,8,0:0:0:0:
256,192,86891,1,8,0:0:0:0:
256,192,86977,1,8,0:0:0:0:
256,192,87062,1,0,0:0:0:0:
256,192,87234,1,0,0:0:0:0:
256,192,87405,1,8,0:0:0:0:
256,192,87491,1,8,0:0:0:0:
256,192,87577,1,0,0:0:0:0:
256,192,87662,1,0,0:0:0:0:
256,192,87748,1,8,0:0:0:0:
256,192,87920,1,0,0:0:0:0:
256,192,88262,1,0,0:0:0:0:
256,192,88348,1,0,0:0:0:0:
256,192,88434,1,8,0:0:0:0:
256,192,88605,1,0,0:0:0:0:
256,192,88948,1,0,0:0:0:0:
256,192,89034,1,0,0:0:0:0:
256,192,89120,1,8,0:0:0:0:
256,192,89291,1,0,0:0:0:0:
256,192,89462,1,0,0:0:0:0:
256,192,89634,1,0,0:0:0:0:
256,192,89720,1,0,0:0:0:0:
256,192,89805,1,8,0:0:0:0:
256,192,89977,1,0,0:0:0:0:
256,192,90148,1,8,0:0:0:0:
256,192,90320,1,8,0:0:0:0:
256,192,90405,1,8,0:0:0:0:
256,192,90491,1,0,0:0:0:0:
256,192,90662,1,0,0:0:0:0:
256,192,90748,1,0,0:0:0:0:
256,192,90834,1,0,0:0:0:0:
256,192,90920,1,0,0:0:0:0:
256,192,91005,1,8,0:0:0:0:
256,192,91091,1,0,0:0:0:0:
256,192,91177,1,8,0:0:0:0:
256,192,91262,1,0,0:0:0:0:
256,192,91348,1,0,0:0:0:0:
256,192,91434,1,0,0:0:0:0:
256,192,91520,1,8,0:0:0:0:
256,192,91605,1,0,0:0:0:0:
256,192,91691,1,8,0:0:0:0:
256,192,91777,1,8,0:0:0:0:
256,192,91862,1,0,0:0:0:0:
256,192,92034,1,8,0:0:0:0:
256,192,92120,1,8,0:0:0:0:
256,192,92205,1,0,0:0:0:0:
256,192,92291,1,0,0:0:0:0:
256,192,92377,1,8,0:0:0:0:
256,192,92462,1,0,0:0:0:0:
256,192,92548,1,8,0:0:0:0:
256,192,92634,1,0,0:0:0:0:
256,192,92720,1,0,0:0:0:0:
256,192,92805,1,0,0:0:0:0:
256,192,92891,1,8,0:0:0:0:
256,192,92977,1,8,0:0:0:0:
256,192,93062,1,8,0:0:0:0:
256,192,93148,1,8,0:0:0:0:
256,192,93234,1,0,0:0:0:0:
256,192,94605,1,12,0:0:0:0:
256,192,94777,1,12,0:0:0:0:
256,192,94948,1,0,0:0:0:0:
256,192,95034,1,0,0:0:0:0:
256,192,95120,1,0,0:0:0:0:
256,192,95291,1,8,0:0:0:0:
256,192,95377,1,8,0:0:0:0:
256,192,95462,1,0,0:0:0:0:
256,192,95548,1,0,0:0:0:0:
256,192,95634,1,0,0:0:0:0:
256,192,95720,1,0,0:0:0:0:
256,192,95805,1,0,0:0:0:0:
256,192,95977,1,4,0:0:0:0:
256,192,96148,1,0,0:0:0:0:
256,192,96234,1,0,0:0:0:0:
256,192,96320,1,8,0:0:0:0:
256,192,96491,1,0,0:0:0:0:
256,192,96577,1,0,0:0:0:0:
256,192,96662,1,0,0:0:0:0:
256,192,96834,1,0,0:0:0:0:
256,192,96920,1,0,0:0:0:0:
256,192,97005,1,8,0:0:0:0:
256,192,97177,1,0,0:0:0:0:
256,192,97262,1,0,0:0:0:0:
256,192,97348,1,0,0:0:0:0:
256,192,97520,1,0,0:0:0:0:
256,192,97605,1,0,0:0:0:0:
256,192,97691,1,8,0:0:0:0:
256,192,97777,1,0,0:0:0:0:
256,192,97862,1,0,0:0:0:0:
256,192,97948,1,8,0:0:0:0:
256,192,98034,1,0,0:0:0:0:
256,192,98205,1,0,0:0:0:0:
256,192,98291,1,0,0:0:0:0:
256,192,98377,1,8,0:0:0:0:
256,192,98462,1,0,0:0:0:0:
256,192,98548,1,0,0:0:0:0:
256,192,98720,1,12,0:0:0:0:
256,192,98891,1,8,0:0:0:0:
256,192,98977,1,8,0:0:0:0:
256,192,99062,1,0,0:0:0:0:
256,192,99234,1,8,0:0:0:0:
256,192,99405,1,4,0:0:0:0:
256,192,99577,1,8,0:0:0:0:
256,192,99662,1,0,0:0:0:0:
256,192,99748,1,8,0:0:0:0:
256,192,99834,1,8,0:0:0:0:
256,192,99920,1,0,0:0:0:0:
256,192,100091,1,12,0:0:0:0:
256,192,100262,1,0,0:0:0:0:
256,192,100348,1,0,0:0:0:0:
256,192,100434,1,8,0:0:0:0:
256,192,100605,1,0,0:0:0:0:
256,192,100691,1,0,0:0:0:0:
256,192,100777,1,0,0:0:0:0:
256,192,100948,1,0,0:0:0:0:
256,192,101034,1,0,0:0:0:0:
256,192,101120,1,8,0:0:0:0:
256,192,101205,1,8,0:0:0:0:
256,192,101291,1,0,0:0:0:0:
256,192,101462,1,12,0:0:0:0:
256,192,101634,1,0,0:0:0:0:
256,192,101720,1,0,0:0:0:0:
256,192,101805,1,8,0:0:0:0:
256,192,101977,1,0,0:0:0:0:
256,192,102062,1,0,0:0:0:0:
256,192,102148,1,0,0:0:0:0:
256,192,102320,1,0,0:0:0:0:
256,192,102405,1,0,0:0:0:0:
256,192,102491,1,8,0:0:0:0:
256,192,102662,1,0,0:0:0:0:
256,192,102834,1,0,0:0:0:0:
256,192,102920,1,0,0:0:0:0:
256,192,103005,1,0,0:0:0:0:
256,192,103091,1,0,0:0:0:0:
256,192,103177,1,8,0:0:0:0:
256,192,103348,1,0,0:0:0:0:
256,192,103434,1,0,0:0:0:0:
256,192,103520,1,0,0:0:0:0:
256,192,103691,1,0,0:0:0:0:
256,192,103777,1,0,0:0:0:0:
256,192,103862,1,8,0:0:0:0:
256,192,104034,1,0,0:0:0:0:
256,192,104120,1,0,0:0:0:0:
256,192,104205,1,8,0:0:0:0:
256,192,104291,1,8,0:0:0:0:
256,192,104377,1,0,0:0:0:0:
256,192,104462,1,0,0:0:0:0:
256,192,104548,1,8,0:0:0:0:
256,192,104720,1,0,0:0:0:0:
256,192,104805,1,8,0:0:0:0:
256,192,104891,1,0,0:0:0:0:
256,192,105062,1,0,0:0:0:0:
256,192,105148,1,0,0:0:0:0:
256,192,105234,1,8,0:0:0:0:
256,192,105320,1,8,0:0:0:0:
256,192,105405,1,8,0:0:0:0:
256,192,105491,1,8,0:0:0:0:
256,192,105577,1,0,0:0:0:0:
256,192,105748,1,0,0:0:0:0:
256,192,105834,1,0,0:0:0:0:
256,192,105920,1,8,0:0:0:0:
256,192,106091,1,0,0:0:0:0:
256,192,106262,1,8,0:0:0:0:
256,192,106605,1,8,0:0:0:0:
256,192,106691,1,8,0:0:0:0:
256,192,106777,1,0,0:0:0:0:
256,192,106948,1,4,0:0:0:0:
256,192,107120,1,0,0:0:0:0:
256,192,107205,1,0,0:0:0:0:
256,192,107291,1,8,0:0:0:0:
256,192,107462,1,0,0:0:0:0:
256,192,107548,1,0,0:0:0:0:
256,192,107634,1,0,0:0:0:0:
256,192,107805,1,0,0:0:0:0:
256,192,107891,1,0,0:0:0:0:
256,192,107977,1,8,0:0:0:0:
256,192,108148,1,0,0:0:0:0:
256,192,108234,1,0,0:0:0:0:
256,192,108320,1,0,0:0:0:0:
256,192,108491,1,0,0:0:0:0:
256,192,108577,1,0,0:0:0:0:
256,192,108662,1,8,0:0:0:0:
256,192,108748,1,0,0:0:0:0:
256,192,108834,1,0,0:0:0:0:
256,192,108920,1,8,0:0:0:0:
256,192,109005,1,0,0:0:0:0:
256,192,109177,1,0,0:0:0:0:
256,192,109262,1,0,0:0:0:0:
256,192,109348,1,8,0:0:0:0:
256,192,109434,1,0,0:0:0:0:
256,192,109520,1,0,0:0:0:0:
256,192,109691,1,12,0:0:0:0:
256,192,109862,1,8,0:0:0:0:
256,192,109948,1,8,0:0:0:0:
256,192,110034,1,0,0:0:0:0:
256,192,110205,1,8,0:0:0:0:
256,192,110377,1,4,0:0:0:0:
256,192,110548,1,8,0:0:0:0:
256,192,110634,1,0,0:0:0:0:
256,192,110720,1,8,0:0:0:0:
256,192,110805,1,8,0:0:0:0:
256,192,110891,1,0,0:0:0:0:
256,192,111062,1,12,0:0:0:0:
256,192,111234,1,0,0:0:0:0:
256,192,111320,1,0,0:0:0:0:
256,192,111405,1,0,0:0:0:0:
256,192,111491,1,0,0:0:0:0:
256,192,111577,1,0,0:0:0:0:
256,192,111662,1,0,0:0:0:0:
256,192,111748,1,0,0:0:0:0:
256,192,111920,1,0,0:0:0:0:
256,192,112091,1,12,0:0:0:0:
256,192,112434,1,4,0:0:0:0:
256,192,112948,1,0,0:0:0:0:
256,192,113120,1,12,0:0:0:0:
256,192,113462,1,0,0:0:0:0:
256,192,113634,1,0,0:0:0:0:
256,192,113691,1,0,0:0:0:0:
256,192,113748,1,0,0:0:0:0:
256,192,113805,1,8,0:0:0:0:
256,192,113977,1,8,0:0:0:0:
256,192,114148,1,0,0:0:0:0:
256,192,114320,1,8,0:0:0:0:
256,192,114491,1,4,0:0:0:0:
256,192,114834,1,8,0:0:0:0:
256,192,115005,1,0,0:0:0:0:
256,192,115062,1,0,0:0:0:0:
256,192,115120,1,0,0:0:0:0:
256,192,115177,1,8,0:0:0:0:
256,192,115348,1,0,0:0:0:0:
256,192,115434,1,0,0:0:0:0:
256,192,115520,1,0,0:0:0:0:
256,192,115691,1,0,0:0:0:0:
256,192,115777,1,0,0:0:0:0:
256,192,115862,1,8,0:0:0:0:
256,192,116034,1,0,0:0:0:0:
256,192,116120,1,0,0:0:0:0:
256,192,116205,1,0,0:0:0:0:
256,192,116291,1,0,0:0:0:0:
256,192,116377,1,0,0:0:0:0:
256,192,116462,1,0,0:0:0:0:
256,192,116548,1,8,0:0:0:0:
256,192,116720,1,8,0:0:0:0:
256,192,116805,1,8,0:0:0:0:
256,192,116891,1,0,0:0:0:0:
256,192,116977,1,0,0:0:0:0:
256,192,117062,1,0,0:0:0:0:
256,192,117148,1,0,0:0:0:0:
256,192,117234,1,8,0:0:0:0:
256,192,117320,1,8,0:0:0:0:
256,192,117405,1,0,0:0:0:0:
256,192,117491,1,0,0:0:0:0:
256,192,117577,1,8,0:0:0:0:
256,192,117662,1,0,0:0:0:0:
256,192,117748,1,8,0:0:0:0:
256,192,117834,1,8,0:0:0:0:
256,192,117920,1,0,0:0:0:0:
256,192,118262,1,0,0:0:0:0:
256,192,118434,1,8,0:0:0:0:
256,192,118605,1,0,0:0:0:0:
256,192,118948,1,0,0:0:0:0:
256,192,119120,1,12,0:0:0:0:
256,192,119462,1,0,0:0:0:0:
256,192,119634,1,12,0:0:0:0:
256,192,119977,1,0,0:0:0:0:
256,192,120320,1,0,0:0:0:0:
256,192,120405,1,0,0:0:0:0:
256,192,120491,1,0,0:0:0:0:
256,192,120577,1,0,0:0:0:0:
256,192,120662,1,0,0:0:0:0:
256,192,120834,1,8,0:0:0:0:
256,192,121005,1,0,0:0:0:0:
256,192,121091,1,0,0:0:0:0:
256,192,121177,1,0,0:0:0:0:
256,192,121348,1,12,0:0:0:0:
256,192,121520,1,0,0:0:0:0:
256,192,121605,1,8,0:0:0:0:
256,192,121691,1,0,0:0:0:0:
256,192,121862,1,0,0:0:0:0:
256,192,122034,1,0,0:0:0:0:
256,192,122205,1,12,0:0:0:0:
256,192,122377,1,0,0:0:0:0:
256,192,122548,1,8,0:0:0:0:
256,192,122634,1,8,0:0:0:0:
256,192,122720,1,0,0:0:0:0:
256,192,122805,1,0,0:0:0:0:
256,192,122891,1,0,0:0:0:0:
256,192,122977,1,0,0:0:0:0:
256,192,123062,1,8,0:0:0:0:
256,192,123234,1,0,0:0:0:0:
256,192,123320,1,0,0:0:0:0:
256,192,123405,1,0,0:0:0:0:
256,192,123577,1,0,0:0:0:0:
256,192,123748,1,0,0:0:0:0:
256,192,123920,1,8,0:0:0:0:
256,192,124091,1,0,0:0:0:0:
256,192,124262,1,0,0:0:0:0:
256,192,124434,1,0,0:0:0:0:
256,192,124605,1,12,0:0:0:0:
256,192,124948,1,0,0:0:0:0:
256,192,125120,1,12,0:0:0:0:
256,192,125462,1,0,0:0:0:0:
256,192,125805,1,0,0:0:0:0:
256,192,125891,1,0,0:0:0:0:
256,192,125977,1,0,0:0:0:0:
256,192,126062,1,0,0:0:0:0:
256,192,126148,1,0,0:0:0:0:
256,192,126320,1,8,0:0:0:0:
256,192,126491,1,0,0:0:0:0:
256,192,126577,1,0,0:0:0:0:
256,192,126662,1,0,0:0:0:0:
256,192,126834,1,12,0:0:0:0:
256,192,127091,1,8,0:0:0:0:
256,192,127177,1,0,0:0:0:0:
256,192,127348,1,0,0:0:0:0:
256,192,127520,1,0,0:0:0:0:
256,192,127691,1,12,0:0:0:0:
256,192,127862,1,0,0:0:0:0:
256,192,128034,1,8,0:0:0:0:
256,192,128120,1,8,0:0:0:0:
256,192,128205,1,0,0:0:0:0:
256,192,128291,1,0,0:0:0:0:
256,192,128377,1,0,0:0:0:0:
256,192,128462,1,0,0:0:0:0:
256,192,128548,1,0,0:0:0:0:
256,192,128634,1,0,0:0:0:0:
256,192,128720,1,0,0:0:0:0:
256,192,128891,1,12,0:0:0:0:
256,192,129062,1,0,0:0:0:0:
256,192,129405,1,8,0:0:0:0:
256,192,129576,1,0,0:0:0:0:
256,192,129748,1,0,0:0:0:0:
256,192,129919,1,0,0:0:0:0:
256,192,130005,1,0,0:0:0:0:
256,192,130091,1,0,0:0:0:0:
256,192,130262,1,8,0:0:0:0:
256,192,130433,1,0,0:0:0:0:
256,192,130605,1,8,0:0:0:0:
256,192,130776,1,0,0:0:0:0:
256,192,130948,1,0,0:0:0:0:
256,192,131033,1,0,0:0:0:0:
256,192,131119,1,8,0:0:0:0:
256,192,131291,1,0,0:0:0:0:
256,192,131376,1,0,0:0:0:0:
256,192,131462,1,0,0:0:0:0:
256,192,131633,1,8,0:0:0:0:
256,192,131805,1,0,0:0:0:0:
256,192,131891,1,0,0:0:0:0:
256,192,131976,1,8,0:0:0:0:
256,192,132319,1,12,0:0:0:0:
256,192,132491,1,0,0:0:0:0:
256,192,132662,1,0,0:0:0:0:
256,192,132748,1,0,0:0:0:0:
256,192,132833,1,8,0:0:0:0:
256,192,133004,1,0,0:0:0:0:
256,192,133176,1,0,0:0:0:0:
256,192,133347,1,0,0:0:0:0:
256,192,133433,1,0,0:0:0:0:
256,192,133519,1,0,0:0:0:0:
256,192,133690,1,8,0:0:0:0:
256,192,133861,1,0,0:0:0:0:
256,192,134033,1,8,0:0:0:0:
256,192,134204,1,0,0:0:0:0:
256,192,134376,1,0,0:0:0:0:
256,192,134461,1,0,0:0:0:0:
256,192,134547,1,8,0:0:0:0:
256,192,134719,1,0,0:0:0:0:
256,192,134804,1,0,0:0:0:0:
256,192,134890,1,0,0:0:0:0:
256,192,135061,1,8,0:0:0:0:
256,192,135233,1,0,0:0:0:0:
256,192,135319,1,0,0:0:0:0:
256,192,135404,1,8,0:0:0:0:
256,192,135491,1,8,0:0:0:0:
256,192,135576,1,8,0:0:0:0:
256,192,135662,1,8,0:0:0:0:
256,192,135747,1,0,0:0:0:0:
256,192,135919,1,0,0:0:0:0:
256,192,136262,1,8,0:0:0:0:
256,192,136433,1,0,0:0:0:0:
256,192,136605,1,0,0:0:0:0:
256,192,136691,1,0,0:0:0:0:
256,192,136776,1,8,0:0:0:0:
256,192,136862,1,0,0:0:0:0:
256,192,136948,1,0,0:0:0:0:
256,192,137119,1,8,0:0:0:0:
256,192,137290,1,0,0:0:0:0:
256,192,137462,1,8,0:0:0:0:
256,192,137633,1,0,0:0:0:0:
256,192,137719,1,0,0:0:0:0:
256,192,137805,1,0,0:0:0:0:
256,192,137890,1,0,0:0:0:0:
256,192,137976,1,8,0:0:0:0:
256,192,138148,1,0,0:0:0:0:
256,192,138233,1,0,0:0:0:0:
256,192,138319,1,0,0:0:0:0:
256,192,138490,1,8,0:0:0:0:
256,192,138662,1,0,0:0:0:0:
256,192,138748,1,0,0:0:0:0:
256,192,138833,1,8,0:0:0:0:
256,192,139176,1,4,0:0:0:0:
256,192,139348,1,0,0:0:0:0:
256,192,139519,1,0,0:0:0:0:
256,192,139605,1,0,0:0:0:0:
256,192,139691,1,8,0:0:0:0:
256,192,139862,1,0,0:0:0:0:
256,192,140033,1,0,0:0:0:0:
256,192,140205,1,8,0:0:0:0:
256,192,140291,1,8,0:0:0:0:
256,192,140376,1,0,0:0:0:0:
256,192,140548,1,8,0:0:0:0:
256,192,140719,1,0,0:0:0:0:
256,192,140891,1,0,0:0:0:0:
256,192,141062,1,0,0:0:0:0:
256,192,141233,1,8,0:0:0:0:
256,192,141405,1,8,0:0:0:0:
256,192,141576,1,0,0:0:0:0:
256,192,141662,1,0,0:0:0:0:
256,192,141748,1,0,0:0:0:0:
256,192,141919,1,8,0:0:0:0:
256,192,142005,1,0,0:0:0:0:
256,192,142091,1,0,0:0:0:0:
256,192,142176,1,0,0:0:0:0:
256,192,142262,1,8,0:0:0:0:
256,192,142348,1,8,0:0:0:0:
256,192,142433,1,0,0:0:0:0:
256,192,142519,1,0,0:0:0:0:
256,192,142605,1,8,0:0:0:0:
256,192,142776,1,0,0:0:0:0:
256,192,143119,1,8,0:0:0:0:
256,192,143290,1,0,0:0:0:0:
256,192,143462,1,0,0:0:0:0:
256,192,143633,1,0,0:0:0:0:
256,192,143719,1,0,0:0:0:0:
256,192,143805,1,0,0:0:0:0:
256,192,143976,1,8,0:0:0:0:
256,192,144147,1,0,0:0:0:0:
256,192,144319,1,8,0:0:0:0:
256,192,144490,1,0,0:0:0:0:
256,192,144576,1,0,0:0:0:0:
256,192,144662,1,0,0:0:0:0:
256,192,144747,1,0,0:0:0:0:
256,192,144833,1,8,0:0:0:0:
256,192,145005,1,0,0:0:0:0:
256,192,145090,1,0,0:0:0:0:
256,192,145176,1,0,0:0:0:0:
256,192,145262,1,0,0:0:0:0:
256,192,145347,1,8,0:0:0:0:
256,192,145519,1,0,0:0:0:0:
256,192,145605,1,0,0:0:0:0:
256,192,145690,1,8,0:0:0:0:
256,192,146033,1,12,0:0:0:0:
256,192,146205,1,0,0:0:0:0:
256,192,146376,1,0,0:0:0:0:
256,192,146462,1,0,0:0:0:0:
256,192,146547,1,8,0:0:0:0:
256,192,146718,1,0,0:0:0:0:
256,192,146890,1,0,0:0:0:0:
256,192,147061,1,0,0:0:0:0:
256,192,147147,1,0,0:0:0:0:
256,192,147233,1,0,0:0:0:0:
256,192,147404,1,8,0:0:0:0:
256,192,147575,1,0,0:0:0:0:
256,192,147747,1,8,0:0:0:0:
256,192,147918,1,0,0:0:0:0:
256,192,148090,1,0,0:0:0:0:
256,192,148175,1,0,0:0:0:0:
256,192,148261,1,8,0:0:0:0:
256,192,148433,1,0,0:0:0:0:
256,192,148518,1,0,0:0:0:0:
256,192,148604,1,0,0:0:0:0:
256,192,148691,1,0,0:0:0:0:
256,192,148775,1,8,0:0:0:0:
256,192,148947,1,0,0:0:0:0:
256,192,149033,1,0,0:0:0:0:
256,192,149118,1,8,0:0:0:0:
256,192,149205,1,0,0:0:0:0:
256,192,149290,1,8,0:0:0:0:
256,192,149376,1,8,0:0:0:0:
256,192,149461,1,0,0:0:0:0:
256,192,149633,1,0,0:0:0:0:
256,192,149976,1,8,0:0:0:0:
256,192,150147,1,0,0:0:0:0:
256,192,150319,1,0,0:0:0:0:
256,192,150405,1,0,0:0:0:0:
256,192,150490,1,8,0:0:0:0:
256,192,150576,1,8,0:0:0:0:
256,192,150662,1,0,0:0:0:0:
256,192,150833,1,8,0:0:0:0:
256,192,151004,1,0,0:0:0:0:
256,192,151176,1,8,0:0:0:0:
256,192,151347,1,0,0:0:0:0:
256,192,151433,1,0,0:0:0:0:
256,192,151519,1,0,0:0:0:0:
256,192,151604,1,0,0:0:0:0:
256,192,151690,1,8,0:0:0:0:
256,192,151862,1,0,0:0:0:0:
256,192,151947,1,0,0:0:0:0:
256,192,152033,1,0,0:0:0:0:
256,192,152119,1,0,0:0:0:0:
256,192,152204,1,8,0:0:0:0:
256,192,152376,1,0,0:0:0:0:
256,192,152462,1,0,0:0:0:0:
256,192,152547,1,8,0:0:0:0:
256,192,152890,1,4,0:0:0:0:
256,192,153062,1,0,0:0:0:0:
256,192,153233,1,0,0:0:0:0:
256,192,153319,1,0,0:0:0:0:
256,192,153405,1,8,0:0:0:0:
256,192,153576,1,0,0:0:0:0:
256,192,153747,1,0,0:0:0:0:
256,192,153919,1,8,0:0:0:0:
256,192,154005,1,8,0:0:0:0:
256,192,154090,1,0,0:0:0:0:
256,192,154262,1,8,0:0:0:0:
256,192,154433,1,0,0:0:0:0:
256,192,154605,1,4,0:0:0:0:
256,192,154776,1,0,0:0:0:0:
256,192,155119,1,8,0:0:0:0:
256,192,155291,1,0,0:0:0:0:
256,192,155376,1,0,0:0:0:0:
256,192,155462,1,0,0:0:0:0:
256,192,155633,1,8,0:0:0:0:
256,192,155719,1,0,0:0:0:0:
256,192,155805,1,0,0:0:0:0:
256,192,155890,1,0,0:0:0:0:
256,192,155976,1,8,0:0:0:0:
256,192,156062,1,8,0:0:0:0:
256,192,156147,1,0,0:0:0:0:
256,192,156233,1,0,0:0:0:0:
256,192,156319,1,8,0:0:0:0:
256,192,156491,1,8,0:0:0:0:
256,192,156576,1,8,0:0:0:0:
256,192,156662,1,0,0:0:0:0:
256,192,156833,1,8,0:0:0:0:
256,192,157004,1,0,0:0:0:0:
256,192,157176,1,0,0:0:0:0:
256,192,157262,1,0,0:0:0:0:
256,192,157347,1,0,0:0:0:0:
256,192,157519,1,0,0:0:0:0:
256,192,157690,1,12,0:0:0:0:
256,192,158033,1,12,0:0:0:0:
256,192,158376,1,4,0:0:0:0:
256,192,158719,1,0,0:0:0:0:
256,192,158890,1,12,0:0:0:0:
256,192,159062,1,0,0:0:0:0:
256,192,159233,1,0,0:0:0:0:
256,192,159319,1,0,0:0:0:0:
256,192,159404,1,0,0:0:0:0:
256,192,159490,1,0,0:0:0:0:
256,192,159576,1,0,0:0:0:0:
256,192,159747,1,4,0:0:0:0:
256,192,160090,1,4,0:0:0:0:
256,192,160433,1,12,0:0:0:0:
256,192,160776,1,0,0:0:0:0:
256,192,160947,1,12,0:0:0:0:
256,192,161119,1,0,0:0:0:0:
256,192,161290,1,0,0:0:0:0:
256,192,161376,1,0,0:0:0:0:
256,192,161462,1,0,0:0:0:0:
256,192,161633,1,0,0:0:0:0:
256,192,161804,1,12,0:0:0:0:
256,192,162147,1,4,0:0:0:0:
256,192,162490,1,12,0:0:0:0:
256,192,162833,1,0,0:0:0:0:
256,192,163004,1,12,0:0:0:0:
256,192,163347,1,0,0:0:0:0:
256,192,163433,1,0,0:0:0:0:
256,192,163519,1,8,0:0:0:0:
256,192,163604,1,8,0:0:0:0:
256,192,163690,1,0,0:0:0:0:
256,192,163862,1,12,0:0:0:0:
256,192,164204,1,12,0:0:0:0:
256,192,164547,1,12,0:0:0:0:
256,192,164890,1,0,0:0:0:0:
256,192,165062,1,12,0:0:0:0:
256,192,165233,1,0,0:0:0:0:
256,192,165319,1,0,0:0:0:0:
256,192,165404,1,0,0:0:0:0:
256,192,165490,1,0,0:0:0:0:
256,192,165576,1,0,0:0:0:0:
256,192,165662,1,0,0:0:0:0:
256,192,165747,1,0,0:0:0:0:
256,192,165919,1,12,0:0:0:0:
256,192,166262,1,12,0:0:0:0:
256,192,166433,1,0,0:0:0:0:
256,192,166604,1,12,0:0:0:0:
256,192,166947,1,0,0:0:0:0:
256,192,167119,1,12,0:0:0:0:
256,192,167290,1,0,0:0:0:0:
256,192,167376,1,0,0:0:0:0:
256,192,167462,1,8,0:0:0:0:
256,192,167547,1,0,0:0:0:0:
256,192,167633,1,8,0:0:0:0:
256,192,167719,1,8,0:0:0:0:
256,192,167804,1,0,0:0:0:0:
256,192,167976,1,12,0:0:0:0:
256,192,168147,1,0,0:0:0:0:
256,192,168233,1,0,0:0:0:0:
256,192,168319,1,8,0:0:0:0:
256,192,168490,1,0,0:0:0:0:
256,192,168576,1,0,0:0:0:0:
256,192,168662,1,8,0:0:0:0:
256,192,168747,1,8,0:0:0:0:
256,192,168833,1,8,0:0:0:0:
256,192,168919,1,8,0:0:0:0:
256,192,169004,1,0,0:0:0:0:
256,192,169176,1,12,0:0:0:0:
256,192,169347,1,0,0:0:0:0:
256,192,169433,1,0,0:0:0:0:
256,192,169519,1,8,0:0:0:0:
256,192,169604,1,0,0:0:0:0:
256,192,169690,1,0,0:0:0:0:
256,192,169776,1,0,0:0:0:0:
256,192,169862,1,0,0:0:0:0:
256,192,170033,1,12,0:0:0:0:
256,192,170376,1,12,0:0:0:0:
256,192,170719,1,4,0:0:0:0:
256,192,171062,1,12,0:0:0:0:
256,192,171747,1,4,0:0:0:0:
256,192,172433,1,4,0:0:0:0:
256,192,172776,1,8,0:0:0:0:
256,192,172862,1,8,0:0:0:0:
256,192,172947,1,8,0:0:0:0:
256,192,173033,1,8,0:0:0:0:
256,192,173119,1,0,0:0:0:0:
256,192,173204,1,0,0:0:0:0:
256,192,173290,1,0,0:0:0:0:
256,192,173376,1,0,0:0:0:0:
256,192,173462,1,8,0:0:0:0:
256,192,173547,1,0,0:0:0:0:
256,192,173633,1,8,0:0:0:0:
256,192,173719,1,8,0:0:0:0:
256,192,173804,1,0,0:0:0:0:
256,192,174147,1,0,0:0:0:0:
256,192,174233,1,0,0:0:0:0:
256,192,174319,1,8,0:0:0:0:
256,192,174404,1,8,0:0:0:0:
256,192,174490,1,0,0:0:0:0:
256,192,174662,1,8,0:0:0:0:
256,192,174747,1,0,0:0:0:0:
256,192,174919,1,0,0:0:0:0:
256,192,175004,1,8,0:0:0:0:
256,192,175176,1,0,0:0:0:0:
256,192,175519,1,0,0:0:0:0:
256,192,175604,1,0,0:0:0:0:
256,192,175690,1,8,0:0:0:0:
256,192,175776,1,8,0:0:0:0:
256,192,175862,1,8,0:0:0:0:
256,192,176033,1,0,0:0:0:0:
256,192,176119,1,8,0:0:0:0:
256,192,176290,1,0,0:0:0:0:
256,192,176376,1,8,0:0:0:0:
256,192,176547,1,12,0:0:0:0:
256,192,176890,1,8,0:0:0:0:
256,192,176976,1,8,0:0:0:0:
256,192,177062,1,0,0:0:0:0:
256,192,177147,1,0,0:0:0:0:
256,192,177233,1,8,0:0:0:0:
256,192,177404,1,8,0:0:0:0:
256,192,177490,1,0,0:0:0:0:
256,192,177662,1,0,0:0:0:0:
256,192,177747,1,8,0:0:0:0:
256,192,177919,1,0,0:0:0:0:
256,192,178262,1,8,0:0:0:0:
256,192,178347,1,8,0:0:0:0:
256,192,178433,1,0,0:0:0:0:
256,192,178519,1,0,0:0:0:0:
256,192,178604,1,8,0:0:0:0:
256,192,178776,1,0,0:0:0:0:
256,192,178862,1,8,0:0:0:0:
256,192,179033,1,0,0:0:0:0:
256,192,179119,1,8,0:0:0:0:
256,192,179290,1,4,0:0:0:0:
256,192,179462,1,0,0:0:0:0:
256,192,179547,1,8,0:0:0:0:
256,192,179719,1,0,0:0:0:0:
256,192,179804,1,8,0:0:0:0:
256,192,179976,1,0,0:0:0:0:
256,192,180147,1,0,0:0:0:0:
256,192,180233,1,8,0:0:0:0:
256,192,180404,1,0,0:0:0:0:
256,192,180490,1,8,0:0:0:0:
256,192,180662,1,8,0:0:0:0:
256,192,180833,1,0,0:0:0:0:
256,192,180919,1,8,0:0:0:0:
256,192,181090,1,0,0:0:0:0:
256,192,181176,1,8,0:0:0:0:
256,192,181347,1,8,0:0:0:0:
256,192,181519,1,0,0:0:0:0:
256,192,181604,1,8,0:0:0:0:
256,192,181776,1,0,0:0:0:0:
256,192,181862,1,8,0:0:0:0:
256,192,182033,1,12,0:0:0:0:
256,192,182204,1,0,0:0:0:0:
256,192,182290,1,0,0:0:0:0:
256,192,182376,1,8,0:0:0:0:
256,192,182462,1,8,0:0:0:0:
256,192,182547,1,0,0:0:0:0:
256,192,182633,1,0,0:0:0:0:
256,192,182719,1,8,0:0:0:0:
256,192,182890,1,0,0:0:0:0:
256,192,182976,1,8,0:0:0:0:
256,192,183147,1,0,0:0:0:0:
256,192,183233,1,8,0:0:0:0:
256,192,183404,1,4,0:0:0:0:
256,192,183576,1,0,0:0:0:0:
256,192,183662,1,8,0:0:0:0:
256,192,183833,1,0,0:0:0:0:
256,192,183919,1,8,0:0:0:0:
256,192,184090,1,8,0:0:0:0:
256,192,184176,1,8,0:0:0:0:
256,192,184262,1,0,0:0:0:0:
256,192,184347,1,0,0:0:0:0:
256,192,184433,1,0,0:0:0:0:
256,192,184519,1,0,0:0:0:0:
256,192,184604,1,0,0:0:0:0:
256,192,184776,1,0,0:0:0:0:
256,192,184862,1,0,0:0:0:0:
256,192,184947,1,8,0:0:0:0:
256,192,185033,1,8,0:0:0:0:
256,192,185119,1,0,0:0:0:0:
256,192,185204,1,0,0:0:0:0:
256,192,185290,1,8,0:0:0:0:
256,192,185462,1,0,0:0:0:0:
256,192,185547,1,0,0:0:0:0:
256,192,185633,1,8,0:0:0:0:
256,192,185719,1,0,0:0:0:0:
256,192,185804,1,0,0:0:0:0:
256,192,185890,1,0,0:0:0:0:
256,192,185976,1,8,0:0:0:0:
256,192,186147,1,0,0:0:0:0:
256,192,186233,1,0,0:0:0:0:
256,192,186319,1,8,0:0:0:0:
256,192,186404,1,8,0:0:0:0:
256,192,186490,1,0,0:0:0:0:
256,192,186576,1,0,0:0:0:0:
256,192,186662,1,8,0:0:0:0:
256,192,186833,1,4,0:0:0:0:
256,192,187004,1,8,0:0:0:0:
256,192,187090,1,8,0:0:0:0:
256,192,187176,1,0,0:0:0:0:
256,192,187262,1,0,0:0:0:0:
256,192,187347,1,8,0:0:0:0:
256,192,187433,1,8,0:0:0:0:
256,192,187519,1,0,0:0:0:0:
256,192,187604,1,0,0:0:0:0:
256,192,187690,1,8,0:0:0:0:
256,192,187776,1,8,0:0:0:0:
256,192,187862,1,8,0:0:0:0:
256,192,187947,1,0,0:0:0:0:
256,192,188033,1,8,0:0:0:0:
256,192,188204,1,0,0:0:0:0:
256,192,188290,1,0,0:0:0:0:
256,192,188376,1,8,0:0:0:0:
256,192,188462,1,8,0:0:0:0:
256,192,188547,1,0,0:0:0:0:
256,192,188633,1,0,0:0:0:0:
256,192,188719,1,8,0:0:0:0:
256,192,188890,1,0,0:0:0:0:
256,192,188976,1,0,0:0:0:0:
256,192,189062,1,8,0:0:0:0:
256,192,189147,1,0,0:0:0:0:
256,192,189233,1,0,0:0:0:0:
256,192,189319,1,0,0:0:0:0:
256,192,189404,1,8,0:0:0:0:
256,192,189576,1,12,0:0:0:0:
256,192,189747,1,8,0:0:0:0:
256,192,189833,1,0,0:0:0:0:
256,192,189919,1,8,0:0:0:0:
256,192,190004,1,8,0:0:0:0:
256,192,190090,1,8,0:0:0:0:
256,192,190262,1,4,0:0:0:0:
256,192,190604,1,8,0:0:0:0:
256,192,190690,1,0,0:0:0:0:
256,192,190776,1,8,0:0:0:0:
256,192,190862,1,8,0:0:0:0:
256,192,190947,1,0,0:0:0:0:
256,192,191119,1,8,0:0:0:0:
256,192,191204,1,0,0:0:0:0:
256,192,191376,1,0,0:0:0:0:
256,192,191462,1,8,0:0:0:0:
256,192,191633,1,0,0:0:0:0:
256,192,191804,1,0,0:0:0:0:
256,192,191890,1,8,0:0:0:0:
256,192,192062,1,0,0:0:0:0:
256,192,192147,1,8,0:0:0:0:
256,192,192319,1,8,0:0:0:0:
256,192,192490,1,0,0:0:0:0:
256,192,192576,1,8,0:0:0:0:
256,192,192747,1,0,0:0:0:0:
256,192,192833,1,8,0:0:0:0:
256,192,193004,1,8,0:0:0:0:
256,192,193176,1,0,0:0:0:0:
256,192,193347,1,8,0:0:0:0:
256,192,193433,1,8,0:0:0:0:
256,192,193519,1,0,0:0:0:0:
256,192,193604,1,0,0:0:0:0:
256,192,193690,1,8,0:0:0:0:
256,192,193776,1,0,0:0:0:0:
256,192,193862,1,0,0:0:0:0:
256,192,193947,1,0,0:0:0:0:
256,192,194033,1,8,0:0:0:0:
256,192,194119,1,8,0:0:0:0:
256,192,194204,1,0,0:0:0:0:
256,192,194376,1,12,0:0:0:0:
256,192,194719,1,8,0:0:0:0:
256,192,194804,1,8,0:0:0:0:
256,192,194890,1,0,0:0:0:0:
256,192,194976,1,0,0:0:0:0:
256,192,195062,1,8,0:0:0:0:
256,192,195147,1,0,0:0:0:0:
256,192,195233,1,0,0:0:0:0:
256,192,195319,1,8,0:0:0:0:
256,192,195404,1,0,0:0:0:0:
256,192,195490,1,0,0:0:0:0:
256,192,195576,1,8,0:0:0:0:
256,192,195747,1,4,0:0:0:0:
256,192,196090,1,0,0:0:0:0:
256,192,196176,1,0,0:0:0:0:
256,192,196262,1,0,0:0:0:0:
256,192,196347,1,0,0:0:0:0:
256,192,196433,1,8,0:0:0:0:
256,192,196604,1,0,0:0:0:0:
256,192,196690,1,8,0:0:0:0:
256,192,196862,1,0,0:0:0:0:
256,192,196947,1,8,0:0:0:0:
256,192,197119,1,8,0:0:0:0:
256,192,197462,1,8,0:0:0:0:
256,192,197547,1,8,0:0:0:0:
256,192,197633,1,0,0:0:0:0:
256,192,197719,1,0,0:0:0:0:
256,192,197804,1,8,0:0:0:0:
256,192,197976,1,8,0:0:0:0:
256,192,198062,1,8,0:0:0:0:
256,192,198233,1,8,0:0:0:0:
256,192,198319,1,8,0:0:0:0:
256,192,198490,1,4,0:0:0:0:
256,192,198833,1,0,0:0:0:0:
256,192,198919,1,0,0:0:0:0:
256,192,199004,1,0,0:0:0:0:
256,192,199090,1,0,0:0:0:0:
256,192,199176,1,8,0:0:0:0:
256,192,199347,1,0,0:0:0:0:
256,192,199519,1,0,0:0:0:0:
256,192,199690,1,8,0:0:0:0:
256,192,199776,1,8,0:0:0:0:
256,192,199862,1,0,0:0:0:0:
256,192,200033,1,8,0:0:0:0:
256,192,200204,1,0,0:0:0:0:
256,192,200290,1,0,0:0:0:0:
256,192,200376,1,0,0:0:0:0:
256,192,200462,1,0,0:0:0:0:
256,192,200547,1,8,0:0:0:0:
256,192,200719,1,0,0:0:0:0:
256,192,200890,1,8,0:0:0:0:
256,192,200976,1,8,0:0:0:0:
256,192,201062,1,0,0:0:0:0:
256,192,201147,1,0,0:0:0:0:
256,192,201233,1,8,0:0:0:0:
256,192,201404,1,0,0:0:0:0:
256,192,201490,1,8,0:0:0:0:
256,192,201662,1,0,0:0:0:0:
256,192,201747,1,8,0:0:0:0:
256,192,201919,1,8,0:0:0:0:
256,192,202004,1,8,0:0:0:0:
256,192,202090,1,0,0:0:0:0:
256,192,202262,1,0,0:0:0:0:
256,192,202433,1,8,0:0:0:0:
256,192,202604,1,0,0:0:0:0:
256,192,202776,1,8,0:0:0:0:
256,192,202862,1,8,0:0:0:0:
256,192,202947,1,0,0:0:0:0:
256,192,203119,1,8,0:0:0:0:
256,192,203290,1,8,0:0:0:0:
256,192,203376,1,8,0:0:0:0:
256,192,203462,1,8,0:0:0:0:
256,192,203547,1,8,0:0:0:0:
256,192,203633,1,0,0:0:0:0:
256,192,203976,1,4,0:0:0:0:
256,192,204147,1,0,0:0:0:0:
256,192,204233,1,8,0:0:0:0:
256,192,204404,1,0,0:0:0:0:
256,192,204490,1,8,0:0:0:0:
256,192,204662,1,8,0:0:0:0:
256,192,204833,1,0,0:0:0:0:
256,192,204919,1,8,0:0:0:0:
256,192,205090,1,8,0:0:0:0:
256,192,205176,1,0,0:0:0:0:
256,192,205347,1,0,0:0:0:0:
256,192,205519,1,0,0:0:0:0:
256,192,205604,1,8,0:0:0:0:
256,192,205776,1,0,0:0:0:0:
256,192,205862,1,8,0:0:0:0:
256,192,206033,1,8,0:0:0:0:
256,192,206119,1,0,0:0:0:0:
256,192,206204,1,0,0:0:0:0:
256,192,206290,1,8,0:0:0:0:
256,192,206376,1,0,0:0:0:0:
256,192,206462,1,0,0:0:0:0:
256,192,206547,1,8,0:0:0:0:
256,192,206633,1,0,0:0:0:0:
256,192,206719,1,8,0:0:0:0:
256,192,206804,1,8,0:0:0:0:
256,192,206890,1,0,0:0:0:0:
256,192,206976,1,8,0:0:0:0:
256,192,207062,1,0,0:0:0:0:
256,192,207147,1,0,0:0:0:0:
256,192,207233,1,8,0:0:0:0:
256,192,207319,1,0,0:0:0:0:
256,192,207404,1,0,0:0:0:0:
256,192,207490,1,8,0:0:0:0:
256,192,207576,1,0,0:0:0:0:
256,192,207662,1,0,0:0:0:0:
256,192,207747,1,8,0:0:0:0:
256,192,207833,1,8,0:0:0:0:
256,192,207919,1,0,0:0:0:0:
256,192,208004,1,8,0:0:0:0:
256,192,208090,1,0,0:0:0:0:
256,192,208176,1,0,0:0:0:0:
256,192,208262,1,8,0:0:0:0:
256,192,208347,1,8,0:0:0:0:
256,192,208433,1,0,0:0:0:0:
256,192,208519,1,8,0:0:0:0:
256,192,208604,1,0,0:0:0:0:
256,192,208690,1,0,0:0:0:0:
256,192,208776,1,8,0:0:0:0:
256,192,208862,1,8,0:0:0:0:
256,192,208947,1,0,0:0:0:0:
256,192,209119,1,8,0:0:0:0:
256,192,209290,1,0,0:0:0:0:
256,192,209462,1,12,0:0:0:0:
256,192,209804,1,0,0:0:0:0:
256,192,209890,1,0,0:0:0:0:
256,192,209976,1,8,0:0:0:0:
256,192,210062,1,8,0:0:0:0:
256,192,210147,1,0,0:0:0:0:
256,192,210319,1,0,0:0:0:0:
256,192,210404,1,0,0:0:0:0:
256,192,210490,1,8,0:0:0:0:
256,192,210662,1,0,0:0:0:0:
256,192,210833,1,8,0:0:0:0:
256,192,210919,1,8,0:0:0:0:
256,192,211004,1,0,0:0:0:0:
256,192,211090,1,0,0:0:0:0:
256,192,211176,1,8,0:0:0:0:
256,192,211262,1,8,0:0:0:0:
256,192,211347,1,8,0:0:0:0:
256,192,211433,1,0,0:0:0:0:
256,192,211519,1,8,0:0:0:0:
256,192,211690,1,0,0:0:0:0:
256,192,211776,1,0,0:0:0:0:
256,192,211862,1,0,0:0:0:0:
256,192,211947,1,0,0:0:0:0:
256,192,212033,1,0,0:0:0:0:
256,192,212119,1,0,0:0:0:0:
256,192,212204,1,8,0:0:0:0:
256,192,212290,1,0,0:0:0:0:
256,192,212376,1,8,0:0:0:0:
256,192,212462,1,0,0:0:0:0:
256,192,212547,1,0,0:0:0:0:
256,192,212633,1,0,0:0:0:0:
256,192,212719,1,8,0:0:0:0:
256,192,212804,1,0,0:0:0:0:
256,192,212890,1,0,0:0:0:0:
256,192,212976,1,0,0:0:0:0:
256,192,213062,1,8,0:0:0:0:
256,192,213147,1,0,0:0:0:0:
256,192,213233,1,0,0:0:0:0:
256,192,213319,1,0,0:0:0:0:
256,192,213404,1,8,0:0:0:0:
256,192,213490,1,0,0:0:0:0:
256,192,213576,1,8,0:0:0:0:
256,192,213662,1,8,0:0:0:0:
256,192,213747,1,0,0:0:0:0:
256,192,213833,1,0,0:0:0:0:
256,192,213919,1,8,0:0:0:0:
256,192,214004,1,0,0:0:0:0:
256,192,214090,1,8,0:0:0:0:
256,192,214176,1,8,0:0:0:0:
256,192,214262,1,0,0:0:0:0:
256,192,214347,1,0,0:0:0:0:
256,192,214433,1,8,0:0:0:0:
256,192,214519,1,0,0:0:0:0:
256,192,214604,1,0,0:0:0:0:
256,192,214690,1,0,0:0:0:0:
256,192,214776,1,8,0:0:0:0:
256,192,214862,1,0,0:0:0:0:
256,192,214947,1,8,0:0:0:0:
256,192,215033,1,0,0:0:0:0:
256,192,215119,1,8,0:0:0:0:
256,192,215204,1,0,0:0:0:0:
256,192,215290,1,0,0:0:0:0:
256,192,215376,1,0,0:0:0:0:
256,192,215462,1,8,0:0:0:0:
256,192,215547,1,0,0:0:0:0:
256,192,215633,1,0,0:0:0:0:
256,192,215719,1,0,0:0:0:0:
256,192,215804,1,8,0:0:0:0:
256,192,215890,1,8,0:0:0:0:
256,192,215976,1,0,0:0:0:0:
256,192,216062,1,0,0:0:0:0:
256,192,216147,1,8,0:0:0:0:
256,192,216319,1,12,0:0:0:0:
256,192,216662,1,0,0:0:0:0:
256,192,216747,1,0,0:0:0:0:
256,192,216833,1,8,0:0:0:0:
256,192,216919,1,0,0:0:0:0:
256,192,217004,1,8,0:0:0:0:
256,192,217090,1,8,0:0:0:0:
256,192,217176,1,0,0:0:0:0:
256,192,217262,1,0,0:0:0:0:
256,192,217347,1,8,0:0:0:0:
256,192,217433,1,0,0:0:0:0:
256,192,217519,1,8,0:0:0:0:
256,192,217690,1,0,0:0:0:0:
256,192,217776,1,0,0:0:0:0:
256,192,217862,1,8,0:0:0:0:
256,192,217947,1,8,0:0:0:0:
256,192,218033,1,8,0:0:0:0:
256,192,218119,1,0,0:0:0:0:
256,192,218204,1,8,0:0:0:0:
256,192,218290,1,0,0:0:0:0:
256,192,218376,1,8,0:0:0:0:
256,192,218462,1,0,0:0:0:0:
256,192,218547,1,0,0:0:0:0:
256,192,218633,1,0,0:0:0:0:
256,192,218719,1,8,0:0:0:0:
256,192,218804,1,0,0:0:0:0:
256,192,218890,1,8,0:0:0:0:
256,192,219062,1,4,0:0:0:0:
256,192,219404,1,0,0:0:0:0:
256,192,219490,1,0,0:0:0:0:
256,192,219576,1,8,0:0:0:0:
256,192,219662,1,0,0:0:0:0:
256,192,219747,1,8,0:0:0:0:
256,192,219833,1,8,0:0:0:0:
256,192,219919,1,0,0:0:0:0:
256,192,220004,1,8,0:0:0:0:
256,192,220090,1,8,0:0:0:0:
256,192,220176,1,0,0:0:0:0:
256,192,220262,1,8,0:0:0:0:
256,192,220433,1,12,0:0:0:0:
256,192,220604,1,8,0:0:0:0:
256,192,220690,1,8,0:0:0:0:
256,192,220776,1,0,0:0:0:0:
256,192,220862,1,0,0:0:0:0:
256,192,220947,1,8,0:0:0:0:
256,192,221033,1,8,0:0:0:0:
256,192,221119,1,8,0:0:0:0:
256,192,221204,1,0,0:0:0:0:
256,192,221290,1,0,0:0:0:0:
256,192,221376,1,8,0:0:0:0:
256,192,221462,1,0,0:0:0:0:
256,192,221547,1,0,0:0:0:0:
256,192,221633,1,8,0:0:0:0:
256,192,221804,1,4,0:0:0:0:
256,192,221976,1,0,0:0:0:0:
256,192,222062,1,0,0:0:0:0:
256,192,222147,1,8,0:0:0:0:
256,192,222233,1,8,0:0:0:0:
256,192,222319,1,0,0:0:0:0:
256,192,222404,1,0,0:0:0:0:
256,192,222490,1,8,0:0:0:0:
256,192,222576,1,0,0:0:0:0:
256,192,222662,1,0,0:0:0:0:
256,192,222747,1,0,0:0:0:0:
256,192,222833,1,0,0:0:0:0:
256,192,222919,1,0,0:0:0:0:
256,192,223004,1,0,0:0:0:0:
256,192,223176,1,12,0:0:0:0:
256,192,224376,1,8,0:0:0:0:
256,192,224462,1,8,0:0:0:0:
256,192,224547,1,8,0:0:0:0:
256,192,225062,1,8,0:0:0:0:
256,192,225147,1,8,0:0:0:0:
256,192,225233,1,0,0:0:0:0:
256,192,225490,1,0,0:0:0:0:
256,192,225747,1,8,0:0:0:0:
256,192,225919,1,4,0:0:0:0:
256,192,226947,1,0,0:0:0:0:
256,192,227033,1,0,0:0:0:0:
256,192,227119,1,0,0:0:0:0:
256,192,227204,1,0,0:0:0:0:
256,192,227290,1,0,0:0:0:0:
256,192,227462,1,8,0:0:0:0:
256,192,227547,1,8,0:0:0:0:
256,192,227633,1,0,0:0:0:0:
256,192,227719,1,0,0:0:0:0:
256,192,227804,1,8,0:0:0:0:
256,192,227890,1,0,0:0:0:0:
256,192,227976,1,8,0:0:0:0:
256,192,228147,1,0,0:0:0:0:
256,192,228233,1,0,0:0:0:0:
256,192,228319,1,8,0:0:0:0:
256,192,228490,1,8,0:0:0:0:
256,192,228576,1,8,0:0:0:0:
256,192,228662,1,0,0:0:0:0:
256,192,229690,1,8,0:0:0:0:
256,192,229776,1,8,0:0:0:0:
256,192,229862,1,8,0:0:0:0:
256,192,229947,1,8,0:0:0:0:
256,192,230033,1,8,0:0:0:0:
256,192,230547,1,8,0:0:0:0:
256,192,230633,1,8,0:0:0:0:
256,192,230719,1,0,0:0:0:0:
256,192,230976,1,0,0:0:0:0:
256,192,231233,1,8,0:0:0:0:
256,192,231404,1,4,0:0:0:0:
256,192,231576,8,0,233462,0:0:0:0:
256,192,233976,5,8,0:0:0:0:
256,192,234062,1,8,0:0:0:0:
256,192,234147,1,8,0:0:0:0:
256,192,234662,1,8,0:0:0:0:
256,192,234747,1,8,0:0:0:0:
256,192,234833,1,8,0:0:0:0:
256,192,235090,1,8,0:0:0:0:
256,192,235347,1,0,0:0:0:0:
256,192,235433,1,0,0:0:0:0:
256,192,235519,1,8,0:0:0:0:
256,192,235690,1,0,0:0:0:0:
256,192,235776,1,0,0:0:0:0:
256,192,235862,1,0,0:0:0:0:
256,192,235947,1,0,0:0:0:0:
256,192,236033,1,0,0:0:0:0:
256,192,236119,1,0,0:0:0:0:
256,192,236204,1,8,0:0:0:0:
256,192,236290,1,8,0:0:0:0:
256,192,236376,1,0,0:0:0:0:
256,192,236462,1,0,0:0:0:0:
256,192,236547,1,8,0:0:0:0:
256,192,236890,1,4,0:0:0:0:
256,192,237233,1,8,0:0:0:0:
256,192,237404,1,0,0:0:0:0:
256,192,237490,1,0,0:0:0:0:
256,192,237576,1,0,0:0:0:0:
256,192,237662,1,0,0:0:0:0:
256,192,237747,1,0,0:0:0:0:
256,192,237919,1,8,0:0:0:0:
256,192,238090,1,0,0:0:0:0:
256,192,238176,1,0,0:0:0:0:
256,192,238262,1,0,0:0:0:0:
256,192,238347,1,0,0:0:0:0:
256,192,238433,1,0,0:0:0:0:
256,192,238604,1,8,0:0:0:0:
256,192,238776,1,0,0:0:0:0:
256,192,238862,1,8,0:0:0:0:
256,192,238947,1,0,0:0:0:0:
256,192,239033,1,0,0:0:0:0:
256,192,239119,1,0,0:0:0:0:
256,192,239290,1,8,0:0:0:0:
256,192,239462,1,0,0:0:0:0:
256,192,239547,1,8,0:0:0:0:
256,192,239633,1,0,0:0:0:0:
256,192,239804,1,0,0:0:0:0:
256,192,239976,1,8,0:0:0:0:
256,192,240147,1,0,0:0:0:0:
256,192,240233,1,0,0:0:0:0:
256,192,240319,1,0,0:0:0:0:
256,192,240490,1,0,0:0:0:0:
256,192,240662,1,8,0:0:0:0:
256,192,240833,1,0,0:0:0:0:
256,192,240919,1,0,0:0:0:0:
256,192,241004,1,8,0:0:0:0:
256,192,241176,1,0,0:0:0:0:
256,192,241347,1,0,0:0:0:0:
256,192,241519,1,8,0:0:0:0:
256,192,241604,1,8,0:0:0:0:
256,192,241690,1,8,0:0:0:0:
256,192,241862,1,0,0:0:0:0:
256,192,242033,1,8,0:0:0:0:
256,192,242204,1,8,0:0:0:0:
256,192,242290,1,8,0:0:0:0:
256,192,242376,1,0,0:0:0:0:
256,192,242547,1,0,0:0:0:0:
256,192,242719,1,8,0:0:0:0:
256,192,242890,1,0,0:0:0:0:
256,192,242976,1,0,0:0:0:0:
256,192,243062,1,0,0:0:0:0:
256,192,243147,1,0,0:0:0:0:
256,192,243233,1,0,0:0:0:0:
256,192,243404,1,8,0:0:0:0:
256,192,243576,1,0,0:0:0:0:
256,192,243662,1,8,0:0:0:0:
256,192,243747,1,0,0:0:0:0:
256,192,243833,1,0,0:0:0:0:
256,192,243919,1,0,0:0:0:0:
256,192,244090,1,8,0:0:0:0:
256,192,244262,1,0,0:0:0:0:
256,192,244347,1,8,0:0:0:0:
256,192,244433,1,0,0:0:0:0:
256,192,244519,1,0,0:0:0:0:
256,192,244604,1,0,0:0:0:0:
256,192,244776,1,8,0:0:0:0:
256,192,244947,1,8,0:0:0:0:
256,192,245033,1,8,0:0:0:0:
256,192,245119,1,0,0:0:0:0:
256,192,245290,1,0,0:0:0:0:
256,192,245462,1,8,0:0:0:0:
256,192,245633,1,8,0:0:0:0:
256,192,245719,1,8,0:0:0:0:
256,192,245804,1,0,0:0:0:0:
256,192,245890,1,0,0:0:0:0:
256,192,245976,1,0,0:0:0:0:
256,192,246147,1,8,0:0:0:0:
256,192,246319,1,8,0:0:0:0:
256,192,246404,1,8,0:0:0:0:
256,192,246490,1,8,0:0:0:0:
256,192,246662,1,0,0:0:0:0:
256,192,246833,1,8,0:0:0:0:
256,192,247004,1,8,0:0:0:0:
256,192,247090,1,8,0:0:0:0:
256,192,247176,1,0,0:0:0:0:
256,192,247262,1,0,0:0:0:0:
256,192,247347,1,8,0:0:0:0:
256,192,247433,1,0,0:0:0:0:
256,192,247519,1,8,0:0:0:0:
256,192,247604,1,8,0:0:0:0:
256,192,247690,1,0,0:0:0:0:
256,192,247862,1,12,0:0:0:0:
256,192,248033,1,0,0:0:0:0:
256,192,248376,1,0,0:0:0:0:
256,192,248462,1,0,0:0:0:0:
256,192,248547,1,8,0:0:0:0:
256,192,248719,1,0,0:0:0:0:
256,192,249062,1,8,0:0:0:0:
256,192,249147,1,8,0:0:0:0:
256,192,249233,1,0,0:0:0:0:
256,192,249405,1,0,0:0:0:0:
256,192,249490,1,0,0:0:0:0:
256,192,249576,1,8,0:0:0:0:
256,192,249747,1,0,0:0:0:0:
256,192,249833,1,8,0:0:0:0:
256,192,249919,1,0,0:0:0:0:
256,192,250090,1,0,0:0:0:0:
256,192,250176,1,0,0:0:0:0:
256,192,250262,1,8,0:0:0:0:
256,192,250433,1,8,0:0:0:0:
256,192,250519,1,8,0:0:0:0:
256,192,250605,1,0,0:0:0:0:
256,192,250776,1,0,0:0:0:0:
256,192,251119,1,0,0:0:0:0:
256,192,251205,1,0,0:0:0:0:
256,192,251290,1,8,0:0:0:0:
256,192,251462,1,0,0:0:0:0:
256,192,251805,1,8,0:0:0:0:
256,192,251890,1,8,0:0:0:0:
256,192,251976,1,0,0:0:0:0:
256,192,252148,1,0,0:0:0:0:
256,192,252233,1,0,0:0:0:0:
256,192,252319,1,8,0:0:0:0:
256,192,252490,1,8,0:0:0:0:
256,192,252576,1,8,0:0:0:0:
256,192,252662,1,0,0:0:0:0:
256,192,252833,1,0,0:0:0:0:
256,192,252919,1,0,0:0:0:0:
256,192,253005,1,8,0:0:0:0:
256,192,253090,1,8,0:0:0:0:
256,192,253176,1,0,0:0:0:0:
256,192,253262,1,0,0:0:0:0:
256,192,253348,1,0,0:0:0:0:
256,192,253519,1,0,0:0:0:0:
256,192,253690,1,8,0:0:0:0:
256,192,253862,1,0,0:0:0:0:
256,192,253947,1,0,0:0:0:0:
256,192,254033,1,0,0:0:0:0:
256,192,254119,1,0,0:0:0:0:
256,192,254205,1,0,0:0:0:0:
256,192,254376,1,8,0:0:0:0:
256,192,254547,1,0,0:0:0:0:
256,192,254633,1,8,0:0:0:0:
256,192,254719,1,0,0:0:0:0:
256,192,254804,1,0,0:0:0:0:
256,192,254890,1,0,0:0:0:0:
256,192,255062,1,8,0:0:0:0:
256,192,255233,1,0,0:0:0:0:
256,192,255319,1,8,0:0:0:0:
256,192,255405,1,0,0:0:0:0:
256,192,255490,1,0,0:0:0:0:
256,192,255576,1,0,0:0:0:0:
256,192,255747,1,8,0:0:0:0:
256,192,255919,1,8,0:0:0:0:
256,192,256005,1,8,0:0:0:0:
256,192,256090,1,0,0:0:0:0:
256,192,256176,1,0,0:0:0:0:
256,192,256262,1,0,0:0:0:0:
256,192,256433,1,8,0:0:0:0:
256,192,256605,1,8,0:0:0:0:
256,192,256690,1,8,0:0:0:0:
256,192,256776,1,0,0:0:0:0:
256,192,256862,1,0,0:0:0:0:
256,192,256947,1,0,0:0:0:0:
256,192,257119,1,8,0:0:0:0:
256,192,257290,1,0,0:0:0:0:
256,192,257376,1,8,0:0:0:0:
256,192,257462,1,0,0:0:0:0:
256,192,257547,1,0,0:0:0:0:
256,192,257633,1,0,0:0:0:0:
256,192,257805,1,8,0:0:0:0:
256,192,257976,1,8,0:0:0:0:
256,192,258062,1,8,0:0:0:0:
256,192,258147,1,0,0:0:0:0:
256,192,258233,1,0,0:0:0:0:
256,192,258319,1,0,0:0:0:0:
256,192,258490,1,8,0:0:0:0:
256,192,258576,1,8,0:0:0:0:
256,192,258662,1,0,0:0:0:0:
256,192,258747,1,0,0:0:0:0:
256,192,258833,1,8,0:0:0:0:
256,192,259005,1,0,0:0:0:0:
256,192,259347,1,0,0:0:0:0:
256,192,259433,1,0,0:0:0:0:
256,192,259519,1,8,0:0:0:0:
256,192,259690,1,0,0:0:0:0:
256,192,260033,1,0,0:0:0:0:
256,192,260119,1,0,0:0:0:0:
256,192,260205,1,8,0:0:0:0:
256,192,260376,1,0,0:0:0:0:
256,192,260547,1,0,0:0:0:0:
256,192,260633,1,0,0:0:0:0:
256,192,260719,1,0,0:0:0:0:
256,192,260805,1,0,0:0:0:0:
256,192,260890,1,8,0:0:0:0:
256,192,261062,1,0,0:0:0:0:
256,192,261233,1,8,0:0:0:0:
256,192,261405,1,8,0:0:0:0:
256,192,261490,1,8,0:0:0:0:
256,192,261576,1,0,0:0:0:0:
256,192,261747,1,0,0:0:0:0:
256,192,261833,1,0,0:0:0:0:
256,192,261919,1,0,0:0:0:0:
256,192,262005,1,0,0:0:0:0:
256,192,262090,1,8,0:0:0:0:
256,192,262176,1,0,0:0:0:0:
256,192,262262,1,8,0:0:0:0:
256,192,262347,1,8,0:0:0:0:
256,192,262433,1,0,0:0:0:0:
256,192,262519,1,0,0:0:0:0:
256,192,262605,1,8,0:0:0:0:
256,192,262690,1,8,0:0:0:0:
256,192,262776,1,0,0:0:0:0:
256,192,262862,1,0,0:0:0:0:
256,192,262947,1,8,0:0:0:0:
256,192,263119,1,8,0:0:0:0:
256,192,263205,1,8,0:0:0:0:
256,192,263290,1,0,0:0:0:0:
256,192,263376,1,0,0:0:0:0:
256,192,263462,1,8,0:0:0:0:
256,192,263547,1,0,0:0:0:0:
256,192,263633,1,8,0:0:0:0:
256,192,263719,1,8,0:0:0:0:
256,192,263805,1,0,0:0:0:0:
256,192,263890,1,0,0:0:0:0:
256,192,263976,1,8,0:0:0:0:
256,192,264062,1,0,0:0:0:0:
256,192,264147,1,8,0:0:0:0:
256,192,264233,1,8,0:0:0:0:
256,192,264319,1,0,0:0:0:0:
256,192,265690,1,12,0:0:0:0:
256,192,265862,1,12,0:0:0:0:
256,192,266033,1,0,0:0:0:0:
256,192,266119,1,0,0:0:0:0:
256,192,266205,1,0,0:0:0:0:
256,192,266290,1,0,0:0:0:0:
256,192,266376,1,8,0:0:0:0:
256,192,266462,1,8,0:0:0:0:
256,192,266547,1,0,0:0:0:0:
256,192,266633,1,0,0:0:0:0:
256,192,266719,1,8,0:0:0:0:
256,192,266805,1,8,0:0:0:0:
256,192,266890,1,0,0:0:0:0:
256,192,267062,1,4,0:0:0:0:
256,192,267233,1,0,0:0:0:0:
256,192,267319,1,0,0:0:0:0:
256,192,267405,1,8,0:0:0:0:
256,192,267576,1,0,0:0:0:0:
256,192,267662,1,0,0:0:0:0:
256,192,267747,1,0,0:0:0:0:
256,192,267919,1,0,0:0:0:0:
256,192,268005,1,0,0:0:0:0:
256,192,268090,1,8,0:0:0:0:
256,192,268176,1,0,0:0:0:0:
256,192,268262,1,0,0:0:0:0:
256,192,268347,1,0,0:0:0:0:
256,192,268433,1,0,0:0:0:0:
256,192,268605,1,0,0:0:0:0:
256,192,268690,1,0,0:0:0:0:
256,192,268776,1,8,0:0:0:0:
256,192,268862,1,0,0:0:0:0:
256,192,268947,1,0,0:0:0:0:
256,192,269033,1,8,0:0:0:0:
256,192,269119,1,0,0:0:0:0:
256,192,269290,1,0,0:0:0:0:
256,192,269376,1,0,0:0:0:0:
256,192,269462,1,8,0:0:0:0:
256,192,269547,1,0,0:0:0:0:
256,192,269633,1,0,0:0:0:0:
256,192,269805,1,12,0:0:0:0:
256,192,269976,1,8,0:0:0:0:
256,192,270062,1,8,0:0:0:0:
256,192,270147,1,0,0:0:0:0:
256,192,270319,1,8,0:0:0:0:
256,192,270490,1,4,0:0:0:0:
256,192,270662,1,8,0:0:0:0:
256,192,270747,1,0,0:0:0:0:
256,192,270833,1,8,0:0:0:0:
256,192,270919,1,8,0:0:0:0:
256,192,271005,1,0,0:0:0:0:
256,192,271176,1,12,0:0:0:0:
256,192,271347,1,0,0:0:0:0:
256,192,271433,1,0,0:0:0:0:
256,192,271519,1,8,0:0:0:0:
256,192,271690,1,0,0:0:0:0:
256,192,271776,1,0,0:0:0:0:
256,192,271862,1,0,0:0:0:0:
256,192,271947,1,0,0:0:0:0:
256,192,272033,1,0,0:0:0:0:
256,192,272119,1,0,0:0:0:0:
256,192,272205,1,8,0:0:0:0:
256,192,272290,1,8,0:0:0:0:
256,192,272376,1,0,0:0:0:0:
256,192,272547,1,12,0:0:0:0:
256,192,272719,1,0,0:0:0:0:
256,192,272805,1,0,0:0:0:0:
256,192,272890,1,8,0:0:0:0:
256,192,273062,1,0,0:0:0:0:
256,192,273147,1,0,0:0:0:0:
256,192,273233,1,0,0:0:0:0:
256,192,273405,1,0,0:0:0:0:
256,192,273490,1,0,0:0:0:0:
256,192,273576,1,8,0:0:0:0:
256,192,273747,1,0,0:0:0:0:
256,192,273919,1,0,0:0:0:0:
256,192,274005,1,0,0:0:0:0:
256,192,274090,1,0,0:0:0:0:
256,192,274176,1,0,0:0:0:0:
256,192,274262,1,8,0:0:0:0:
256,192,274433,1,0,0:0:0:0:
256,192,274519,1,8,0:0:0:0:
256,192,274605,1,0,0:0:0:0:
256,192,274690,1,0,0:0:0:0:
256,192,274776,1,0,0:0:0:0:
256,192,274862,1,0,0:0:0:0:
256,192,274947,1,8,0:0:0:0:
256,192,275119,1,0,0:0:0:0:
256,192,275205,1,0,0:0:0:0:
256,192,275290,1,8,0:0:0:0:
256,192,275376,1,8,0:0:0:0:
256,192,275462,1,0,0:0:0:0:
256,192,275547,1,0,0:0:0:0:
256,192,275633,1,8,0:0:0:0:
256,192,275805,1,0,0:0:0:0:
256,192,275890,1,8,0:0:0:0:
256,192,275976,1,0,0:0:0:0:
256,192,276147,1,0,0:0:0:0:
256,192,276233,1,0,0:0:0:0:
256,192,276319,1,8,0:0:0:0:
256,192,276405,1,8,0:0:0:0:
256,192,276490,1,8,0:0:0:0:
256,192,276576,1,8,0:0:0:0:
256,192,276662,1,0,0:0:0:0:
256,192,276833,1,8,0:0:0:0:
256,192,276919,1,8,0:0:0:0:
256,192,277005,1,0,0:0:0:0:
256,192,277176,1,8,0:0:0:0:
256,192,277347,1,8,0:0:0:0:
256,192,277519,1,0,0:0:0:0:
256,192,277690,1,8,0:0:0:0:
256,192,277776,1,8,0:0:0:0:
256,192,277862,1,0,0:0:0:0:
256,192,278033,1,4,0:0:0:0:
256,192,278205,1,0,0:0:0:0:
256,192,278290,1,0,0:0:0:0:
256,192,278376,1,8,0:0:0:0:
256,192,278547,1,0,0:0:0:0:
256,192,278633,1,0,0:0:0:0:
256,192,278719,1,0,0:0:0:0:
256,192,278890,1,0,0:0:0:0:
256,192,278976,1,0,0:0:0:0:
256,192,279062,1,8,0:0:0:0:
256,192,279147,1,0,0:0:0:0:
256,192,279233,1,0,0:0:0:0:
256,192,279319,1,0,0:0:0:0:
256,192,279405,1,0,0:0:0:0:
256,192,279576,1,0,0:0:0:0:
256,192,279662,1,0,0:0:0:0:
256,192,279747,1,8,0:0:0:0:
256,192,279833,1,0,0:0:0:0:
256,192,279919,1,0,0:0:0:0:
256,192,280005,1,8,0:0:0:0:
256,192,280090,1,0,0:0:0:0:
256,192,280262,1,0,0:0:0:0:
256,192,280347,1,0,0:0:0:0:
256,192,280433,1,8,0:0:0:0:
256,192,280519,1,0,0:0:0:0:
256,192,280605,1,0,0:0:0:0:
256,192,280776,1,12,0:0:0:0:
256,192,280947,1,8,0:0:0:0:
256,192,281033,1,8,0:0:0:0:
256,192,281119,1,0,0:0:0:0:
256,192,281290,1,8,0:0:0:0:
256,192,281462,1,4,0:0:0:0:
256,192,281633,1,8,0:0:0:0:
256,192,281719,1,0,0:0:0:0:
256,192,281805,1,8,0:0:0:0:
256,192,281890,1,8,0:0:0:0:
256,192,281976,1,0,0:0:0:0:
256,192,282147,1,12,0:0:0:0:
256,192,282319,1,0,0:0:0:0:
256,192,282405,1,0,0:0:0:0:
256,192,282490,1,0,0:0:0:0:
256,192,282576,1,0,0:0:0:0:
256,192,282662,1,0,0:0:0:0:
256,192,282747,1,0,0:0:0:0:
256,192,282833,1,0,0:0:0:0:
256,192,283005,1,0,0:0:0:0:
256,192,283176,1,12,0:0:0:0:
256,192,283519,1,4,0:0:0:0:
256,192,284033,1,0,0:0:0:0:
256,192,284205,1,12,0:0:0:0:
256,192,284376,1,0,0:0:0:0:
256,192,284462,1,8,0:0:0:0:
256,192,284547,1,0,0:0:0:0:
256,192,284719,1,0,0:0:0:0:
256,192,284776,1,0,0:0:0:0:
256,192,284833,1,0,0:0:0:0:
256,192,284890,1,8,0:0:0:0:
256,192,285062,1,8,0:0:0:0:
256,192,285233,1,0,0:0:0:0:
256,192,285405,1,8,0:0:0:0:
256,192,285576,1,4,0:0:0:0:
256,192,285919,1,8,0:0:0:0:
256,192,286090,1,0,0:0:0:0:
256,192,286147,1,0,0:0:0:0:
256,192,286205,1,0,0:0:0:0:
256,192,286262,1,8,0:0:0:0:
256,192,286433,1,0,0:0:0:0:
256,192,286519,1,0,0:0:0:0:
256,192,286605,1,0,0:0:0:0:
256,192,286776,1,0,0:0:0:0:
256,192,286862,1,0,0:0:0:0:
256,192,286947,1,8,0:0:0:0:
256,192,287119,1,0,0:0:0:0:
256,192,287205,1,0,0:0:0:0:
256,192,287290,1,0,0:0:0:0:
256,192,287376,1,0,0:0:0:0:
256,192,287462,1,0,0:0:0:0:
256,192,287547,1,0,0:0:0:0:
256,192,287633,1,8,0:0:0:0:
256,192,287805,1,8,0:0:0:0:
256,192,287890,1,8,0:0:0:0:
256,192,287976,1,0,0:0:0:0:
256,192,288062,1,0,0:0:0:0:
256,192,288147,1,8,0:0:0:0:
256,192,288233,1,0,0:0:0:0:
256,192,288319,1,8,0:0:0:0:
256,192,288405,1,8,0:0:0:0:
256,192,288490,1,0,0:0:0:0:
256,192,288576,1,0,0:0:0:0:
256,192,288662,1,8,0:0:0:0:
256,192,288747,1,8,0:0:0:0:
256,192,288833,1,0,0:0:0:0:
256,192,289005,1,8,0:0:0:0:
256,192,289090,1,8,0:0:0:0:
256,192,289176,1,0,0:0:0:0:
256,192,289262,1,0,0:0:0:0:
256,192,289347,1,8,0:0:0:0:
256,192,289433,1,0,0:0:0:0:
256,192,289519,1,8,0:0:0:0:
256,192,289604,1,8,0:0:0:0:
256,192,289690,1,0,0:0:0:0:
256,192,289776,1,0,0:0:0:0:
256,192,289862,1,8,0:0:0:0:
256,192,289947,1,0,0:0:0:0:
256,192,290033,1,8,0:0:0:0:
256,192,290119,1,8,0:0:0:0:
256,192,290204,1,0,0:0:0:0:
256,192,290290,1,0,0:0:0:0:
256,192,290376,1,8,0:0:0:0:
256,192,290462,1,8,0:0:0:0:
256,192,290547,1,0,0:0:0:0:
256,192,290633,1,0,0:0:0:0:
256,192,290719,1,8,0:0:0:0:
256,192,290804,1,0,0:0:0:0:
256,192,290890,1,8,0:0:0:0:
256,192,290976,1,8,0:0:0:0:
256,192,291062,1,0,0:0:0:0:
256,192,291147,1,0,0:0:0:0:
256,192,291233,1,8,0:0:0:0:
256,192,291319,1,0,0:0:0:0:
256,192,291404,1,8,0:0:0:0:
256,192,291490,1,8,0:0:0:0:
256,192,291576,1,8,0:0:0:0:
256,192,291747,1,4,0:0:0:0:
256,192,291919,1,8,0:0:0:0:
256,192,292005,1,8,0:0:0:0:
256,192,292090,1,0,0:0:0:0:
256,192,292176,1,0,0:0:0:0:
256,192,292262,1,8,0:0:0:0:
256,192,292347,1,0,0:0:0:0:
256,192,292433,1,8,0:0:0:0:
256,192,292519,1,8,0:0:0:0:
256,192,292605,1,0,0:0:0:0:
256,192,292690,1,0,0:0:0:0:
256,192,292776,1,8,0:0:0:0:
256,192,292862,1,8,0:0:0:0:
256,192,292947,1,0,0:0:0:0:
256,192,293119,1,12,0:0:0:0:
256,192,293290,1,8,0:0:0:0:
256,192,293376,1,0,0:0:0:0:
256,192,293462,1,0,0:0:0:0:
256,192,293547,1,0,0:0:0:0:
256,192,293633,1,8,0:0:0:0:
256,192,293719,1,0,0:0:0:0:
256,192,293804,1,0,0:0:0:0:
256,192,293890,1,0,0:0:0:0:
256,192,293976,1,8,0:0:0:0:
256,192,294062,1,0,0:0:0:0:
256,192,294147,1,8,0:0:0:0:
256,192,294233,1,8,0:0:0:0:
256,192,294319,1,0,0:0:0:0:
256,192,294490,1,8,0:0:0:0:
256,192,294576,1,8,0:0:0:0:
256,192,294662,1,0,0:0:0:0:
256,192,294747,1,0,0:0:0:0:
256,192,294833,1,8,0:0:0:0:
256,192,294919,1,0,0:0:0:0:
256,192,295004,1,0,0:0:0:0:
256,192,295090,1,0,0:0:0:0:
256,192,295176,1,8,0:0:0:0:
256,192,295262,1,0,0:0:0:0:
256,192,295347,1,0,0:0:0:0:
256,192,295433,1,8,0:0:0:0:
256,192,295519,1,0,0:0:0:0:
256,192,295604,1,0,0:0:0:0:
256,192,295690,1,8,0:0:0:0:
256,192,295776,1,0,0:0:0:0:
256,192,295862,1,8,0:0:0:0:
256,192,295947,1,8,0:0:0:0:
256,192,296033,1,0,0:0:0:0:
256,192,296119,1,0,0:0:0:0:
256,192,296204,1,8,0:0:0:0:
256,192,296290,1,0,0:0:0:0:
256,192,296376,1,8,0:0:0:0:
256,192,296462,1,8,0:0:0:0:
256,192,296547,1,8,0:0:0:0:
256,192,296633,1,0,0:0:0:0:
256,192,296719,1,8,0:0:0:0:
256,192,296804,1,0,0:0:0:0:
256,192,296890,1,8,0:0:0:0:
256,192,296976,1,8,0:0:0:0:
256,192,297062,1,0,0:0:0:0:
256,192,297147,1,0,0:0:0:0:
256,192,297233,1,8,0:0:0:0:
256,192,297319,1,0,0:0:0:0:
256,192,297404,1,0,0:0:0:0:
256,192,297490,1,0,0:0:0:0:
256,192,297576,1,8,0:0:0:0:
256,192,297662,1,0,0:0:0:0:
256,192,297747,1,8,0:0:0:0:
256,192,297833,1,0,0:0:0:0:
256,192,297919,1,8,0:0:0:0:
256,192,298004,1,8,0:0:0:0:
256,192,298090,1,0,0:0:0:0:
256,192,298176,1,0,0:0:0:0:
256,192,298262,1,8,0:0:0:0:
256,192,298347,1,8,0:0:0:0:
256,192,298433,1,0,0:0:0:0:
256,192,298604,1,12,0:0:0:0:
256,192,298776,1,0,0:0:0:0:
256,192,298862,1,8,0:0:0:0:
256,192,298947,1,0,0:0:0:0:
256,192,299119,1,8,0:0:0:0:
256,192,299290,1,8,0:0:0:0:
256,192,299376,1,8,0:0:0:0:
256,192,299462,1,0,0:0:0:0:
256,192,299547,1,0,0:0:0:0:
256,192,299633,1,0,0:0:0:0:
256,192,299719,1,0,0:0:0:0:
256,192,299804,1,0,0:0:0:0:
256,192,299976,1,4,0:0:0:0:
256,192,300147,1,0,0:0:0:0:
256,192,300233,1,0,0:0:0:0:
256,192,300318,1,8,0:0:0:0:
256,192,300404,1,0,0:0:0:0:
256,192,300490,1,8,0:0:0:0:
256,192,300575,1,8,0:0:0:0:
256,192,300661,1,0,0:0:0:0:
256,192,300747,1,0,0:0:0:0:
256,192,300833,1,8,0:0:0:0:
256,192,300918,1,0,0:0:0:0:
256,192,301004,1,8,0:0:0:0:
256,192,301090,1,8,0:0:0:0:
256,192,301175,1,0,0:0:0:0:
256,192,301261,1,0,0:0:0:0:
256,192,301347,1,8,0:0:0:0:
256,192,301433,1,8,0:0:0:0:
256,192,301518,1,0,0:0:0:0:
256,192,301604,1,0,0:0:0:0:
256,192,301690,1,8,0:0:0:0:
256,192,301775,1,0,0:0:0:0:
256,192,301861,1,8,0:0:0:0:
256,192,301947,1,8,0:0:0:0:
256,192,302033,1,0,0:0:0:0:
256,192,302118,1,0,0:0:0:0:
256,192,302204,1,8,0:0:0:0:
256,192,302290,1,0,0:0:0:0:
256,192,302375,1,8,0:0:0:0:
256,192,302461,1,8,0:0:0:0:
256,192,302547,1,8,0:0:0:0:
256,192,302718,1,12,0:0:0:0:
256,192,302890,1,8,0:0:0:0:
256,192,302976,1,8,0:0:0:0:
256,192,303061,1,0,0:0:0:0:
256,192,303147,1,0,0:0:0:0:
256,192,303233,1,8,0:0:0:0:
256,192,303318,1,0,0:0:0:0:
256,192,303404,1,8,0:0:0:0:
256,192,303490,1,8,0:0:0:0:
256,192,303576,1,0,0:0:0:0:
256,192,303661,1,0,0:0:0:0:
256,192,303747,1,8,0:0:0:0:
256,192,303833,1,8,0:0:0:0:
256,192,303918,1,0,0:0:0:0:
256,192,304090,1,12,0:0:0:0:
256,192,304262,1,0,0:0:0:0:
256,192,304347,1,0,0:0:0:0:
256,192,304433,1,0,0:0:0:0:
256,192,304519,1,0,0:0:0:0:
256,192,304604,1,0,0:0:0:0:
256,192,304690,1,0,0:0:0:0:
256,192,304776,1,0,0:0:0:0:
256,192,304947,1,0,0:0:0:0:
256,192,305119,1,12,0:0:0:0:
256,192,305290,1,0,0:0:0:0:
256,192,305462,1,4,0:0:0:0:
256,192,305976,1,0,0:0:0:0:
256,192,306147,1,12,0:0:0:0:
256,192,306490,1,4,0:0:0:0:
256,192,306662,1,0,0:0:0:0:
256,192,306719,1,0,0:0:0:0:
256,192,306776,1,0,0:0:0:0:
256,192,306833,1,8,0:0:0:0:
256,192,307004,1,8,0:0:0:0:
256,192,307176,1,0,0:0:0:0:
256,192,307347,1,8,0:0:0:0:
256,192,307519,1,4,0:0:0:0:
256,192,307862,1,8,0:0:0:0:
256,192,308033,1,0,0:0:0:0:
256,192,308090,1,0,0:0:0:0:
256,192,308147,1,0,0:0:0:0:
256,192,308204,1,8,0:0:0:0:
256,192,308376,1,0,0:0:0:0:
256,192,308462,1,0,0:0:0:0:
256,192,308547,1,0,0:0:0:0:
256,192,308719,1,0,0:0:0:0:
256,192,308804,1,0,0:0:0:0:
256,192,308890,1,8,0:0:0:0:
256,192,309062,1,0,0:0:0:0:
256,192,309147,1,0,0:0:0:0:
256,192,309233,1,0,0:0:0:0:
256,192,309319,1,0,0:0:0:0:
256,192,309404,1,0,0:0:0:0:
256,192,309576,1,12,0:0:0:0:
256,192,310604,1,8,0:0:0:0:
256,192,310690,1,0,0:0:0:0:
256,192,310776,1,8,0:0:0:0:
256,192,310862,1,8,0:0:0:0:
256,192,310947,1,0,0:0:0:0:
256,192,311462,1,8,0:0:0:0:
256,192,311547,1,8,0:0:0:0:
256,192,311633,1,0,0:0:0:0:
256,192,311805,1,0,0:0:0:0:
256,192,311976,1,0,0:0:0:0:
256,192,312148,1,0,0:0:0:0:
256,192,312319,1,12,0:0:0:0:
256,192,312833,1,8,0:0:0:0:
256,192,312919,1,8,0:0:0:0:
256,192,313005,1,8,0:0:0:0:
256,192,313176,1,0,0:0:0:0:
256,192,313262,1,0,0:0:0:0:
256,192,313348,1,0,0:0:0:0:
256,192,313433,1,0,0:0:0:0:
256,192,313519,1,0,0:0:0:0:
256,192,313690,1,4,0:0:0:0:
256,192,314205,1,8,0:0:0:0:
256,192,314290,1,8,0:0:0:0:
256,192,314376,1,0,0:0:0:0:
256,192,314462,1,0,0:0:0:0:
256,192,314548,1,0,0:0:0:0:
256,192,314719,1,8,0:0:0:0:
256,192,314890,1,0,0:0:0:0:
256,192,315062,1,12,0:0:0:0:
256,192,315576,1,8,0:0:0:0:
256,192,315662,1,0,0:0:0:0:
256,192,315748,1,8,0:0:0:0:
256,192,315919,1,8,0:0:0:0:
256,192,316090,1,0,0:0:0:0:
256,192,316176,1,0,0:0:0:0:
256,192,316262,1,0,0:0:0:0:
256,192,316433,1,4,0:0:0:0:
256,192,316776,1,0,0:0:0:0:
256,192,316947,1,8,0:0:0:0:
256,192,317119,1,0,0:0:0:0:
256,192,317462,1,8,0:0:0:0:
256,192,317805,1,0,0:0:0:0:
256,192,318062,1,8,0:0:0:0:
256,192,318148,1,0,0:0:0:0:
256,192,318319,1,8,0:0:0:0:
256,192,318490,1,8,0:0:0:0:
256,192,318833,1,0,0:0:0:0:
256,192,318919,1,0,0:0:0:0:
256,192,319005,1,0,0:0:0:0:
256,192,319090,1,0,0:0:0:0:
256,192,319176,1,8,0:0:0:0:
256,192,319348,1,0,0:0:0:0:
256,192,319433,1,0,0:0:0:0:
256,192,319519,1,0,0:0:0:0:
256,192,319605,1,0,0:0:0:0:
256,192,319690,1,8,0:0:0:0:
256,192,319862,1,8,0:0:0:0:
256,192,320033,1,8,0:0:0:0:
256,192,320119,1,8,0:0:0:0:
256,192,320205,1,0,0:0:0:0:
256,192,320290,1,0,0:0:0:0:
256,192,320376,1,8,0:0:0:0:
256,192,320548,1,12,0:0:0:0:
256,192,320719,1,0,0:0:0:0:
256,192,320805,1,0,0:0:0:0:
256,192,320890,1,8,0:0:0:0:
256,192,320976,1,8,0:0:0:0:
256,192,321062,1,0,0:0:0:0:
256,192,321148,1,0,0:0:0:0:
256,192,321233,1,8,0:0:0:0:
256,192,321319,1,8,0:0:0:0:
256,192,321405,1,0,0:0:0:0:
256,192,321490,1,0,0:0:0:0:
256,192,321576,1,8,0:0:0:0:
256,192,321662,1,8,0:0:0:0:
256,192,321748,1,8,0:0:0:0:
256,192,321833,1,8,0:0:0:0:
256,192,321919,1,0,0:0:0:0:
256,192,322090,1,8,0:0:0:0:
256,192,322176,1,0,0:0:0:0:
256,192,322262,1,0,0:0:0:0:
256,192,322348,1,0,0:0:0:0:
256,192,322433,1,8,0:0:0:0:
256,192,322519,1,0,0:0:0:0:
256,192,322605,1,0,0:0:0:0:
256,192,322690,1,0,0:0:0:0:
256,192,322776,1,8,0:0:0:0:
256,192,322862,1,0,0:0:0:0:
256,192,322948,1,8,0:0:0:0:
256,192,323033,1,8,0:0:0:0:
256,192,323119,1,0,0:0:0:0:
256,192,323290,1,12,0:0:0:0:
256,192,323462,1,8,0:0:0:0:
256,192,323548,1,0,0:0:0:0:
256,192,323633,1,0,0:0:0:0:
256,192,323719,1,0,0:0:0:0:
256,192,323805,1,8,0:0:0:0:
256,192,323890,1,0,0:0:0:0:
256,192,323976,1,8,0:0:0:0:
256,192,324062,1,0,0:0:0:0:
256,192,324148,1,8,0:0:0:0:
256,192,324233,1,8,0:0:0:0:
256,192,324319,1,0,0:0:0:0:
256,192,324405,1,0,0:0:0:0:
256,192,324490,1,8,0:0:0:0:
256,192,324662,1,0,0:0:0:0:
256,192,324748,1,0,0:0:0:0:
256,192,324833,1,8,0:0:0:0:
256,192,324919,1,0,0:0:0:0:
256,192,325005,1,0,0:0:0:0:
256,192,325090,1,0,0:0:0:0:
256,192,325176,1,8,0:0:0:0:
256,192,325262,1,0,0:0:0:0:
256,192,325348,1,0,0:0:0:0:
256,192,325433,1,0,0:0:0:0:
256,192,325519,1,8,0:0:0:0:
256,192,325605,1,0,0:0:0:0:
256,192,325690,1,8,0:0:0:0:
256,192,325776,1,8,0:0:0:0:
256,192,325862,1,0,0:0:0:0:
256,192,326033,1,12,0:0:0:0:
256,192,326205,1,8,0:0:0:0:
256,192,326290,1,8,0:0:0:0:
256,192,326376,1,0,0:0:0:0:
256,192,326462,1,0,0:0:0:0:
256,192,326548,1,8,0:0:0:0:
256,192,326633,1,0,0:0:0:0:
256,192,326719,1,8,0:0:0:0:
256,192,326805,1,8,0:0:0:0:
256,192,326890,1,0,0:0:0:0:
256,192,326976,1,0,0:0:0:0:
256,192,327062,1,8,0:0:0:0:
256,192,327148,1,0,0:0:0:0:
256,192,327233,1,8,0:0:0:0:
256,192,327405,1,0,0:0:0:0:
256,192,327490,1,0,0:0:0:0:
256,192,327576,1,8,0:0:0:0:
256,192,327662,1,0,0:0:0:0:
256,192,327748,1,0,0:0:0:0:
256,192,327833,1,0,0:0:0:0:
256,192,327919,1,8,0:0:0:0:
256,192,328005,1,0,0:0:0:0:
256,192,328090,1,8,0:0:0:0:
256,192,328176,1,8,0:0:0:0:
256,192,328262,1,0,0:0:0:0:
256,192,328348,1,0,0:0:0:0:
256,192,328433,1,8,0:0:0:0:
256,192,328519,1,8,0:0:0:0:
256,192,328605,1,0,0:0:0:0:
256,192,328690,1,0,0:0:0:0:
256,192,328776,1,8,0:0:0:0:
256,192,328862,1,0,0:0:0:0:
256,192,328948,1,0,0:0:0:0:
256,192,329033,1,8,0:0:0:0:
256,192,329119,1,0,0:0:0:0:
256,192,329204,1,0,0:0:0:0:
256,192,329290,1,8,0:0:0:0:
256,192,329376,1,0,0:0:0:0:
256,192,329462,1,8,0:0:0:0:
256,192,329548,1,8,0:0:0:0:
256,192,329633,1,0,0:0:0:0:
256,192,329719,1,0,0:0:0:0:
256,192,329805,1,8,0:0:0:0:
256,192,329890,1,0,0:0:0:0:
256,192,329976,1,8,0:0:0:0:
256,192,330148,1,4,0:0:0:0:
256,192,330319,1,8,0:0:0:0:
256,192,330405,1,0,0:0:0:0:
256,192,330490,1,0,0:0:0:0:
256,192,330576,1,0,0:0:0:0:
256,192,330662,1,8,0:0:0:0:
256,192,330747,1,0,0:0:0:0:
256,192,330833,1,8,0:0:0:0:
256,192,330919,1,0,0:0:0:0:
256,192,331005,1,0,0:0:0:0:
256,192,331090,1,8,0:0:0:0:
256,192,331176,1,0,0:0:0:0:
256,192,331262,1,0,0:0:0:0:
256,192,331348,1,8,0:0:0:0:
256,192,331519,1,12,0:0:0:0:
256,192,331690,1,0,0:0:0:0:
256,192,331776,1,0,0:0:0:0:
256,192,331862,1,0,0:0:0:0:
256,192,331948,1,0,0:0:0:0:
256,192,332033,1,8,0:0:0:0:
256,192,332119,1,8,0:0:0:0:
256,192,332205,1,8,0:0:0:0:
256,192,332290,1,8,0:0:0:0:
256,192,332376,1,0,0:0:0:0:
256,192,332462,1,0,0:0:0:0:
256,192,332548,1,8,0:0:0:0:
256,192,332890,1,8,0:0:0:0:
256,192,332976,1,0,0:0:0:0:
256,192,333062,1,8,0:0:0:0:
256,192,333147,1,0,0:0:0:0:
256,192,333233,1,0,0:0:0:0:
256,192,333319,1,0,0:0:0:0:
256,192,333404,1,8,0:0:0:0:
256,192,333490,1,0,0:0:0:0:
256,192,333576,1,0,0:0:0:0:
256,192,333662,1,0,0:0:0:0:
256,192,333747,1,8,0:0:0:0:
256,192,333833,1,0,0:0:0:0:
256,192,333919,1,0,0:0:0:0:
256,192,334004,1,0,0:0:0:0:
256,192,334090,1,8,0:0:0:0:
256,192,334176,1,8,0:0:0:0:
256,192,334262,1,0,0:0:0:0:
256,192,334347,1,0,0:0:0:0:
256,192,334433,1,8,0:0:0:0:
256,192,334519,1,0,0:0:0:0:
256,192,334604,1,0,0:0:0:0:
256,192,334690,1,0,0:0:0:0:
256,192,334776,1,8,0:0:0:0:
256,192,334862,1,0,0:0:0:0:
256,192,334947,1,0,0:0:0:0:
256,192,335033,1,0,0:0:0:0:
256,192,335119,1,8,0:0:0:0:
256,192,335204,1,8,0:0:0:0:
256,192,335290,1,0,0:0:0:0:
256,192,335376,1,0,0:0:0:0:
256,192,335462,1,8,0:0:0:0:
256,192,335547,1,0,0:0:0:0:
256,192,335633,1,8,0:0:0:0:
256,192,335719,1,0,0:0:0:0:
256,192,335804,1,8,0:0:0:0:
256,192,335890,1,0,0:0:0:0:
256,192,335976,1,0,0:0:0:0:
256,192,336062,1,0,0:0:0:0:
256,192,336147,1,8,0:0:0:0:
256,192,336233,1,0,0:0:0:0:
256,192,336319,1,0,0:0:0:0:
256,192,336404,1,0,0:0:0:0:
256,192,336490,1,8,0:0:0:0:
256,192,336576,1,0,0:0:0:0:
256,192,336662,1,0,0:0:0:0:
256,192,336747,1,0,0:0:0:0:
256,192,336833,1,8,0:0:0:0:
256,192,336919,1,8,0:0:0:0:
256,192,337004,1,0,0:0:0:0:
256,192,337090,1,0,0:0:0:0:
256,192,337176,1,8,0:0:0:0:
256,192,337262,1,0,0:0:0:0:
256,192,337347,1,0,0:0:0:0:
256,192,337433,1,0,0:0:0:0:
256,192,337519,1,8,0:0:0:0:
256,192,337604,1,0,0:0:0:0:
256,192,337690,1,0,0:0:0:0:
256,192,337776,1,0,0:0:0:0:
256,192,337862,1,8,0:0:0:0:
256,192,337947,1,0,0:0:0:0:
256,192,338033,1,8,0:0:0:0:
256,192,338119,1,0,0:0:0:0:
256,192,338204,1,8,0:0:0:0:
256,192,338290,1,8,0:0:0:0:
256,192,338376,1,8,0:0:0:0:
256,192,338462,1,0,0:0:0:0:
256,192,338547,1,8,0:0:0:0:
256,192,338633,1,0,0:0:0:0:
256,192,338719,1,0,0:0:0:0:
256,192,338804,1,0,0:0:0:0:
256,192,338890,1,8,0:0:0:0:
256,192,338976,1,0,0:0:0:0:
256,192,339062,1,0,0:0:0:0:
256,192,339147,1,0,0:0:0:0:
256,192,339233,1,8,0:0:0:0:
256,192,339319,1,0,0:0:0:0:
256,192,339404,1,0,0:0:0:0:
256,192,339490,1,0,0:0:0:0:
256,192,339576,1,8,0:0:0:0:
256,192,339662,1,8,0:0:0:0:
256,192,339747,1,0,0:0:0:0:
256,192,339833,1,0,0:0:0:0:
256,192,339919,1,8,0:0:0:0:
256,192,340004,1,0,0:0:0:0:
256,192,340090,1,0,0:0:0:0:
256,192,340176,1,0,0:0:0:0:
256,192,340262,1,8,0:0:0:0:
256,192,340347,1,0,0:0:0:0:
256,192,340433,1,0,0:0:0:0:
256,192,340519,1,0,0:0:0:0:
256,192,340604,1,8,0:0:0:0:
256,192,340690,1,0,0:0:0:0:
256,192,340776,1,8,0:0:0:0:
256,192,340862,1,8,0:0:0:0:
256,192,340947,1,0,0:0:0:0:
256,192,341033,1,8,0:0:0:0:
256,192,341119,1,8,0:0:0:0:
256,192,341204,1,0,0:0:0:0:
256,192,341290,1,8,0:0:0:0:
256,192,341376,1,0,0:0:0:0:
256,192,341462,1,0,0:0:0:0:
256,192,341547,1,0,0:0:0:0:
256,192,341633,1,8,0:0:0:0:
256,192,341719,1,0,0:0:0:0:
256,192,341804,1,0,0:0:0:0:
256,192,341890,1,0,0:0:0:0:
256,192,341976,1,8,0:0:0:0:
256,192,342062,1,0,0:0:0:0:
256,192,342147,1,0,0:0:0:0:
256,192,342233,1,0,0:0:0:0:
256,192,342319,1,8,0:0:0:0:
256,192,342404,1,8,0:0:0:0:
256,192,342490,1,0,0:0:0:0:
256,192,342576,1,0,0:0:0:0:
256,192,342662,1,8,0:0:0:0:
256,192,342747,1,0,0:0:0:0:
256,192,342833,1,0,0:0:0:0:
256,192,342919,1,0,0:0:0:0:
256,192,343004,1,8,0:0:0:0:
256,192,343090,1,0,0:0:0:0:
256,192,343176,1,0,0:0:0:0:
256,192,343262,1,0,0:0:0:0:
256,192,343347,1,8,0:0:0:0:
256,192,343433,1,8,0:0:0:0:
256,192,343519,1,0,0:0:0:0:
256,192,343604,1,0,0:0:0:0:
256,192,343690,1,8,0:0:0:0:
256,192,343862,1,12,0:0:0:0:
256,192,344547,1,4,0:0:0:0:
256,192,345233,1,12,0:0:0:0:
256,192,345747,1,8,0:0:0:0:
256,192,345833,1,0,0:0:0:0:
256,192,345919,1,8,0:0:0:0:
256,192,346176,1,8,0:0:0:0:
256,192,346433,1,8,0:0:0:0:
256,192,346604,1,4,0:0:0:0:
256,192,347976,1,8,0:0:0:0:
256,192,348062,1,8,0:0:0:0:
256,192,348147,1,8,0:0:0:0:
256,192,348233,1,8,0:0:0:0:
256,192,348319,1,0,0:0:0:0:
256,192,348490,1,0,0:0:0:0:
256,192,348576,1,0,0:0:0:0:
256,192,348662,1,8,0:0:0:0:
256,192,348747,1,8,0:0:0:0:
256,192,348833,1,0,0:0:0:0:
256,192,348919,1,0,0:0:0:0:
256,192,349004,1,8,0:0:0:0:
256,192,349347,1,8,0:0:0:0:
256,192,349433,1,8,0:0:0:0:
256,192,349519,1,0,0:0:0:0:
256,192,349604,1,0,0:0:0:0:
256,192,349690,1,8,0:0:0:0:
256,192,349862,1,12,0:0:0:0:
256,192,350204,1,0,0:0:0:0:
256,192,350290,1,0,0:0:0:0:
256,192,350376,1,0,0:0:0:0:
256,192,350547,1,12,0:0:0:0:
256,192,350890,1,4,0:0:0:0:
256,192,351233,1,4,0:0:0:0:
256,192,351404,1,12,0:0:0:0:
256,192,351662,1,4,0:0:0:0:
256,192,351919,1,4,0:0:0:0:
256,192,352090,1,12,0:0:0:0:
256,192,352262,1,12,0:0:0:0:
256,192,352433,1,4,0:0:0:0:
256,192,352604,1,12,0:0:0:0:
256,192,352776,1,0,0:0:0:0:
256,192,352862,1,0,0:0:0:0:
256,192,352947,1,8,0:0:0:0:
256,192,353033,1,8,0:0:0:0:
256,192,353119,1,0,0:0:0:0:
256,192,353290,1,12,0:0:0:0:
256,192,353462,8,0,355519,0:0:0:0:
