osu file format v14

[General]
AudioFilename: No title -XFD- .mp3
AudioLeadIn: 0
PreviewTime: -1
Countdown: 0
SampleSet: Normal
StackLeniency: 0.7
Mode: 3
LetterboxInBreaks: 0
SpecialStyle: 0
WidescreenStoryboard: 1

[Editor]
DistanceSpacing: 1
BeatDivisor: 4
GridSize: 4
TimelineZoom: 4.399997

[Metadata]
Title:No title -XFD-
TitleUnicode:No title -XFD-
Artist:Reol feat. Giga & nqrse
ArtistUnicode:れをる feat. ギガ & nqrse
Creator:Zillah
Version:ZV
Source:No title +/-
Tags:
BeatmapID:633219
BeatmapSetID:277595

[Difficulty]
HPDrainRate:7.5
CircleSize:7
OverallDifficulty:7
ApproachRate:5
SliderMultiplier:1.4
SliderTickRate:4

[Events]
//Background and Video events
0,0,"92A.jpg",0,0
Video,0,"No title -XFD-.flv"
//Break Periods
2,289971,294849
//Storyboard Layer 0 (Background)
//Storyboard Layer 1 (Fail)
//Storyboard Layer 2 (Pass)
//Storyboard Layer 3 (Foreground)
//Storyboard Sound Samples

[TimingPoints]
1823.51911406221,447.761194029851,3,1,0,10,1,0
1923.51911406221,-70.5716302046577,3,1,0,10,0,0
2023.51911406221,-46.9483568075117,3,1,0,10,0,0
7308,-140.845070422535,3,1,0,10,0,0
7420,-46.9483568075117,3,1,0,10,0,0
7532,-140.845070422535,3,1,0,10,0,0
7644,-46.9483568075117,3,1,0,10,0,0
7756,-140.845070422535,3,1,0,10,0,0
7868,-46.9483568075117,3,1,0,10,0,0
7980,-140.845070422535,3,1,0,10,0,0
8092,-46.9483568075117,3,1,0,10,0,0
8204,-140.845070422535,3,1,0,10,0,0
8316,-46.9483568075117,3,1,0,10,0,0
8427,-140.845070422535,3,1,0,10,0,0
8539,-46.9483568075117,3,1,0,10,0,0
8651,-140.845070422535,3,1,0,10,0,0
8763,-46.9483568075117,3,1,0,10,0,0
8875,-140.845070422535,3,1,0,10,0,0
8987,-46.9483568075117,3,1,0,10,0,0
9211,-93.8967136150235,3,1,0,10,0,0
9323,-281.69014084507,3,1,0,10,0,0
9435,-46.9483568075117,3,1,0,10,0,0
9659,-140.845070422535,3,1,0,10,0,0
9771,-281.69014084507,3,1,0,10,0,0
9883,-46.9483568075117,3,1,0,10,0,0
10107,-140.845070422535,3,1,0,10,0,0
10219,-281.69014084507,3,1,0,10,0,0
10330,-46.9483568075117,3,1,0,10,0,0
10554,-140.845070422535,3,1,0,10,0,0
10666,-281.69014084507,3,1,0,10,0,0
10778,-46.9483568075117,3,1,0,10,0,0
11002,-140.845070422535,3,1,0,10,0,0
11114,-281.69014084507,3,1,0,10,0,0
11226,-46.9483568075117,3,1,0,10,0,0
11450,-140.845070422535,3,1,0,10,0,0
11562,-281.69014084507,3,1,0,10,0,0
11674,-46.9483568075117,3,1,0,10,0,0
11786,-140.845070422535,3,1,0,10,0,0
11898,-46.9483568075117,3,1,0,10,0,0
12010,-140.845070422535,3,1,0,10,0,0
12122,-46.9483568075117,3,1,0,10,0,0
12233,-140.845070422535,3,1,0,10,0,0
12345,-46.9483568075117,3,1,0,10,0,0
12457,-140.845070422535,3,1,0,10,0,0
12569,-46.9483568075117,3,1,0,10,0,0
12793,-140.845070422535,3,1,0,10,0,0
12905,-277.777777777778,3,1,0,10,0,0
13017,-46.7289719626168,3,1,0,10,0,0
13241,-140.845070422535,3,1,0,10,0,0
13353,-277.777777777778,3,1,0,10,0,0
13465,-46.7289719626168,3,1,0,10,0,0
13689,-140.845070422535,3,1,0,10,0,0
13801,-277.777777777778,3,1,0,10,0,0
13913,-70.4225352112676,3,1,0,10,0,0
14080,-46.7289719626168,3,1,0,10,0,0
14136,-140.845070422535,3,1,0,10,0,0
14192,-46.7289719626168,3,1,0,10,0,0
14248,-140.845070422535,3,1,0,10,0,0
14304,-46.7289719626168,3,1,0,10,0,0
14360,-70.4225352112676,3,1,0,10,0,0
14388,-70.4225352112676,3,1,0,10,0,0
20629,-10,3,1,0,10,0,0
21301,-200,3,1,0,10,0,0
21413,-400,3,1,0,10,0,0
21525,-1000,3,1,0,10,0,0
21580,-73.5294117647059,3,1,0,10,0,0
21869,428.571428571429,4,1,0,10,1,0
21969,-73.6919675755343,4,1,0,10,0,0
27226,-49.0196078431373,4,1,0,10,0,0
27333,-147.058823529412,4,1,0,10,0,0
27440,-73.5294117647059,4,1,0,10,0,0
27654,-49.0196078431373,4,1,0,10,0,0
27761,-147.058823529412,4,1,0,10,0,0
27869,-147.058823529412,4,1,0,10,0,0
28297,-73.5294117647059,4,1,0,10,0,0
28998,428.571428571429,4,1,0,10,1,0
29098,-73.6919675755343,4,1,0,10,0,0
58140,447.761194029851,4,1,0,10,1,0
58140,-10,4,1,0,10,0,0
58240,-70.5716302046577,4,1,0,10,0,0
58587,-1000,4,1,0,10,0,0
58699,-70.4225352112676,4,1,0,10,0,0
61050,-46.9483568075117,4,1,0,10,0,0
61162,-140.845070422535,4,1,0,10,0,0
61274,-70.4225352112676,4,1,0,10,0,0
62841,-46.9483568075117,4,1,0,10,0,0
62953,-140.845070422535,4,1,0,10,0,0
63065,-70.4225352112676,4,1,0,10,0,0
64632,-46.9483568075117,4,1,0,10,0,0
64744,-140.845070422535,4,1,0,10,0,0
64856,-70.4225352112676,4,1,0,10,0,0
67095,-1000,4,1,0,10,0,0
67319,-133.333333333333,4,1,0,10,0,0
67431,-50,4,1,0,10,0,0
67654,-133.333333333333,4,1,0,10,0,0
67766,447.761194029851,4,1,0,10,1,0
67766,-70.5716302046577,4,1,0,10,0,0
71124,-46.9483568075117,4,1,0,10,0,0
71236,-140.845070422535,4,1,0,10,0,0
71348,-70.4225352112676,4,1,0,10,0,0
72915,-46.9483568075117,4,1,0,10,0,0
73027,-140.845070422535,4,1,0,10,0,0
73139,-70.4225352112676,4,1,0,10,0,0
74706,-46.9483568075117,4,1,0,10,0,0
74818,-140.845070422535,4,1,0,10,0,0
74930,-70.4225352112676,4,1,0,10,0,0
84808,461.538461538462,4,1,0,10,1,0
84908,-68.4462696783025,4,1,0,10,0,0
85961,-45.662100456621,4,1,0,10,0,0
86077,-91.324200913242,4,1,0,10,0,0
86134,-273.972602739726,4,1,0,10,0,0
86192,-45.662100456621,4,1,0,10,0,0
86308,-90.9090909090909,4,1,0,10,0,0
86365,-273.972602739726,4,1,0,10,0,0
86423,-45.662100456621,4,1,0,10,0,0
86538,-90.9090909090909,4,1,0,10,0,0
86596,-273.972602739726,4,1,0,10,0,0
86654,-68.4931506849315,4,1,0,10,0,0
89153,461.538461538462,4,1,0,10,1,0
89253,-68.4462696783025,4,1,0,10,0,0
90744,461.538461538462,4,1,0,10,1,0
90744,-45.662100456621,4,1,0,10,0,0
90974,-90.9090909090909,4,1,0,10,0,0
91090,-273.972602739726,4,1,0,10,0,0
91205,-45.662100456621,4,1,0,10,0,0
91436,-91.324200913242,4,1,0,10,0,0
91551,-273.972602739726,4,1,0,10,0,0
91667,-45.662100456621,4,1,0,10,0,0
91897,-91.324200913242,4,1,0,10,0,0
92013,-270.27027027027,4,1,0,10,0,0
92128,-45.662100456621,4,1,0,10,0,0
92359,-91.324200913242,4,1,0,10,0,0
92474,-270.27027027027,4,1,0,10,0,0
92590,-68.4931506849315,4,1,0,10,0,0
98820,-45.662100456621,4,1,0,10,0,0
98936,-136.986301369863,4,1,0,10,0,0
99051,-45.662100456621,4,1,0,10,0,0
99167,-136.986301369863,4,1,0,10,0,0
99282,-45.662100456621,4,1,0,10,0,0
99397,-136.986301369863,4,1,0,10,0,0
99513,-45.662100456621,4,1,0,10,0,0
99744,-91.324200913242,4,1,0,10,0,0
99859,-270.27027027027,4,1,0,10,0,0
99974,-68.4931506849315,4,1,0,10,0,0
124068,600,5,1,0,10,1,0
124090,-10,5,1,0,10,0,0
124168,-52.6315789473684,5,1,0,10,0,0
124368,-105.263157894737,5,1,0,10,0,0
124668,-52.6315789473684,5,1,0,10,0,0
145353,600,4,1,0,10,1,0
145453,-52.6315789473684,4,1,0,10,0,0
184953,-10,4,1,0,10,0,0
185403,-138.888888888889,4,1,0,10,0,0
185822,454.545454545455,4,1,0,10,1,0
185822,-69.4444444444444,4,1,0,10,0,0
222185,-10,4,1,0,10,0,0
222640,-126.582278481013,4,1,0,10,0,0
223037,500,4,1,0,10,1,0
223037,-63.1711939355654,4,1,0,10,0,0
232443,500,4,1,0,10,1,0
232443,-133.333333333333,4,1,0,10,0,0
232693,-33.3333333333333,4,1,0,10,0,0
232943,-133.333333333333,4,1,0,10,0,0
233005,-400,4,1,0,10,0,0
233068,-63.2911392405063,4,1,0,10,0,0
234148,333.333333333333,4,1,0,10,1,0
234148,-94.7867298578199,4,1,0,10,0,0
248814,-66.6666666666667,4,1,0,10,0,0
248981,-100,4,1,0,10,0,0
249147,-133.333333333333,4,1,0,10,0,0
249314,-100,4,1,0,10,0,0
249481,-94.3396226415094,4,1,0,10,0,0
249647,-66.6666666666667,4,1,0,10,0,0
249759,-94.3396226415094,4,1,0,10,0,0
249870,-200,4,1,0,10,0,0
249981,-94.3396226415094,4,1,0,10,0,0
250092,-66.6666666666667,4,1,0,10,0,0
250147,-94.3396226415094,4,1,0,10,0,0
251481,-94.3396226415094,4,1,0,10,0,0
251502,333.333333333333,5,1,0,10,1,0
251502,-94.7867298578199,4,1,0,10,0,0
251557,-10,4,1,0,10,0,0
252168,-188.679245283019,4,1,0,10,0,0
252502,333.333333333333,4,1,0,10,1,0
252502,-94.7867298578199,4,1,0,10,0,0
257835,333.333333333333,4,1,0,10,1,0
257935,-94.7867298578199,4,1,0,10,0,0
258465,326.530612244898,4,1,0,10,1,0
258565,-96.7117988394584,4,1,0,10,0,0
284403,315.789473684211,4,1,0,10,1,0
295810,-50,4,1,0,10,0,0
295968,-1000,4,1,0,10,0,0
296049,315.789473684211,4,1,0,10,1,0
296049,-66.6666666666667,4,1,0,10,0,0
296206,-100,4,1,0,10,0,0
296364,-66.6666666666667,4,1,0,10,0,0
296443,-200,4,1,0,10,0,0
296522,-66.6666666666667,4,1,0,10,0,0
296601,-200,4,1,0,10,0,0
296680,-66.6666666666667,4,1,0,10,0,0
296759,-200,4,1,0,10,0,0
296838,-66.6666666666667,4,1,0,10,0,0
296917,-200,4,1,0,10,0,0
296996,-66.6666666666667,4,1,0,10,0,0
297154,-200,4,1,0,10,0,0
297233,-100,4,1,0,10,0,0
297312,-50,4,1,0,10,0,0
297785,-1000,4,1,0,10,0,0
297943,-50,4,1,0,10,0,0
298417,-1000,4,1,0,10,0,0
298575,-50,4,1,0,10,0,0
299049,-1000,4,1,0,10,0,0
299206,-66.6666666666667,4,1,0,10,0,0
299285,-200,4,1,0,10,0,0
299364,-66.6666666666667,4,1,0,10,0,0
299443,-200,4,1,0,10,0,0
299522,-66.6666666666667,4,1,0,10,0,0
299680,-133.333333333333,4,1,0,10,0,0
299759,-400,4,1,0,10,0,0
299838,-66.6666666666667,4,1,0,10,0,0
299996,-133.333333333333,4,1,0,10,0,0
300075,-400,4,1,0,10,0,0
300153,-100,4,1,0,10,0,0
306627,-66.6666666666667,4,1,0,10,0,0
306706,-200,4,1,0,10,0,0
306785,-66.6666666666667,4,1,0,10,0,0
306864,-200,4,1,0,10,0,0
306943,-66.6666666666667,4,1,0,10,0,0
307022,-200,4,1,0,10,0,0
307101,-100,4,1,0,10,0,0
321943,-66.6666666666667,4,1,0,10,0,0
322259,-100,4,1,0,10,0,0

[HitObjects]
36,192,7196,128,0,7420:0:0:0:0:
256,192,7196,1,0,0:0:0:0:
109,192,7196,1,0,0:0:0:0:
182,192,7196,128,0,7420:0:0:0:0:
475,192,7420,128,0,7644:0:0:0:0:
402,192,7420,1,0,0:0:0:0:
329,192,7420,128,0,7644:0:0:0:0:
256,192,7420,1,0,0:0:0:0:
109,192,7644,128,0,7868:0:0:0:0:
36,192,7644,1,0,0:0:0:0:
182,192,7644,1,0,0:0:0:0:
256,192,7644,1,0,0:0:0:0:
402,192,7868,128,0,8092:0:0:0:0:
475,192,7868,1,0,0:0:0:0:
329,192,7868,1,0,0:0:0:0:
256,192,7868,1,0,0:0:0:0:
329,192,8092,1,0,0:0:0:0:
36,192,8092,128,0,8316:0:0:0:0:
256,192,8092,128,0,8316:0:0:0:0:
329,192,8316,128,0,8539:0:0:0:0:
402,192,8316,1,0,0:0:0:0:
256,192,8539,128,0,8763:0:0:0:0:
475,192,8539,1,0,0:0:0:0:
402,192,8539,1,0,0:0:0:0:
182,192,8539,1,0,0:0:0:0:
182,192,8763,128,0,8987:0:0:0:0:
109,192,8763,1,0,0:0:0:0:
329,192,8763,1,0,0:0:0:0:
329,192,8987,1,0,0:0:0:0:
36,192,8987,1,0,0:0:0:0:
475,192,8987,1,0,0:0:0:0:
402,192,8987,1,0,0:0:0:0:
36,192,9435,1,0,0:0:0:0:
109,192,9435,1,0,0:0:0:0:
256,192,9435,1,0,0:0:0:0:
182,192,9435,1,0,0:0:0:0:
402,192,9435,1,0,0:0:0:0:
329,192,9883,1,0,0:0:0:0:
36,192,9883,1,0,0:0:0:0:
182,192,9883,1,0,0:0:0:0:
475,192,9883,1,0,0:0:0:0:
109,192,9883,1,0,0:0:0:0:
256,192,10330,1,0,0:0:0:0:
109,192,10330,1,0,0:0:0:0:
402,192,10330,1,0,0:0:0:0:
475,192,10330,1,0,0:0:0:0:
36,192,10330,1,0,0:0:0:0:
256,192,10778,1,0,0:0:0:0:
109,192,10778,1,0,0:0:0:0:
329,192,10778,1,0,0:0:0:0:
402,192,10778,1,0,0:0:0:0:
475,192,10778,1,0,0:0:0:0:
36,192,11226,1,0,0:0:0:0:
109,192,11226,1,0,0:0:0:0:
256,192,11226,1,0,0:0:0:0:
475,192,11226,1,0,0:0:0:0:
402,192,11226,1,0,0:0:0:0:
329,192,11674,1,0,0:0:0:0:
36,192,11674,128,0,11898:0:0:0:0:
182,192,11674,1,0,0:0:0:0:
256,192,11674,1,0,0:0:0:0:
402,192,11674,1,0,0:0:0:0:
475,192,11674,1,0,0:0:0:0:
329,192,11898,1,0,0:0:0:0:
109,192,11898,128,0,12122:0:0:0:0:
256,192,11898,1,0,0:0:0:0:
402,192,11898,1,0,0:0:0:0:
475,192,11898,1,0,0:0:0:0:
329,192,12122,1,0,0:0:0:0:
182,192,12122,128,0,12345:0:0:0:0:
36,192,12122,1,0,0:0:0:0:
402,192,12122,1,0,0:0:0:0:
475,192,12122,1,0,0:0:0:0:
256,192,12345,128,0,12569:0:0:0:0:
36,192,12345,1,0,0:0:0:0:
109,192,12345,1,0,0:0:0:0:
402,192,12345,1,0,0:0:0:0:
475,192,12345,1,0,0:0:0:0:
36,192,12569,1,0,0:0:0:0:
109,192,12569,1,0,0:0:0:0:
475,192,12569,1,0,0:0:0:0:
402,192,12569,1,0,0:0:0:0:
182,192,12793,128,0,13017:0:0:0:0:
329,192,13017,1,0,0:0:0:0:
36,192,13017,1,0,0:0:0:0:
109,192,13017,1,0,0:0:0:0:
475,192,13017,1,0,0:0:0:0:
402,192,13017,1,0,0:0:0:0:
256,192,13241,128,0,13465:0:0:0:0:
36,192,13465,1,0,0:0:0:0:
109,192,13465,1,0,0:0:0:0:
182,192,13465,1,0,0:0:0:0:
402,192,13465,1,0,0:0:0:0:
475,192,13465,1,0,0:0:0:0:
329,192,13689,128,0,13913:0:0:0:0:
36,192,13913,1,0,0:0:0:0:
182,192,13913,1,0,0:0:0:0:
256,192,13913,1,0,0:0:0:0:
109,192,13913,1,0,0:0:0:0:
475,192,13913,1,0,0:0:0:0:
402,192,14136,1,0,0:0:0:0:
109,192,14248,1,0,0:0:0:0:
329,192,14360,1,0,0:0:0:0:
36,192,14360,1,0,0:0:0:0:
182,192,14360,1,0,0:0:0:0:
256,192,14584,128,0,14808:0:0:0:0:
36,192,14808,1,0,0:0:0:0:
109,192,14808,1,0,0:0:0:0:
475,192,14808,1,0,0:0:0:0:
402,192,14808,1,0,0:0:0:0:
182,192,15032,128,0,15256:0:0:0:0:
329,192,15256,1,0,0:0:0:0:
36,192,15256,1,0,0:0:0:0:
109,192,15256,1,0,0:0:0:0:
475,192,15256,128,0,15480:0:0:0:0:
402,192,15480,128,0,15704:0:0:0:0:
256,192,15480,1,0,0:0:0:0:
182,192,15480,1,0,0:0:0:0:
109,192,15480,1,0,0:0:0:0:
36,192,15480,1,0,0:0:0:0:
329,192,15704,128,0,15927:0:0:0:0:
182,192,15704,1,0,0:0:0:0:
109,192,15704,1,0,0:0:0:0:
36,192,15704,1,0,0:0:0:0:
256,192,15927,128,0,16151:0:0:0:0:
36,192,15927,1,0,0:0:0:0:
109,192,15927,1,0,0:0:0:0:
475,192,15927,1,0,0:0:0:0:
36,192,16151,1,0,0:0:0:0:
109,192,16151,1,0,0:0:0:0:
402,192,16151,1,0,0:0:0:0:
475,192,16151,1,0,0:0:0:0:
329,192,16207,1,0,0:0:0:0:
256,192,16263,1,0,0:0:0:0:
182,192,16319,1,0,0:0:0:0:
109,192,16375,1,0,0:0:0:0:
36,192,16431,1,0,0:0:0:0:
329,192,16487,1,0,0:0:0:0:
475,192,16487,1,0,0:0:0:0:
182,192,16599,1,0,0:0:0:0:
36,192,16599,1,0,0:0:0:0:
329,192,16711,1,0,0:0:0:0:
475,192,16711,1,0,0:0:0:0:
36,192,16935,128,0,17942:0:0:0:0:
182,192,16935,128,0,17942:0:0:0:0:
329,192,16935,128,0,17047:0:0:0:0:
475,192,17047,1,0,0:0:0:0:
475,192,17383,1,0,0:0:0:0:
402,192,17495,1,0,0:0:0:0:
329,192,17719,1,0,0:0:0:0:
256,192,17942,1,0,0:0:0:0:
475,192,17942,1,0,0:0:0:0:
402,192,17942,1,0,0:0:0:0:
36,192,21869,1,0,0:0:0:0:
475,192,21869,1,0,0:0:0:0:
182,192,21869,1,0,0:0:0:0:
329,192,21869,1,0,0:0:0:0:
256,192,21869,128,0,27011:0:0:0:0:
402,192,22083,1,0,0:0:0:0:
182,192,22083,1,0,0:0:0:0:
475,192,22297,1,0,0:0:0:0:
109,192,22297,1,0,0:0:0:0:
36,192,22297,1,0,0:0:0:0:
109,192,22511,1,0,0:0:0:0:
329,192,22511,1,0,0:0:0:0:
182,192,22726,1,0,0:0:0:0:
402,192,22726,1,0,0:0:0:0:
36,192,22726,1,0,0:0:0:0:
109,192,22940,1,0,0:0:0:0:
36,192,23154,1,0,0:0:0:0:
182,192,23154,1,0,0:0:0:0:
329,192,23154,1,0,0:0:0:0:
109,192,23369,1,0,0:0:0:0:
402,192,23369,1,0,0:0:0:0:
329,192,23583,1,0,0:0:0:0:
182,192,23583,1,0,0:0:0:0:
109,192,23797,1,0,0:0:0:0:
402,192,23797,1,0,0:0:0:0:
36,192,24011,1,0,0:0:0:0:
182,192,24011,1,0,0:0:0:0:
329,192,24011,1,0,0:0:0:0:
475,192,24011,1,0,0:0:0:0:
109,192,24226,1,0,0:0:0:0:
402,192,24226,1,0,0:0:0:0:
475,192,24440,1,0,0:0:0:0:
182,192,24440,1,0,0:0:0:0:
329,192,24654,1,0,0:0:0:0:
36,192,24654,1,0,0:0:0:0:
402,192,24869,1,0,0:0:0:0:
182,192,24869,1,0,0:0:0:0:
36,192,24869,1,0,0:0:0:0:
329,192,25083,1,0,0:0:0:0:
109,192,25083,1,0,0:0:0:0:
475,192,25297,1,0,0:0:0:0:
402,192,25297,1,0,0:0:0:0:
182,192,25297,1,0,0:0:0:0:
36,192,25297,1,0,0:0:0:0:
329,192,25511,1,0,0:0:0:0:
109,192,25511,1,0,0:0:0:0:
36,192,25726,1,0,0:0:0:0:
475,192,25726,1,0,0:0:0:0:
329,192,25940,1,0,0:0:0:0:
182,192,25940,1,0,0:0:0:0:
36,192,26154,1,0,0:0:0:0:
402,192,26154,1,0,0:0:0:0:
109,192,26154,1,0,0:0:0:0:
182,192,26369,1,0,0:0:0:0:
475,192,26369,1,0,0:0:0:0:
36,192,26583,1,0,0:0:0:0:
402,192,26583,1,0,0:0:0:0:
329,192,26583,1,0,0:0:0:0:
109,192,26583,1,0,0:0:0:0:
109,192,26797,1,0,0:0:0:0:
402,192,26797,1,0,0:0:0:0:
36,192,27011,1,0,0:0:0:0:
182,192,27011,1,0,0:0:0:0:
329,192,27011,1,0,0:0:0:0:
475,192,27011,1,0,0:0:0:0:
402,192,27226,128,0,27386:0:0:0:0:
402,192,27440,1,0,0:0:0:0:
402,192,27654,128,0,27815:0:0:0:0:
36,192,27869,128,0,28297:0:0:0:0:
182,192,27869,128,0,28297:0:0:0:0:
402,192,28083,1,0,0:0:0:0:
475,192,28994,1,0,0:0:0:0:
36,192,28998,1,0,0:0:0:0:
109,192,28998,1,0,0:0:0:0:
329,192,28998,1,0,0:0:0:0:
475,192,29105,1,0,0:0:0:0:
402,192,29212,1,0,0:0:0:0:
109,192,29212,1,0,0:0:0:0:
329,192,29265,1,0,0:0:0:0:
256,192,29319,1,0,0:0:0:0:
182,192,29373,1,0,0:0:0:0:
109,192,29426,1,0,0:0:0:0:
36,192,29426,128,0,29640:0:0:0:0:
475,192,29426,1,0,0:0:0:0:
182,192,29533,128,0,29640:0:0:0:0:
402,192,29533,1,0,0:0:0:0:
475,192,29640,128,0,29855:0:0:0:0:
256,192,29748,1,0,0:0:0:0:
329,192,29748,128,0,29855:0:0:0:0:
402,192,29855,128,0,30069:0:0:0:0:
182,192,29962,1,0,0:0:0:0:
256,192,29962,128,0,30069:0:0:0:0:
329,192,30069,128,0,30283:0:0:0:0:
109,192,30176,1,0,0:0:0:0:
182,192,30176,128,0,30283:0:0:0:0:
256,192,30283,128,0,30498:0:0:0:0:
109,192,30390,128,0,30498:0:0:0:0:
36,192,30498,128,0,30712:0:0:0:0:
475,192,30498,128,0,30712:0:0:0:0:
329,192,30712,1,0,0:0:0:0:
182,192,30712,1,0,0:0:0:0:
402,192,30855,128,0,31140:0:0:0:0:
109,192,30926,1,0,0:0:0:0:
256,192,31140,1,0,0:0:0:0:
36,192,31140,1,0,0:0:0:0:
182,192,31140,1,0,0:0:0:0:
475,192,31355,128,0,31426:0:0:0:0:
329,192,31355,1,0,0:0:0:0:
109,192,31355,1,0,0:0:0:0:
182,192,31569,1,0,0:0:0:0:
402,192,31569,1,0,0:0:0:0:
36,192,31676,1,0,0:0:0:0:
256,192,31676,1,0,0:0:0:0:
329,192,31712,1,0,0:0:0:0:
475,192,31783,1,0,0:0:0:0:
402,192,31890,128,0,31998:0:0:0:0:
109,192,31890,1,0,0:0:0:0:
256,192,31998,1,0,0:0:0:0:
475,192,32212,128,0,32426:0:0:0:0:
36,192,32212,1,0,0:0:0:0:
182,192,32212,1,0,0:0:0:0:
402,192,32212,1,0,0:0:0:0:
329,192,32283,1,0,0:0:0:0:
256,192,32355,1,0,0:0:0:0:
182,192,32426,128,0,32640:0:0:0:0:
402,192,32426,128,0,32855:0:0:0:0:
36,192,32640,1,0,0:0:0:0:
109,192,32640,1,0,0:0:0:0:
256,192,32855,1,0,0:0:0:0:
36,192,32855,1,0,0:0:0:0:
109,192,33069,1,0,0:0:0:0:
256,192,33069,1,0,0:0:0:0:
475,192,33069,1,0,0:0:0:0:
329,192,33140,1,0,0:0:0:0:
402,192,33283,1,0,0:0:0:0:
182,192,33283,1,0,0:0:0:0:
36,192,33283,1,0,0:0:0:0:
109,192,33390,1,0,0:0:0:0:
256,192,33390,1,0,0:0:0:0:
329,192,33426,1,0,0:0:0:0:
475,192,33498,1,0,0:0:0:0:
402,192,33605,128,0,33712:0:0:0:0:
256,192,33605,1,0,0:0:0:0:
36,192,33605,1,0,0:0:0:0:
109,192,33712,1,0,0:0:0:0:
475,192,33926,128,0,34140:0:0:0:0:
182,192,33926,1,0,0:0:0:0:
36,192,33926,1,0,0:0:0:0:
402,192,33926,1,0,0:0:0:0:
329,192,33998,1,0,0:0:0:0:
256,192,34069,1,0,0:0:0:0:
36,192,34140,128,0,34355:0:0:0:0:
402,192,34140,128,0,34569:0:0:0:0:
109,192,34355,1,0,0:0:0:0:
182,192,34355,1,0,0:0:0:0:
256,192,34569,1,0,0:0:0:0:
109,192,34569,1,0,0:0:0:0:
475,192,34783,128,0,34855:0:0:0:0:
182,192,34783,1,0,0:0:0:0:
36,192,34783,1,0,0:0:0:0:
182,192,34998,1,0,0:0:0:0:
402,192,34998,1,0,0:0:0:0:
36,192,34998,1,0,0:0:0:0:
256,192,35105,1,0,0:0:0:0:
109,192,35105,1,0,0:0:0:0:
329,192,35140,1,0,0:0:0:0:
475,192,35212,1,0,0:0:0:0:
402,192,35319,128,0,35426:0:0:0:0:
182,192,35319,1,0,0:0:0:0:
36,192,35319,1,0,0:0:0:0:
256,192,35426,1,0,0:0:0:0:
475,192,35640,128,0,35855:0:0:0:0:
109,192,35640,1,0,0:0:0:0:
256,192,35640,1,0,0:0:0:0:
402,192,35640,1,0,0:0:0:0:
329,192,35712,1,0,0:0:0:0:
182,192,35783,1,0,0:0:0:0:
36,192,35855,1,0,0:0:0:0:
109,192,35855,128,0,36069:0:0:0:0:
402,192,35855,128,0,36283:0:0:0:0:
182,192,36069,1,0,0:0:0:0:
329,192,36069,1,0,0:0:0:0:
256,192,36283,1,0,0:0:0:0:
109,192,36283,1,0,0:0:0:0:
182,192,36498,1,0,0:0:0:0:
36,192,36498,1,0,0:0:0:0:
475,192,36498,1,0,0:0:0:0:
329,192,36569,1,0,0:0:0:0:
402,192,36712,1,0,0:0:0:0:
182,192,36712,1,0,0:0:0:0:
36,192,36712,1,0,0:0:0:0:
256,192,36819,1,0,0:0:0:0:
109,192,36819,1,0,0:0:0:0:
329,192,36855,1,0,0:0:0:0:
475,192,36926,1,0,0:0:0:0:
402,192,37033,128,0,37140:0:0:0:0:
36,192,37033,1,0,0:0:0:0:
256,192,37033,1,0,0:0:0:0:
182,192,37140,1,0,0:0:0:0:
475,192,37355,128,0,37569:0:0:0:0:
36,192,37355,1,0,0:0:0:0:
182,192,37355,1,0,0:0:0:0:
402,192,37355,1,0,0:0:0:0:
329,192,37426,1,0,0:0:0:0:
182,192,37498,1,0,0:0:0:0:
256,192,37569,1,0,0:0:0:0:
109,192,37569,128,0,37783:0:0:0:0:
36,192,37569,1,0,0:0:0:0:
402,192,37569,128,0,37998:0:0:0:0:
329,192,37783,1,0,0:0:0:0:
475,192,37783,1,0,0:0:0:0:
36,192,37998,1,0,0:0:0:0:
256,192,37998,1,0,0:0:0:0:
182,192,37998,1,0,0:0:0:0:
109,192,38212,128,0,38426:0:0:0:0:
329,192,38212,1,0,0:0:0:0:
475,192,38212,1,0,0:0:0:0:
256,192,38426,1,0,0:0:0:0:
475,192,38426,1,0,0:0:0:0:
402,192,38533,1,0,0:0:0:0:
36,192,38533,1,0,0:0:0:0:
329,192,38640,1,0,0:0:0:0:
36,192,38748,1,0,0:0:0:0:
475,192,38748,1,0,0:0:0:0:
402,192,38855,1,0,0:0:0:0:
109,192,38855,1,0,0:0:0:0:
256,192,38855,1,0,0:0:0:0:
182,192,39069,1,0,0:0:0:0:
329,192,39069,1,0,0:0:0:0:
109,192,39176,1,0,0:0:0:0:
402,192,39176,1,0,0:0:0:0:
256,192,39176,1,0,0:0:0:0:
475,192,39283,1,0,0:0:0:0:
36,192,39283,1,0,0:0:0:0:
329,192,39283,1,0,0:0:0:0:
182,192,39283,1,0,0:0:0:0:
402,192,39283,128,0,39712:0:0:0:0:
182,192,39498,1,0,0:0:0:0:
36,192,39498,1,0,0:0:0:0:
329,192,39712,1,0,0:0:0:0:
475,192,39712,1,0,0:0:0:0:
109,192,39712,1,0,0:0:0:0:
256,192,39712,1,0,0:0:0:0:
36,192,39926,1,0,0:0:0:0:
182,192,39926,1,0,0:0:0:0:
402,192,39926,128,0,40140:0:0:0:0:
329,192,40033,1,0,0:0:0:0:
475,192,40033,1,0,0:0:0:0:
256,192,40140,1,0,0:0:0:0:
36,192,40140,1,0,0:0:0:0:
475,192,40248,1,0,0:0:0:0:
109,192,40248,1,0,0:0:0:0:
329,192,40248,1,0,0:0:0:0:
182,192,40355,1,0,0:0:0:0:
475,192,40462,1,0,0:0:0:0:
36,192,40462,1,0,0:0:0:0:
402,192,40569,1,0,0:0:0:0:
256,192,40569,1,0,0:0:0:0:
109,192,40569,1,0,0:0:0:0:
182,192,40783,1,0,0:0:0:0:
329,192,40783,1,0,0:0:0:0:
402,192,40890,1,0,0:0:0:0:
109,192,40890,1,0,0:0:0:0:
256,192,40890,1,0,0:0:0:0:
36,192,40998,128,0,41426:0:0:0:0:
329,192,40998,1,0,0:0:0:0:
475,192,40998,1,0,0:0:0:0:
402,192,41212,1,0,0:0:0:0:
475,192,41319,128,0,41426:0:0:0:0:
329,192,41426,1,0,0:0:0:0:
182,192,41426,1,0,0:0:0:0:
109,192,41569,128,0,42283:0:0:0:0:
182,192,41640,1,0,0:0:0:0:
329,192,41640,1,0,0:0:0:0:
256,192,41855,128,0,42283:0:0:0:0:
402,192,41855,1,0,0:0:0:0:
329,192,42069,1,0,0:0:0:0:
475,192,42069,1,0,0:0:0:0:
402,192,42140,128,0,42283:0:0:0:0:
36,192,42283,1,0,0:0:0:0:
182,192,42283,1,0,0:0:0:0:
475,192,42498,128,0,42926:0:0:0:0:
109,192,42498,1,0,0:0:0:0:
256,192,42498,1,0,0:0:0:0:
36,192,42712,128,0,42926:0:0:0:0:
329,192,42712,1,0,0:0:0:0:
256,192,42765,1,0,0:0:0:0:
182,192,42819,1,0,0:0:0:0:
402,192,42926,128,0,43248:0:0:0:0:
329,192,42926,1,0,0:0:0:0:
109,192,43033,1,0,0:0:0:0:
329,192,43140,128,0,43462:0:0:0:0:
36,192,43140,1,0,0:0:0:0:
182,192,43140,1,0,0:0:0:0:
256,192,43248,128,0,43462:0:0:0:0:
109,192,43355,1,0,0:0:0:0:
182,192,43462,128,0,43890:0:0:0:0:
402,192,43569,1,0,0:0:0:0:
36,192,43569,1,0,0:0:0:0:
109,192,43783,128,0,43890:0:0:0:0:
475,192,43783,1,0,0:0:0:0:
402,192,43890,1,0,0:0:0:0:
36,192,43998,128,0,44426:0:0:0:0:
256,192,43998,1,0,0:0:0:0:
475,192,43998,1,0,0:0:0:0:
182,192,44051,1,0,0:0:0:0:
109,192,44105,1,0,0:0:0:0:
475,192,44212,128,0,44426:0:0:0:0:
256,192,44212,1,0,0:0:0:0:
182,192,44265,1,0,0:0:0:0:
109,192,44319,128,0,44426:0:0:0:0:
256,192,44426,1,0,0:0:0:0:
402,192,44426,128,0,44640:0:0:0:0:
109,192,44640,128,0,44855:0:0:0:0:
475,192,44640,1,0,0:0:0:0:
329,192,44640,1,0,0:0:0:0:
256,192,44855,1,0,0:0:0:0:
475,192,44855,1,0,0:0:0:0:
36,192,44855,1,0,0:0:0:0:
36,192,45069,128,0,45140:0:0:0:0:
402,192,45069,1,0,0:0:0:0:
256,192,45069,1,0,0:0:0:0:
329,192,45283,1,0,0:0:0:0:
109,192,45283,1,0,0:0:0:0:
475,192,45283,1,0,0:0:0:0:
402,192,45390,1,0,0:0:0:0:
256,192,45390,1,0,0:0:0:0:
182,192,45426,1,0,0:0:0:0:
36,192,45498,1,0,0:0:0:0:
109,192,45569,1,0,0:0:0:0:
256,192,45605,1,0,0:0:0:0:
475,192,45605,1,0,0:0:0:0:
36,192,45605,1,0,0:0:0:0:
402,192,45712,1,0,0:0:0:0:
475,192,45926,1,0,0:0:0:0:
36,192,45926,128,0,46140:0:0:0:0:
256,192,45926,1,0,0:0:0:0:
329,192,45926,1,0,0:0:0:0:
182,192,45998,1,0,0:0:0:0:
109,192,46069,1,0,0:0:0:0:
256,192,46140,1,0,0:0:0:0:
402,192,46140,128,0,46355:0:0:0:0:
109,192,46355,128,0,46569:0:0:0:0:
475,192,46355,1,0,0:0:0:0:
329,192,46355,1,0,0:0:0:0:
36,192,46355,1,0,0:0:0:0:
256,192,46569,1,0,0:0:0:0:
402,192,46569,1,0,0:0:0:0:
329,192,46783,1,0,0:0:0:0:
475,192,46783,1,0,0:0:0:0:
36,192,46783,1,0,0:0:0:0:
182,192,46855,1,0,0:0:0:0:
329,192,46998,1,0,0:0:0:0:
109,192,46998,1,0,0:0:0:0:
475,192,46998,1,0,0:0:0:0:
256,192,47105,1,0,0:0:0:0:
402,192,47105,1,0,0:0:0:0:
182,192,47140,1,0,0:0:0:0:
36,192,47212,1,0,0:0:0:0:
109,192,47319,128,0,47426:0:0:0:0:
475,192,47319,1,0,0:0:0:0:
329,192,47319,1,0,0:0:0:0:
256,192,47426,1,0,0:0:0:0:
36,192,47640,128,0,47855:0:0:0:0:
402,192,47640,1,0,0:0:0:0:
256,192,47640,1,0,0:0:0:0:
182,192,47712,1,0,0:0:0:0:
109,192,47783,1,0,0:0:0:0:
256,192,47855,1,0,0:0:0:0:
475,192,47855,1,0,0:0:0:0:
402,192,47855,128,0,48069:0:0:0:0:
109,192,48069,128,0,48283:0:0:0:0:
475,192,48069,1,0,0:0:0:0:
329,192,48069,1,0,0:0:0:0:
182,192,48069,1,0,0:0:0:0:
256,192,48283,1,0,0:0:0:0:
475,192,48283,1,0,0:0:0:0:
36,192,48283,1,0,0:0:0:0:
402,192,48498,1,0,0:0:0:0:
256,192,48498,1,0,0:0:0:0:
36,192,48498,1,0,0:0:0:0:
475,192,48712,1,0,0:0:0:0:
329,192,48712,1,0,0:0:0:0:
109,192,48712,1,0,0:0:0:0:
402,192,48819,1,0,0:0:0:0:
256,192,48819,1,0,0:0:0:0:
182,192,48855,1,0,0:0:0:0:
36,192,48926,1,0,0:0:0:0:
475,192,49033,1,0,0:0:0:0:
256,192,49033,1,0,0:0:0:0:
109,192,49069,1,0,0:0:0:0:
402,192,49140,1,0,0:0:0:0:
329,192,49355,1,0,0:0:0:0:
36,192,49355,128,0,49569:0:0:0:0:
475,192,49355,1,0,0:0:0:0:
182,192,49355,1,0,0:0:0:0:
256,192,49426,1,0,0:0:0:0:
329,192,49498,1,0,0:0:0:0:
402,192,49569,128,0,49783:0:0:0:0:
109,192,49569,128,0,49998:0:0:0:0:
475,192,49783,1,0,0:0:0:0:
329,192,49783,1,0,0:0:0:0:
256,192,49998,1,0,0:0:0:0:
402,192,49998,1,0,0:0:0:0:
329,192,50212,1,0,0:0:0:0:
475,192,50212,1,0,0:0:0:0:
36,192,50212,1,0,0:0:0:0:
182,192,50283,1,0,0:0:0:0:
109,192,50426,1,0,0:0:0:0:
329,192,50426,1,0,0:0:0:0:
475,192,50426,1,0,0:0:0:0:
256,192,50533,1,0,0:0:0:0:
402,192,50533,1,0,0:0:0:0:
182,192,50569,1,0,0:0:0:0:
36,192,50640,1,0,0:0:0:0:
109,192,50748,128,0,50855:0:0:0:0:
475,192,50748,1,0,0:0:0:0:
329,192,50748,1,0,0:0:0:0:
256,192,50855,1,0,0:0:0:0:
402,192,51069,1,0,0:0:0:0:
36,192,51069,128,0,51283:0:0:0:0:
256,192,51069,1,0,0:0:0:0:
109,192,51069,1,0,0:0:0:0:
329,192,51140,1,0,0:0:0:0:
182,192,51212,1,0,0:0:0:0:
402,192,51283,128,0,51498:0:0:0:0:
256,192,51283,1,0,0:0:0:0:
329,192,51498,1,0,0:0:0:0:
475,192,51498,1,0,0:0:0:0:
109,192,51498,128,0,51605:0:0:0:0:
256,192,51712,1,0,0:0:0:0:
36,192,51712,1,0,0:0:0:0:
475,192,51712,1,0,0:0:0:0:
36,192,51926,128,0,51998:0:0:0:0:
256,192,51926,1,0,0:0:0:0:
402,192,51926,1,0,0:0:0:0:
109,192,52140,1,0,0:0:0:0:
329,192,52140,1,0,0:0:0:0:
475,192,52140,1,0,0:0:0:0:
256,192,52248,1,0,0:0:0:0:
402,192,52248,1,0,0:0:0:0:
182,192,52283,1,0,0:0:0:0:
36,192,52355,1,0,0:0:0:0:
109,192,52462,128,0,52569:0:0:0:0:
256,192,52462,1,0,0:0:0:0:
475,192,52462,1,0,0:0:0:0:
402,192,52569,1,0,0:0:0:0:
182,192,52569,1,0,0:0:0:0:
36,192,52569,1,0,0:0:0:0:
475,192,52783,1,0,0:0:0:0:
329,192,52783,1,0,0:0:0:0:
36,192,52783,128,0,52998:0:0:0:0:
256,192,52783,1,0,0:0:0:0:
109,192,52855,1,0,0:0:0:0:
182,192,52926,1,0,0:0:0:0:
256,192,52998,1,0,0:0:0:0:
402,192,52998,128,0,53212:0:0:0:0:
109,192,53140,128,0,53426:0:0:0:0:
182,192,53140,1,0,0:0:0:0:
475,192,53212,1,0,0:0:0:0:
329,192,53212,1,0,0:0:0:0:
182,192,53319,1,0,0:0:0:0:
329,192,53426,1,0,0:0:0:0:
402,192,53426,1,0,0:0:0:0:
36,192,53640,128,0,53712:0:0:0:0:
329,192,53640,1,0,0:0:0:0:
475,192,53640,1,0,0:0:0:0:
182,192,53748,128,0,53855:0:0:0:0:
402,192,53748,1,0,0:0:0:0:
256,192,53783,1,0,0:0:0:0:
109,192,53855,1,0,0:0:0:0:
329,192,53855,1,0,0:0:0:0:
475,192,53855,128,0,53962:0:0:0:0:
256,192,53962,1,0,0:0:0:0:
402,192,53962,128,0,54069:0:0:0:0:
182,192,53998,128,0,54069:0:0:0:0:
329,192,54069,128,0,54176:0:0:0:0:
109,192,54176,128,0,54283:0:0:0:0:
475,192,54176,1,0,0:0:0:0:
256,192,54176,128,0,54283:0:0:0:0:
182,192,54283,128,0,54390:0:0:0:0:
256,192,54390,128,0,54498:0:0:0:0:
36,192,54498,128,0,54712:0:0:0:0:
182,192,54498,128,0,54605:0:0:0:0:
329,192,54498,128,0,54605:0:0:0:0:
475,192,54498,1,0,0:0:0:0:
402,192,54605,128,0,54712:0:0:0:0:
109,192,54605,128,0,54712:0:0:0:0:
475,192,54712,128,0,55248:0:0:0:0:
256,192,54712,128,0,55033:0:0:0:0:
182,192,55033,128,0,55248:0:0:0:0:
36,192,55033,128,0,55248:0:0:0:0:
402,192,55355,128,0,55890:0:0:0:0:
109,192,55569,128,0,55890:0:0:0:0:
329,192,55890,128,0,56319:0:0:0:0:
36,192,56212,128,0,56319:0:0:0:0:
36,192,56426,128,0,57033:0:0:0:0:
182,192,56426,128,0,57248:0:0:0:0:
329,192,56426,128,0,56712:0:0:0:0:
475,192,56426,128,0,56712:0:0:0:0:
329,192,56748,128,0,57462:0:0:0:0:
475,192,56748,128,0,57248:0:0:0:0:
36,192,57069,128,0,57462:0:0:0:0:
475,192,57283,128,0,57676:0:0:0:0:
182,192,57283,128,0,57676:0:0:0:0:
329,192,57498,128,0,57676:0:0:0:0:
36,192,57498,128,0,57676:0:0:0:0:
36,192,57712,128,0,58140:0:0:0:0:
182,192,57712,128,0,58140:0:0:0:0:
475,192,57712,128,0,58140:0:0:0:0:
329,192,57712,128,0,58140:0:0:0:0:
36,192,59035,1,0,0:0:0:0:
36,192,59147,1,0,0:0:0:0:
36,192,59259,128,0,59931:0:0:0:0:
182,192,59483,1,0,0:0:0:0:
329,192,59483,1,0,0:0:0:0:
475,192,59483,1,0,0:0:0:0:
475,192,59819,1,0,0:0:0:0:
256,192,59931,1,0,0:0:0:0:
402,192,59931,1,0,0:0:0:0:
182,192,60042,1,0,0:0:0:0:
36,192,60154,1,0,0:0:0:0:
109,192,60378,1,0,0:0:0:0:
256,192,60378,1,0,0:0:0:0:
36,192,60490,1,0,0:0:0:0:
256,192,60714,1,0,0:0:0:0:
475,192,60826,1,0,0:0:0:0:
329,192,60826,1,0,0:0:0:0:
182,192,61050,1,0,0:0:0:0:
329,192,61050,1,0,0:0:0:0:
36,192,61274,1,0,0:0:0:0:
256,192,61274,1,0,0:0:0:0:
475,192,61274,1,0,0:0:0:0:
402,192,61498,1,0,0:0:0:0:
256,192,61610,1,0,0:0:0:0:
329,192,61722,1,0,0:0:0:0:
36,192,61722,1,0,0:0:0:0:
182,192,61834,1,0,0:0:0:0:
256,192,61945,1,0,0:0:0:0:
475,192,61945,1,0,0:0:0:0:
109,192,62169,1,0,0:0:0:0:
475,192,62169,1,0,0:0:0:0:
256,192,62281,1,0,0:0:0:0:
109,192,62505,1,0,0:0:0:0:
475,192,62617,1,0,0:0:0:0:
256,192,62617,1,0,0:0:0:0:
182,192,62841,1,0,0:0:0:0:
329,192,62841,1,0,0:0:0:0:
36,192,63065,1,0,0:0:0:0:
256,192,63065,1,0,0:0:0:0:
475,192,63065,1,0,0:0:0:0:
402,192,63289,1,0,0:0:0:0:
182,192,63401,1,0,0:0:0:0:
329,192,63401,1,0,0:0:0:0:
109,192,63513,1,0,0:0:0:0:
256,192,63513,1,0,0:0:0:0:
402,192,63513,1,0,0:0:0:0:
182,192,63625,1,0,0:0:0:0:
36,192,63737,1,0,0:0:0:0:
256,192,63737,1,0,0:0:0:0:
36,192,63960,1,0,0:0:0:0:
182,192,63960,1,0,0:0:0:0:
402,192,63960,1,0,0:0:0:0:
329,192,64072,1,0,0:0:0:0:
182,192,64184,1,0,0:0:0:0:
402,192,64184,1,0,0:0:0:0:
329,192,64296,1,0,0:0:0:0:
109,192,64296,1,0,0:0:0:0:
256,192,64408,1,0,0:0:0:0:
36,192,64408,1,0,0:0:0:0:
475,192,64408,1,0,0:0:0:0:
109,192,64632,1,0,0:0:0:0:
402,192,64632,1,0,0:0:0:0:
36,192,64856,1,0,0:0:0:0:
182,192,64856,1,0,0:0:0:0:
329,192,64856,1,0,0:0:0:0:
475,192,64856,1,0,0:0:0:0:
109,192,65080,1,0,0:0:0:0:
256,192,65080,1,0,0:0:0:0:
182,192,65192,1,0,0:0:0:0:
329,192,65192,1,0,0:0:0:0:
256,192,65304,1,0,0:0:0:0:
402,192,65304,1,0,0:0:0:0:
36,192,65304,1,0,0:0:0:0:
329,192,65416,1,0,0:0:0:0:
256,192,65528,1,0,0:0:0:0:
109,192,65528,1,0,0:0:0:0:
36,192,65751,1,0,0:0:0:0:
475,192,65751,1,0,0:0:0:0:
329,192,65751,1,0,0:0:0:0:
109,192,65975,1,0,0:0:0:0:
182,192,66087,1,0,0:0:0:0:
329,192,66087,1,0,0:0:0:0:
256,192,66199,1,0,0:0:0:0:
402,192,66199,1,0,0:0:0:0:
36,192,66199,1,0,0:0:0:0:
475,192,66423,1,0,0:0:0:0:
329,192,66423,1,0,0:0:0:0:
256,192,66647,1,0,0:0:0:0:
36,192,67766,128,0,68213:0:0:0:0:
256,192,67766,128,0,68213:0:0:0:0:
402,192,67766,128,0,68213:0:0:0:0:
475,192,67766,128,0,68213:0:0:0:0:
109,192,68213,128,0,68661:0:0:0:0:
329,192,68213,128,0,68661:0:0:0:0:
182,192,68213,128,0,68661:0:0:0:0:
475,192,68661,128,0,69109:0:0:0:0:
256,192,68661,128,0,69109:0:0:0:0:
36,192,68661,128,0,69109:0:0:0:0:
182,192,69109,128,0,69557:0:0:0:0:
329,192,69109,128,0,69557:0:0:0:0:
109,192,69109,128,0,69557:0:0:0:0:
402,192,69109,128,0,69557:0:0:0:0:
36,192,69557,128,0,69780:0:0:0:0:
475,192,69557,1,0,0:0:0:0:
256,192,69668,1,0,0:0:0:0:
475,192,69780,1,0,0:0:0:0:
182,192,69780,1,0,0:0:0:0:
402,192,69892,1,0,0:0:0:0:
109,192,69892,1,0,0:0:0:0:
256,192,70004,128,0,70116:0:0:0:0:
36,192,70004,1,0,0:0:0:0:
475,192,70004,1,0,0:0:0:0:
329,192,70116,1,0,0:0:0:0:
109,192,70228,128,0,70340:0:0:0:0:
402,192,70228,1,0,0:0:0:0:
256,192,70340,1,0,0:0:0:0:
182,192,70452,128,0,70564:0:0:0:0:
475,192,70452,1,0,0:0:0:0:
329,192,70452,1,0,0:0:0:0:
402,192,70564,1,0,0:0:0:0:
36,192,70676,128,0,70788:0:0:0:0:
475,192,70676,1,0,0:0:0:0:
256,192,70788,128,0,70900:0:0:0:0:
402,192,70788,1,0,0:0:0:0:
109,192,70900,1,0,0:0:0:0:
475,192,70900,1,0,0:0:0:0:
36,192,71012,1,0,0:0:0:0:
475,192,71124,1,0,0:0:0:0:
329,192,71124,1,0,0:0:0:0:
36,192,71348,128,0,71571:0:0:0:0:
402,192,71348,1,0,0:0:0:0:
256,192,71348,1,0,0:0:0:0:
475,192,71460,1,0,0:0:0:0:
182,192,71571,1,0,0:0:0:0:
402,192,71571,1,0,0:0:0:0:
329,192,71683,1,0,0:0:0:0:
109,192,71795,128,0,71907:0:0:0:0:
256,192,71795,1,0,0:0:0:0:
475,192,71795,1,0,0:0:0:0:
329,192,71907,1,0,0:0:0:0:
182,192,72019,128,0,72131:0:0:0:0:
402,192,72019,1,0,0:0:0:0:
109,192,72131,1,0,0:0:0:0:
256,192,72243,128,0,72355:0:0:0:0:
36,192,72243,1,0,0:0:0:0:
475,192,72243,1,0,0:0:0:0:
329,192,72243,1,0,0:0:0:0:
109,192,72355,1,0,0:0:0:0:
329,192,72467,1,0,0:0:0:0:
475,192,72467,1,0,0:0:0:0:
182,192,72579,1,0,0:0:0:0:
402,192,72579,1,0,0:0:0:0:
109,192,72691,128,0,72915:0:0:0:0:
36,192,72691,1,0,0:0:0:0:
475,192,72691,1,0,0:0:0:0:
256,192,72691,1,0,0:0:0:0:
329,192,72803,1,0,0:0:0:0:
402,192,72915,1,0,0:0:0:0:
36,192,73139,128,0,73363:0:0:0:0:
475,192,73139,1,0,0:0:0:0:
329,192,73139,1,0,0:0:0:0:
402,192,73251,1,0,0:0:0:0:
182,192,73363,128,0,73474:0:0:0:0:
329,192,73363,1,0,0:0:0:0:
475,192,73474,1,0,0:0:0:0:
36,192,73586,128,0,73810:0:0:0:0:
402,192,73586,1,0,0:0:0:0:
256,192,73586,1,0,0:0:0:0:
109,192,73698,1,0,0:0:0:0:
182,192,73810,128,0,73922:0:0:0:0:
329,192,73810,1,0,0:0:0:0:
475,192,73810,1,0,0:0:0:0:
36,192,74034,128,0,74258:0:0:0:0:
402,192,74034,1,0,0:0:0:0:
256,192,74034,1,0,0:0:0:0:
329,192,74146,1,0,0:0:0:0:
109,192,74258,128,0,74370:0:0:0:0:
475,192,74258,1,0,0:0:0:0:
182,192,74370,128,0,74482:0:0:0:0:
402,192,74370,1,0,0:0:0:0:
256,192,74482,1,0,0:0:0:0:
475,192,74482,1,0,0:0:0:0:
329,192,74594,1,0,0:0:0:0:
256,192,74706,128,0,74930:0:0:0:0:
109,192,74706,1,0,0:0:0:0:
109,192,74930,128,0,75042:0:0:0:0:
329,192,74930,128,0,75042:0:0:0:0:
36,192,74930,1,0,0:0:0:0:
475,192,74930,1,0,0:0:0:0:
182,192,75042,1,0,0:0:0:0:
256,192,75154,128,0,75266:0:0:0:0:
475,192,75154,128,0,75266:0:0:0:0:
402,192,75266,1,0,0:0:0:0:
36,192,75377,128,0,75489:0:0:0:0:
329,192,75377,128,0,75489:0:0:0:0:
402,192,75489,1,0,0:0:0:0:
256,192,75601,128,0,75713:0:0:0:0:
475,192,75601,128,0,75713:0:0:0:0:
182,192,75713,1,0,0:0:0:0:
109,192,75825,128,0,75937:0:0:0:0:
329,192,75825,128,0,75937:0:0:0:0:
182,192,75937,1,0,0:0:0:0:
256,192,76049,128,0,76161:0:0:0:0:
475,192,76049,128,0,76161:0:0:0:0:
109,192,76161,1,0,0:0:0:0:
182,192,76273,128,0,76385:0:0:0:0:
36,192,76273,128,0,76385:0:0:0:0:
256,192,76497,128,0,76609:0:0:0:0:
475,192,76497,128,0,76609:0:0:0:0:
329,192,76609,1,0,0:0:0:0:
475,192,76721,128,0,76945:0:0:0:0:
36,192,76721,1,0,0:0:0:0:
182,192,76721,1,0,0:0:0:0:
402,192,76833,1,0,0:0:0:0:
109,192,76945,1,0,0:0:0:0:
329,192,76945,1,0,0:0:0:0:
182,192,77057,1,0,0:0:0:0:
256,192,77168,128,0,77280:0:0:0:0:
36,192,77168,1,0,0:0:0:0:
475,192,77168,1,0,0:0:0:0:
109,192,77280,1,0,0:0:0:0:
402,192,77392,128,0,77504:0:0:0:0:
182,192,77392,1,0,0:0:0:0:
256,192,77504,1,0,0:0:0:0:
329,192,77616,128,0,77728:0:0:0:0:
36,192,77616,1,0,0:0:0:0:
475,192,77616,1,0,0:0:0:0:
182,192,77728,1,0,0:0:0:0:
475,192,77840,128,0,77952:0:0:0:0:
109,192,77840,1,0,0:0:0:0:
256,192,77952,128,0,78064:0:0:0:0:
402,192,77952,1,0,0:0:0:0:
36,192,78064,1,0,0:0:0:0:
182,192,78064,1,0,0:0:0:0:
402,192,78176,1,0,0:0:0:0:
329,192,78288,128,0,78512:0:0:0:0:
109,192,78288,1,0,0:0:0:0:
475,192,78512,128,0,78736:0:0:0:0:
36,192,78512,1,0,0:0:0:0:
256,192,78512,1,0,0:0:0:0:
402,192,78624,1,0,0:0:0:0:
109,192,78736,1,0,0:0:0:0:
329,192,78736,1,0,0:0:0:0:
182,192,78848,1,0,0:0:0:0:
402,192,78960,128,0,79071:0:0:0:0:
256,192,78960,1,0,0:0:0:0:
36,192,78960,1,0,0:0:0:0:
182,192,79071,1,0,0:0:0:0:
329,192,79183,128,0,79295:0:0:0:0:
109,192,79183,1,0,0:0:0:0:
182,192,79295,1,0,0:0:0:0:
256,192,79407,128,0,79519:0:0:0:0:
36,192,79407,1,0,0:0:0:0:
402,192,79407,1,0,0:0:0:0:
182,192,79519,1,0,0:0:0:0:
109,192,79631,1,0,0:0:0:0:
475,192,79631,1,0,0:0:0:0:
329,192,79743,1,0,0:0:0:0:
402,192,79855,128,0,80079:0:0:0:0:
256,192,79855,1,0,0:0:0:0:
36,192,79855,1,0,0:0:0:0:
182,192,79967,1,0,0:0:0:0:
109,192,80079,1,0,0:0:0:0:
329,192,80079,128,0,80303:0:0:0:0:
475,192,80303,128,0,80527:0:0:0:0:
256,192,80303,1,0,0:0:0:0:
36,192,80303,1,0,0:0:0:0:
182,192,80415,1,0,0:0:0:0:
329,192,80527,128,0,80639:0:0:0:0:
109,192,80527,1,0,0:0:0:0:
182,192,80639,1,0,0:0:0:0:
475,192,80751,128,0,80974:0:0:0:0:
36,192,80751,1,0,0:0:0:0:
256,192,80751,1,0,0:0:0:0:
182,192,80863,1,0,0:0:0:0:
329,192,80974,128,0,81086:0:0:0:0:
256,192,80974,1,0,0:0:0:0:
109,192,81086,1,0,0:0:0:0:
475,192,81198,128,0,81422:0:0:0:0:
36,192,81198,1,0,0:0:0:0:
182,192,81198,1,0,0:0:0:0:
329,192,81310,1,0,0:0:0:0:
402,192,81422,128,0,81534:0:0:0:0:
109,192,81422,1,0,0:0:0:0:
256,192,81422,1,0,0:0:0:0:
329,192,81534,128,0,81646:0:0:0:0:
182,192,81534,1,0,0:0:0:0:
36,192,81646,1,0,0:0:0:0:
475,192,81646,1,0,0:0:0:0:
256,192,81870,128,0,82094:0:0:0:0:
109,192,81870,1,0,0:0:0:0:
402,192,82094,128,0,82206:0:0:0:0:
182,192,82094,128,0,82206:0:0:0:0:
36,192,82094,1,0,0:0:0:0:
475,192,82094,1,0,0:0:0:0:
329,192,82206,1,0,0:0:0:0:
256,192,82318,128,0,82430:0:0:0:0:
36,192,82318,128,0,82430:0:0:0:0:
109,192,82430,1,0,0:0:0:0:
475,192,82542,128,0,82654:0:0:0:0:
182,192,82542,128,0,82654:0:0:0:0:
109,192,82654,1,0,0:0:0:0:
36,192,82766,128,0,82877:0:0:0:0:
256,192,82766,128,0,82877:0:0:0:0:
329,192,82877,1,0,0:0:0:0:
182,192,82989,128,0,83101:0:0:0:0:
402,192,82989,128,0,83101:0:0:0:0:
329,192,83101,1,0,0:0:0:0:
256,192,83213,128,0,83325:0:0:0:0:
36,192,83213,128,0,83325:0:0:0:0:
402,192,83325,1,0,0:0:0:0:
329,192,83437,128,0,83549:0:0:0:0:
475,192,83437,128,0,83549:0:0:0:0:
36,192,83437,1,0,0:0:0:0:
182,192,83437,1,0,0:0:0:0:
256,192,83661,128,0,83773:0:0:0:0:
36,192,83661,128,0,83773:0:0:0:0:
475,192,83661,1,0,0:0:0:0:
36,192,83885,1,0,0:0:0:0:
256,192,83885,1,0,0:0:0:0:
475,192,83885,1,0,0:0:0:0:
329,192,83885,1,0,0:0:0:0:
182,192,83885,1,0,0:0:0:0:
36,192,84808,1,0,0:0:0:0:
475,192,84808,1,0,0:0:0:0:
402,192,85038,1,0,0:0:0:0:
109,192,85038,1,0,0:0:0:0:
256,192,85269,1,0,0:0:0:0:
182,192,85500,1,0,0:0:0:0:
329,192,85500,1,0,0:0:0:0:
36,192,85731,1,0,0:0:0:0:
182,192,85731,1,0,0:0:0:0:
329,192,85731,1,0,0:0:0:0:
475,192,85731,1,0,0:0:0:0:
402,192,85961,1,0,0:0:0:0:
256,192,85961,1,0,0:0:0:0:
109,192,85961,1,0,0:0:0:0:
256,192,86192,128,0,86308:0:0:0:0:
256,192,86423,128,0,86538:0:0:0:0:
36,192,86654,1,0,0:0:0:0:
182,192,86654,1,0,0:0:0:0:
329,192,86654,1,0,0:0:0:0:
475,192,86654,1,0,0:0:0:0:
109,192,86884,1,0,0:0:0:0:
256,192,86884,1,0,0:0:0:0:
402,192,86884,1,0,0:0:0:0:
256,192,87115,128,0,87231:0:0:0:0:
36,192,87346,128,0,87808:0:0:0:0:
182,192,87346,128,0,87808:0:0:0:0:
329,192,87346,128,0,87808:0:0:0:0:
475,192,87346,128,0,87808:0:0:0:0:
109,192,87808,128,0,88038:0:0:0:0:
256,192,87808,128,0,88038:0:0:0:0:
402,192,87808,128,0,88038:0:0:0:0:
329,192,88038,128,0,88269:0:0:0:0:
475,192,88038,128,0,88269:0:0:0:0:
182,192,88038,128,0,88269:0:0:0:0:
36,192,88269,128,0,88500:0:0:0:0:
256,192,88269,128,0,88500:0:0:0:0:
402,192,88269,128,0,88500:0:0:0:0:
402,192,90076,128,0,90537:0:0:0:0:
256,192,90306,128,0,90537:0:0:0:0:
109,192,90537,128,0,90744:0:0:0:0:
329,192,90537,128,0,90744:0:0:0:0:
36,192,90744,1,0,0:0:0:0:
475,192,90744,1,0,0:0:0:0:
256,192,90744,1,0,0:0:0:0:
182,192,91205,1,0,0:0:0:0:
329,192,91205,1,0,0:0:0:0:
475,192,91205,1,0,0:0:0:0:
36,192,91667,1,0,0:0:0:0:
182,192,91667,1,0,0:0:0:0:
329,192,91667,1,0,0:0:0:0:
182,192,92128,1,0,0:0:0:0:
329,192,92128,1,0,0:0:0:0:
475,192,92128,1,0,0:0:0:0:
36,192,92128,1,0,0:0:0:0:
36,192,92590,128,0,93051:0:0:0:0:
256,192,92590,1,0,0:0:0:0:
475,192,92590,1,0,0:0:0:0:
182,192,92590,128,0,93051:0:0:0:0:
329,192,92705,1,0,0:0:0:0:
402,192,92820,1,0,0:0:0:0:
256,192,92820,1,0,0:0:0:0:
109,192,92936,1,0,0:0:0:0:
329,192,93051,1,0,0:0:0:0:
475,192,93051,1,0,0:0:0:0:
256,192,93167,1,0,0:0:0:0:
182,192,93282,128,0,93397:0:0:0:0:
402,192,93282,1,0,0:0:0:0:
36,192,93282,1,0,0:0:0:0:
329,192,93397,1,0,0:0:0:0:
36,192,93513,128,0,93974:0:0:0:0:
256,192,93513,1,0,0:0:0:0:
475,192,93513,1,0,0:0:0:0:
329,192,93628,1,0,0:0:0:0:
182,192,93744,128,0,93974:0:0:0:0:
402,192,93744,1,0,0:0:0:0:
256,192,93859,1,0,0:0:0:0:
475,192,93974,1,0,0:0:0:0:
329,192,93974,1,0,0:0:0:0:
182,192,94205,128,0,94897:0:0:0:0:
402,192,94205,1,0,0:0:0:0:
36,192,94436,128,0,94897:0:0:0:0:
256,192,94436,1,0,0:0:0:0:
475,192,94436,1,0,0:0:0:0:
402,192,94667,1,0,0:0:0:0:
109,192,94667,1,0,0:0:0:0:
475,192,94782,1,0,0:0:0:0:
256,192,94897,1,0,0:0:0:0:
329,192,94897,1,0,0:0:0:0:
182,192,95128,128,0,95359:0:0:0:0:
475,192,95128,1,0,0:0:0:0:
329,192,95244,1,0,0:0:0:0:
256,192,95359,1,0,0:0:0:0:
402,192,95359,1,0,0:0:0:0:
109,192,95474,1,0,0:0:0:0:
36,192,95590,128,0,95936:0:0:0:0:
329,192,95590,1,0,0:0:0:0:
402,192,95705,1,0,0:0:0:0:
182,192,95820,128,0,95936:0:0:0:0:
256,192,95820,1,0,0:0:0:0:
475,192,95820,1,0,0:0:0:0:
109,192,96051,128,0,96282:0:0:0:0:
402,192,96051,1,0,0:0:0:0:
182,192,96167,128,0,96282:0:0:0:0:
475,192,96167,1,0,0:0:0:0:
36,192,96282,128,0,96744:0:0:0:0:
256,192,96282,1,0,0:0:0:0:
329,192,96282,1,0,0:0:0:0:
475,192,96513,1,0,0:0:0:0:
329,192,96628,1,0,0:0:0:0:
256,192,96744,1,0,0:0:0:0:
182,192,96974,128,0,97090:0:0:0:0:
329,192,96974,1,0,0:0:0:0:
475,192,96974,1,0,0:0:0:0:
109,192,97090,1,0,0:0:0:0:
36,192,97205,128,0,97436:0:0:0:0:
256,192,97205,1,0,0:0:0:0:
402,192,97205,1,0,0:0:0:0:
256,192,97436,128,0,97551:0:0:0:0:
475,192,97436,1,0,0:0:0:0:
182,192,97436,1,0,0:0:0:0:
109,192,97551,128,0,97667:0:0:0:0:
329,192,97551,1,0,0:0:0:0:
182,192,97667,128,0,97897:0:0:0:0:
402,192,97667,1,0,0:0:0:0:
36,192,97897,128,0,98128:0:0:0:0:
329,192,97897,128,0,98128:0:0:0:0:
475,192,97897,128,0,98128:0:0:0:0:
402,192,98128,128,0,98359:0:0:0:0:
256,192,98128,128,0,98359:0:0:0:0:
109,192,98244,1,0,0:0:0:0:
36,192,98359,1,0,0:0:0:0:
109,192,98474,1,0,0:0:0:0:
475,192,98590,1,0,0:0:0:0:
36,192,98590,1,0,0:0:0:0:
256,192,98590,1,0,0:0:0:0:
402,192,98705,1,0,0:0:0:0:
256,192,98820,128,0,99051:0:0:0:0:
109,192,98820,128,0,99051:0:0:0:0:
36,192,99051,1,0,0:0:0:0:
182,192,99051,1,0,0:0:0:0:
402,192,99051,1,0,0:0:0:0:
329,192,99282,1,0,0:0:0:0:
475,192,99282,1,0,0:0:0:0:
182,192,99282,1,0,0:0:0:0:
402,192,99513,1,0,0:0:0:0:
256,192,99513,1,0,0:0:0:0:
109,192,99513,1,0,0:0:0:0:
182,192,99974,128,0,100436:0:0:0:0:
36,192,99974,128,0,100436:0:0:0:0:
475,192,99974,1,0,0:0:0:0:
256,192,99974,1,0,0:0:0:0:
402,192,100090,1,0,0:0:0:0:
109,192,100205,1,0,0:0:0:0:
475,192,100205,1,0,0:0:0:0:
402,192,100320,1,0,0:0:0:0:
475,192,100436,1,0,0:0:0:0:
256,192,100436,1,0,0:0:0:0:
182,192,100667,128,0,100782:0:0:0:0:
256,192,100667,1,0,0:0:0:0:
475,192,100667,1,0,0:0:0:0:
329,192,100782,1,0,0:0:0:0:
36,192,100897,128,0,101359:0:0:0:0:
475,192,100897,1,0,0:0:0:0:
182,192,100897,1,0,0:0:0:0:
256,192,101013,1,0,0:0:0:0:
182,192,101128,128,0,101359:0:0:0:0:
329,192,101128,1,0,0:0:0:0:
475,192,101128,1,0,0:0:0:0:
256,192,101244,1,0,0:0:0:0:
109,192,101359,1,0,0:0:0:0:
475,192,101359,1,0,0:0:0:0:
182,192,101590,128,0,102282:0:0:0:0:
475,192,101590,1,0,0:0:0:0:
36,192,101820,128,0,102282:0:0:0:0:
256,192,101820,1,0,0:0:0:0:
402,192,101820,1,0,0:0:0:0:
329,192,102051,1,0,0:0:0:0:
109,192,102051,1,0,0:0:0:0:
402,192,102167,1,0,0:0:0:0:
475,192,102282,1,0,0:0:0:0:
256,192,102282,1,0,0:0:0:0:
182,192,102513,128,0,102744:0:0:0:0:
256,192,102513,1,0,0:0:0:0:
402,192,102513,1,0,0:0:0:0:
329,192,102628,1,0,0:0:0:0:
36,192,102744,1,0,0:0:0:0:
475,192,102744,1,0,0:0:0:0:
36,192,102974,128,0,103320:0:0:0:0:
182,192,102974,1,0,0:0:0:0:
475,192,102974,1,0,0:0:0:0:
402,192,103090,1,0,0:0:0:0:
182,192,103205,128,0,103320:0:0:0:0:
256,192,103205,1,0,0:0:0:0:
475,192,103205,1,0,0:0:0:0:
109,192,103436,128,0,103667:0:0:0:0:
475,192,103436,1,0,0:0:0:0:
329,192,103436,1,0,0:0:0:0:
182,192,103551,128,0,103667:0:0:0:0:
402,192,103551,1,0,0:0:0:0:
36,192,103667,128,0,104128:0:0:0:0:
256,192,103667,1,0,0:0:0:0:
475,192,103667,1,0,0:0:0:0:
402,192,103897,1,0,0:0:0:0:
256,192,104013,1,0,0:0:0:0:
182,192,104128,1,0,0:0:0:0:
475,192,104128,1,0,0:0:0:0:
329,192,104128,1,0,0:0:0:0:
182,192,104359,128,0,104474:0:0:0:0:
256,192,104359,1,0,0:0:0:0:
475,192,104359,1,0,0:0:0:0:
36,192,104359,1,0,0:0:0:0:
402,192,104474,1,0,0:0:0:0:
36,192,104590,128,0,104820:0:0:0:0:
109,192,104590,1,0,0:0:0:0:
475,192,104590,1,0,0:0:0:0:
256,192,104590,1,0,0:0:0:0:
256,192,104820,128,0,105051:0:0:0:0:
475,192,104820,1,0,0:0:0:0:
329,192,104820,1,0,0:0:0:0:
182,192,104820,1,0,0:0:0:0:
109,192,105051,128,0,105282:0:0:0:0:
256,192,105282,128,0,105397:0:0:0:0:
475,192,105282,128,0,105744:0:0:0:0:
329,192,105282,1,0,0:0:0:0:
36,192,105397,128,0,105513:0:0:0:0:
402,192,105397,128,0,106090:0:0:0:0:
182,192,105397,1,0,0:0:0:0:
329,192,105513,128,0,106205:0:0:0:0:
109,192,105513,1,0,0:0:0:0:
36,192,105744,1,0,0:0:0:0:
256,192,105859,1,0,0:0:0:0:
36,192,105974,1,0,0:0:0:0:
182,192,105974,1,0,0:0:0:0:
402,192,106205,128,0,106436:0:0:0:0:
256,192,106205,1,0,0:0:0:0:
329,192,106320,128,0,106551:0:0:0:0:
109,192,106320,1,0,0:0:0:0:
256,192,106436,128,0,106782:0:0:0:0:
182,192,106436,1,0,0:0:0:0:
36,192,106436,1,0,0:0:0:0:
329,192,106667,128,0,107128:0:0:0:0:
182,192,106667,1,0,0:0:0:0:
36,192,106782,1,0,0:0:0:0:
256,192,106897,128,0,107128:0:0:0:0:
109,192,106897,1,0,0:0:0:0:
182,192,106897,1,0,0:0:0:0:
475,192,107013,1,0,0:0:0:0:
36,192,107128,1,0,0:0:0:0:
402,192,107128,1,0,0:0:0:0:
109,192,107244,1,0,0:0:0:0:
36,192,107359,128,0,107590:0:0:0:0:
475,192,107359,128,0,107590:0:0:0:0:
182,192,107359,128,0,107820:0:0:0:0:
329,192,107359,1,0,0:0:0:0:
402,192,107590,128,0,107705:0:0:0:0:
256,192,107590,1,0,0:0:0:0:
109,192,107820,128,0,107936:0:0:0:0:
329,192,107820,1,0,0:0:0:0:
402,192,108051,128,0,108167:0:0:0:0:
36,192,108051,128,0,108167:0:0:0:0:
475,192,108051,1,0,0:0:0:0:
256,192,108282,128,0,108397:0:0:0:0:
182,192,108282,128,0,108744:0:0:0:0:
475,192,108513,1,0,0:0:0:0:
256,192,108628,128,0,108744:0:0:0:0:
402,192,108744,1,0,0:0:0:0:
36,192,108744,1,0,0:0:0:0:
109,192,108974,128,0,109090:0:0:0:0:
329,192,108974,128,0,109090:0:0:0:0:
36,192,109205,128,0,109436:0:0:0:0:
475,192,109205,128,0,109436:0:0:0:0:
182,192,109205,128,0,109667:0:0:0:0:
256,192,109205,1,0,0:0:0:0:
402,192,109436,128,0,109551:0:0:0:0:
109,192,109436,1,0,0:0:0:0:
109,192,109667,128,0,109782:0:0:0:0:
329,192,109667,1,0,0:0:0:0:
402,192,109897,128,0,110013:0:0:0:0:
329,192,109897,128,0,110128:0:0:0:0:
36,192,109897,1,0,0:0:0:0:
182,192,110128,128,0,110244:0:0:0:0:
475,192,110128,1,0,0:0:0:0:
402,192,110244,1,0,0:0:0:0:
109,192,110359,128,0,110590:0:0:0:0:
475,192,110359,1,0,0:0:0:0:
329,192,110474,128,0,110590:0:0:0:0:
475,192,110590,1,0,0:0:0:0:
36,192,110820,128,0,110936:0:0:0:0:
475,192,110820,1,0,0:0:0:0:
256,192,110820,1,0,0:0:0:0:
329,192,110936,128,0,111051:0:0:0:0:
182,192,110936,128,0,111051:0:0:0:0:
402,192,110936,1,0,0:0:0:0:
109,192,111051,128,0,111282:0:0:0:0:
402,192,111051,128,0,111282:0:0:0:0:
475,192,111051,128,0,111513:0:0:0:0:
256,192,111167,1,0,0:0:0:0:
329,192,111282,128,0,111397:0:0:0:0:
36,192,111282,1,0,0:0:0:0:
182,192,111513,128,0,111628:0:0:0:0:
36,192,111513,1,0,0:0:0:0:
329,192,111744,128,0,111859:0:0:0:0:
36,192,111744,128,0,111859:0:0:0:0:
109,192,111744,1,0,0:0:0:0:
256,192,111974,128,0,112090:0:0:0:0:
475,192,111974,128,0,112205:0:0:0:0:
402,192,111974,1,0,0:0:0:0:
329,192,112090,1,0,0:0:0:0:
182,192,112205,128,0,112320:0:0:0:0:
109,192,112205,1,0,0:0:0:0:
256,192,112320,128,0,112436:0:0:0:0:
36,192,112320,128,0,112436:0:0:0:0:
402,192,112320,1,0,0:0:0:0:
475,192,112436,128,0,112667:0:0:0:0:
329,192,112436,1,0,0:0:0:0:
109,192,112667,128,0,112782:0:0:0:0:
329,192,112667,128,0,112897:0:0:0:0:
182,192,112667,1,0,0:0:0:0:
256,192,112897,128,0,113128:0:0:0:0:
36,192,112897,1,0,0:0:0:0:
475,192,112897,1,0,0:0:0:0:
182,192,113128,128,0,113820:0:0:0:0:
36,192,113128,128,0,113359:0:0:0:0:
329,192,113128,1,0,0:0:0:0:
475,192,113128,1,0,0:0:0:0:
329,192,113359,128,0,113820:0:0:0:0:
475,192,113359,1,0,0:0:0:0:
475,192,113590,128,0,113820:0:0:0:0:
36,192,113590,1,0,0:0:0:0:
36,192,113820,1,0,0:0:0:0:
402,192,113820,128,0,114282:0:0:0:0:
475,192,114051,128,0,114282:0:0:0:0:
182,192,114051,1,0,0:0:0:0:
36,192,114051,1,0,0:0:0:0:
329,192,114051,128,0,114744:0:0:0:0:
182,192,114282,128,0,114744:0:0:0:0:
36,192,114282,1,0,0:0:0:0:
109,192,114282,128,0,114744:0:0:0:0:
36,192,114513,128,0,114744:0:0:0:0:
475,192,114513,1,0,0:0:0:0:
475,192,114744,1,0,0:0:0:0:
256,192,114974,1,0,0:0:0:0:
402,192,114974,128,0,115090:0:0:0:0:
109,192,115205,128,0,115320:0:0:0:0:
329,192,115205,1,0,0:0:0:0:
402,192,115436,128,0,115551:0:0:0:0:
36,192,115436,128,0,115551:0:0:0:0:
475,192,115436,1,0,0:0:0:0:
329,192,115551,1,0,0:0:0:0:
182,192,115667,128,0,116128:0:0:0:0:
256,192,115667,128,0,115782:0:0:0:0:
475,192,115667,1,0,0:0:0:0:
329,192,115782,1,0,0:0:0:0:
475,192,115897,1,0,0:0:0:0:
256,192,116013,128,0,116128:0:0:0:0:
329,192,116013,1,0,0:0:0:0:
36,192,116128,1,0,0:0:0:0:
402,192,116128,1,0,0:0:0:0:
329,192,116359,128,0,116474:0:0:0:0:
109,192,116359,128,0,116474:0:0:0:0:
475,192,116359,1,0,0:0:0:0:
475,192,116590,128,0,116820:0:0:0:0:
182,192,116590,128,0,117051:0:0:0:0:
36,192,116590,128,0,116820:0:0:0:0:
256,192,116590,1,0,0:0:0:0:
402,192,116820,128,0,116936:0:0:0:0:
109,192,116820,1,0,0:0:0:0:
329,192,117051,1,0,0:0:0:0:
109,192,117051,128,0,117167:0:0:0:0:
329,192,117282,128,0,117513:0:0:0:0:
402,192,117282,128,0,117397:0:0:0:0:
36,192,117282,1,0,0:0:0:0:
109,192,117397,1,0,0:0:0:0:
475,192,117513,1,0,0:0:0:0:
182,192,117513,128,0,117628:0:0:0:0:
402,192,117744,1,0,0:0:0:0:
109,192,117744,128,0,117974:0:0:0:0:
329,192,117859,128,0,117974:0:0:0:0:
182,192,117859,1,0,0:0:0:0:
475,192,117974,1,0,0:0:0:0:
36,192,118205,128,0,118320:0:0:0:0:
256,192,118205,1,0,0:0:0:0:
475,192,118205,1,0,0:0:0:0:
329,192,118320,128,0,118436:0:0:0:0:
182,192,118320,128,0,118436:0:0:0:0:
109,192,118436,128,0,118667:0:0:0:0:
475,192,118436,128,0,118897:0:0:0:0:
402,192,118436,128,0,118667:0:0:0:0:
182,192,118667,1,0,0:0:0:0:
329,192,118667,128,0,118782:0:0:0:0:
256,192,118782,1,0,0:0:0:0:
36,192,118897,1,0,0:0:0:0:
182,192,118897,128,0,119013:0:0:0:0:
329,192,119128,128,0,119244:0:0:0:0:
36,192,119128,128,0,119244:0:0:0:0:
109,192,119128,1,0,0:0:0:0:
182,192,119244,1,0,0:0:0:0:
256,192,119359,128,0,119474:0:0:0:0:
475,192,119359,128,0,119590:0:0:0:0:
402,192,119359,1,0,0:0:0:0:
109,192,119359,1,0,0:0:0:0:
36,192,119474,1,0,0:0:0:0:
109,192,119590,1,0,0:0:0:0:
182,192,119590,128,0,119705:0:0:0:0:
36,192,119705,128,0,119820:0:0:0:0:
256,192,119705,128,0,119820:0:0:0:0:
402,192,119705,1,0,0:0:0:0:
329,192,119820,1,0,0:0:0:0:
475,192,119820,128,0,120051:0:0:0:0:
109,192,120051,128,0,120167:0:0:0:0:
182,192,120051,1,0,0:0:0:0:
329,192,120051,128,0,120282:0:0:0:0:
256,192,120167,1,0,0:0:0:0:
36,192,120282,1,0,0:0:0:0:
182,192,120282,1,0,0:0:0:0:
475,192,120282,1,0,0:0:0:0:
109,192,120513,128,0,121205:0:0:0:0:
256,192,120744,128,0,121436:0:0:0:0:
402,192,120974,128,0,121667:0:0:0:0:
36,192,121205,128,0,122128:0:0:0:0:
182,192,121436,128,0,122128:0:0:0:0:
329,192,121667,128,0,122128:0:0:0:0:
475,192,121897,128,0,122128:0:0:0:0:
402,192,122359,128,0,123974:0:0:0:0:
109,192,122359,128,0,123974:0:0:0:0:
182,192,124668,128,0,124968:0:0:0:0:
329,192,124668,128,0,124968:0:0:0:0:
475,192,124668,1,0,0:0:0:0:
36,192,124668,1,0,0:0:0:0:
475,192,124968,1,0,0:0:0:0:
182,192,125118,128,0,125268:0:0:0:0:
329,192,125118,128,0,125268:0:0:0:0:
36,192,125118,1,0,0:0:0:0:
109,192,125268,1,0,0:0:0:0:
402,192,125268,1,0,0:0:0:0:
475,192,125418,1,0,0:0:0:0:
256,192,125568,1,0,0:0:0:0:
36,192,125718,1,0,0:0:0:0:
329,192,125868,128,0,126168:0:0:0:0:
182,192,125868,128,0,126168:0:0:0:0:
109,192,125868,1,0,0:0:0:0:
402,192,125868,1,0,0:0:0:0:
402,192,126168,1,0,0:0:0:0:
182,192,126318,128,0,126468:0:0:0:0:
329,192,126318,128,0,126468:0:0:0:0:
109,192,126318,1,0,0:0:0:0:
36,192,126468,1,0,0:0:0:0:
475,192,126468,1,0,0:0:0:0:
109,192,126618,1,0,0:0:0:0:
402,192,126618,1,0,0:0:0:0:
329,192,126768,1,0,0:0:0:0:
182,192,126768,1,0,0:0:0:0:
256,192,126918,1,0,0:0:0:0:
182,192,127068,128,0,127368:0:0:0:0:
329,192,127068,128,0,127368:0:0:0:0:
109,192,127068,1,0,0:0:0:0:
402,192,127068,1,0,0:0:0:0:
256,192,127368,1,0,0:0:0:0:
329,192,127518,128,0,127668:0:0:0:0:
182,192,127518,128,0,127668:0:0:0:0:
36,192,127518,1,0,0:0:0:0:
475,192,127518,1,0,0:0:0:0:
109,192,127668,1,0,0:0:0:0:
402,192,127668,1,0,0:0:0:0:
36,192,127818,1,0,0:0:0:0:
475,192,127968,1,0,0:0:0:0:
109,192,128118,1,0,0:0:0:0:
256,192,128118,1,0,0:0:0:0:
329,192,128268,128,0,128568:0:0:0:0:
182,192,128268,128,0,128568:0:0:0:0:
36,192,128268,1,0,0:0:0:0:
475,192,128268,1,0,0:0:0:0:
256,192,128343,1,0,0:0:0:0:
109,192,128418,1,0,0:0:0:0:
402,192,128418,1,0,0:0:0:0:
256,192,128493,1,0,0:0:0:0:
36,192,128568,1,0,0:0:0:0:
475,192,128568,1,0,0:0:0:0:
182,192,128718,128,0,128868:0:0:0:0:
329,192,128718,128,0,128868:0:0:0:0:
256,192,128718,1,0,0:0:0:0:
36,192,128868,128,0,129018:0:0:0:0:
475,192,128868,128,0,129018:0:0:0:0:
402,192,129018,128,0,129168:0:0:0:0:
109,192,129018,128,0,129168:0:0:0:0:
182,192,129168,128,0,129318:0:0:0:0:
329,192,129168,128,0,129318:0:0:0:0:
256,192,129468,128,0,129768:0:0:0:0:
36,192,129468,128,0,129768:0:0:0:0:
475,192,129468,128,0,129768:0:0:0:0:
402,192,129768,1,0,0:0:0:0:
256,192,129918,1,0,0:0:0:0:
475,192,129918,1,0,0:0:0:0:
402,192,130068,1,0,0:0:0:0:
182,192,130068,1,0,0:0:0:0:
36,192,130068,128,0,131868:0:0:0:0:
329,192,130218,1,0,0:0:0:0:
475,192,130368,1,0,0:0:0:0:
402,192,130518,1,0,0:0:0:0:
256,192,130518,1,0,0:0:0:0:
109,192,130518,1,0,0:0:0:0:
329,192,130668,1,0,0:0:0:0:
182,192,130668,128,0,131868:0:0:0:0:
256,192,130968,1,0,0:0:0:0:
402,192,130968,1,0,0:0:0:0:
109,192,130968,1,0,0:0:0:0:
475,192,131118,1,0,0:0:0:0:
402,192,131268,1,0,0:0:0:0:
109,192,131268,1,0,0:0:0:0:
329,192,131418,1,0,0:0:0:0:
256,192,131568,1,0,0:0:0:0:
475,192,131718,1,0,0:0:0:0:
329,192,131868,1,0,0:0:0:0:
402,192,131868,1,0,0:0:0:0:
109,192,131868,128,0,133068:0:0:0:0:
402,192,132168,1,0,0:0:0:0:
256,192,132318,1,0,0:0:0:0:
475,192,132318,1,0,0:0:0:0:
182,192,132468,1,0,0:0:0:0:
402,192,132468,1,0,0:0:0:0:
36,192,132468,1,0,0:0:0:0:
329,192,132618,1,0,0:0:0:0:
475,192,132768,1,0,0:0:0:0:
256,192,132918,1,0,0:0:0:0:
402,192,132918,1,0,0:0:0:0:
182,192,132918,1,0,0:0:0:0:
36,192,133068,128,0,133668:0:0:0:0:
475,192,133068,1,0,0:0:0:0:
329,192,133068,1,0,0:0:0:0:
256,192,133368,1,0,0:0:0:0:
109,192,133368,1,0,0:0:0:0:
402,192,133368,1,0,0:0:0:0:
475,192,133518,1,0,0:0:0:0:
402,192,133668,1,0,0:0:0:0:
109,192,133668,1,0,0:0:0:0:
329,192,133818,1,0,0:0:0:0:
256,192,133968,1,0,0:0:0:0:
475,192,134118,1,0,0:0:0:0:
402,192,134268,1,0,0:0:0:0:
182,192,134268,1,0,0:0:0:0:
36,192,134268,128,0,136668:0:0:0:0:
402,192,134568,1,0,0:0:0:0:
475,192,134718,1,0,0:0:0:0:
256,192,134718,1,0,0:0:0:0:
402,192,134868,1,0,0:0:0:0:
182,192,134868,1,0,0:0:0:0:
109,192,134868,1,0,0:0:0:0:
329,192,135018,1,0,0:0:0:0:
475,192,135168,1,0,0:0:0:0:
256,192,135318,1,0,0:0:0:0:
402,192,135318,1,0,0:0:0:0:
109,192,135318,1,0,0:0:0:0:
329,192,135468,1,0,0:0:0:0:
182,192,135468,128,0,136668:0:0:0:0:
256,192,135768,1,0,0:0:0:0:
402,192,135768,1,0,0:0:0:0:
109,192,135768,1,0,0:0:0:0:
475,192,135918,1,0,0:0:0:0:
402,192,136068,1,0,0:0:0:0:
109,192,136068,1,0,0:0:0:0:
329,192,136218,1,0,0:0:0:0:
256,192,136368,1,0,0:0:0:0:
475,192,136518,1,0,0:0:0:0:
329,192,136668,1,0,0:0:0:0:
402,192,136668,1,0,0:0:0:0:
402,192,136968,1,0,0:0:0:0:
256,192,137118,1,0,0:0:0:0:
475,192,137118,1,0,0:0:0:0:
182,192,137268,1,0,0:0:0:0:
402,192,137268,1,0,0:0:0:0:
36,192,137268,1,0,0:0:0:0:
329,192,137418,1,0,0:0:0:0:
475,192,137568,1,0,0:0:0:0:
402,192,137718,1,0,0:0:0:0:
256,192,137718,1,0,0:0:0:0:
36,192,137718,1,0,0:0:0:0:
329,192,137868,1,0,0:0:0:0:
182,192,137868,1,0,0:0:0:0:
109,192,138168,1,0,0:0:0:0:
402,192,138168,1,0,0:0:0:0:
256,192,138168,1,0,0:0:0:0:
36,192,138468,1,0,0:0:0:0:
182,192,138468,1,0,0:0:0:0:
329,192,138468,1,0,0:0:0:0:
475,192,138468,1,0,0:0:0:0:
402,192,139068,1,0,0:0:0:0:
109,192,139518,1,0,0:0:0:0:
402,192,139968,1,0,0:0:0:0:
256,192,140118,1,0,0:0:0:0:
109,192,140268,1,0,0:0:0:0:
402,192,140718,1,0,0:0:0:0:
109,192,141018,1,0,0:0:0:0:
402,192,141318,1,0,0:0:0:0:
256,192,141468,1,0,0:0:0:0:
402,192,141918,1,0,0:0:0:0:
109,192,142218,1,0,0:0:0:0:
329,192,142518,1,0,0:0:0:0:
256,192,142668,1,0,0:0:0:0:
182,192,142818,1,0,0:0:0:0:
109,192,143118,1,0,0:0:0:0:
402,192,143118,1,0,0:0:0:0:
256,192,143418,1,0,0:0:0:0:
36,192,143568,128,0,143868:0:0:0:0:
475,192,143568,128,0,143868:0:0:0:0:
256,192,145068,1,0,0:0:0:0:
36,192,145068,1,0,0:0:0:0:
475,192,145068,1,0,0:0:0:0:
182,192,145068,1,0,0:0:0:0:
329,192,145218,1,0,0:0:0:0:
402,192,145353,128,0,146103:0:0:0:0:
109,192,145353,1,0,0:0:0:0:
182,192,145653,1,0,0:0:0:0:
256,192,145803,1,0,0:0:0:0:
36,192,145803,1,0,0:0:0:0:
109,192,146103,1,0,0:0:0:0:
475,192,146253,1,0,0:0:0:0:
36,192,146253,1,0,0:0:0:0:
182,192,146253,1,0,0:0:0:0:
329,192,146403,128,0,146853:0:0:0:0:
256,192,146403,1,0,0:0:0:0:
36,192,146553,1,0,0:0:0:0:
475,192,146553,1,0,0:0:0:0:
182,192,146553,1,0,0:0:0:0:
109,192,146853,1,0,0:0:0:0:
256,192,147003,1,0,0:0:0:0:
182,192,147003,1,0,0:0:0:0:
475,192,147153,1,0,0:0:0:0:
36,192,147153,1,0,0:0:0:0:
329,192,147303,1,0,0:0:0:0:
109,192,147303,1,0,0:0:0:0:
256,192,147303,1,0,0:0:0:0:
475,192,147453,1,0,0:0:0:0:
182,192,147453,1,0,0:0:0:0:
329,192,147603,1,0,0:0:0:0:
36,192,147603,1,0,0:0:0:0:
402,192,147753,128,0,148503:0:0:0:0:
109,192,147753,1,0,0:0:0:0:
256,192,147753,1,0,0:0:0:0:
182,192,147903,1,0,0:0:0:0:
36,192,148053,1,0,0:0:0:0:
329,192,148203,1,0,0:0:0:0:
109,192,148203,1,0,0:0:0:0:
182,192,148503,1,0,0:0:0:0:
329,192,148503,1,0,0:0:0:0:
475,192,148653,1,0,0:0:0:0:
109,192,148653,1,0,0:0:0:0:
329,192,148803,128,0,149553:0:0:0:0:
256,192,148803,1,0,0:0:0:0:
36,192,148803,1,0,0:0:0:0:
109,192,148953,1,0,0:0:0:0:
402,192,148953,1,0,0:0:0:0:
475,192,148953,1,0,0:0:0:0:
256,192,149103,1,0,0:0:0:0:
36,192,149253,1,0,0:0:0:0:
109,192,149403,1,0,0:0:0:0:
402,192,149403,1,0,0:0:0:0:
475,192,149703,1,0,0:0:0:0:
256,192,149703,1,0,0:0:0:0:
402,192,149853,1,0,0:0:0:0:
36,192,149853,1,0,0:0:0:0:
182,192,149853,1,0,0:0:0:0:
329,192,150003,1,0,0:0:0:0:
109,192,150003,1,0,0:0:0:0:
475,192,150153,1,0,0:0:0:0:
182,192,150153,1,0,0:0:0:0:
256,192,150153,1,0,0:0:0:0:
329,192,150303,1,0,0:0:0:0:
475,192,150453,1,0,0:0:0:0:
109,192,150453,1,0,0:0:0:0:
256,192,150603,1,0,0:0:0:0:
36,192,150603,1,0,0:0:0:0:
182,192,150603,1,0,0:0:0:0:
402,192,150753,1,0,0:0:0:0:
182,192,150903,1,0,0:0:0:0:
36,192,151053,1,0,0:0:0:0:
256,192,151053,1,0,0:0:0:0:
475,192,151203,1,0,0:0:0:0:
182,192,151203,1,0,0:0:0:0:
329,192,151353,1,0,0:0:0:0:
109,192,151353,1,0,0:0:0:0:
402,192,151503,1,0,0:0:0:0:
256,192,151653,1,0,0:0:0:0:
36,192,151653,1,0,0:0:0:0:
329,192,151803,1,0,0:0:0:0:
109,192,151803,1,0,0:0:0:0:
475,192,151803,1,0,0:0:0:0:
402,192,151953,1,0,0:0:0:0:
182,192,152103,1,0,0:0:0:0:
36,192,152103,1,0,0:0:0:0:
329,192,152253,1,0,0:0:0:0:
256,192,152403,1,0,0:0:0:0:
109,192,152403,1,0,0:0:0:0:
402,192,152553,1,0,0:0:0:0:
36,192,152553,1,0,0:0:0:0:
475,192,152553,1,0,0:0:0:0:
182,192,152553,1,0,0:0:0:0:
329,192,152703,1,0,0:0:0:0:
475,192,152853,1,0,0:0:0:0:
256,192,152853,1,0,0:0:0:0:
402,192,153003,1,0,0:0:0:0:
182,192,153003,1,0,0:0:0:0:
36,192,153003,1,0,0:0:0:0:
256,192,153153,1,0,0:0:0:0:
329,192,153303,1,0,0:0:0:0:
109,192,153303,1,0,0:0:0:0:
475,192,153453,1,0,0:0:0:0:
36,192,153453,128,0,153753:0:0:0:0:
329,192,153603,1,0,0:0:0:0:
475,192,153753,1,0,0:0:0:0:
402,192,153753,128,0,154053:0:0:0:0:
329,192,153903,1,0,0:0:0:0:
182,192,154053,1,0,0:0:0:0:
256,192,154053,128,0,154203:0:0:0:0:
36,192,154203,1,0,0:0:0:0:
329,192,154203,1,0,0:0:0:0:
475,192,154203,1,0,0:0:0:0:
109,192,154353,1,0,0:0:0:0:
182,192,154353,128,0,154503:0:0:0:0:
402,192,154353,1,0,0:0:0:0:
329,192,154503,1,0,0:0:0:0:
475,192,154653,1,0,0:0:0:0:
36,192,154653,128,0,154953:0:0:0:0:
256,192,154653,1,0,0:0:0:0:
329,192,154803,1,0,0:0:0:0:
402,192,154953,128,0,155703:0:0:0:0:
182,192,154953,1,0,0:0:0:0:
256,192,154953,1,0,0:0:0:0:
36,192,155253,1,0,0:0:0:0:
109,192,155403,1,0,0:0:0:0:
329,192,155403,1,0,0:0:0:0:
256,192,155703,1,0,0:0:0:0:
475,192,155853,1,0,0:0:0:0:
182,192,155853,1,0,0:0:0:0:
36,192,155853,1,0,0:0:0:0:
329,192,156003,128,0,156453:0:0:0:0:
109,192,156003,1,0,0:0:0:0:
256,192,156003,1,0,0:0:0:0:
182,192,156153,1,0,0:0:0:0:
402,192,156153,1,0,0:0:0:0:
36,192,156453,1,0,0:0:0:0:
109,192,156603,1,0,0:0:0:0:
256,192,156603,1,0,0:0:0:0:
475,192,156753,1,0,0:0:0:0:
182,192,156753,1,0,0:0:0:0:
329,192,156903,1,0,0:0:0:0:
36,192,156903,1,0,0:0:0:0:
475,192,157053,1,0,0:0:0:0:
109,192,157053,1,0,0:0:0:0:
329,192,157203,1,0,0:0:0:0:
182,192,157203,1,0,0:0:0:0:
475,192,157203,1,0,0:0:0:0:
402,192,157353,128,0,158103:0:0:0:0:
109,192,157353,1,0,0:0:0:0:
182,192,157653,1,0,0:0:0:0:
36,192,157803,1,0,0:0:0:0:
256,192,157803,1,0,0:0:0:0:
182,192,158103,1,0,0:0:0:0:
36,192,158103,1,0,0:0:0:0:
475,192,158253,1,0,0:0:0:0:
256,192,158253,1,0,0:0:0:0:
329,192,158403,128,0,159153:0:0:0:0:
109,192,158403,1,0,0:0:0:0:
402,192,158403,1,0,0:0:0:0:
36,192,158553,1,0,0:0:0:0:
256,192,158553,1,0,0:0:0:0:
475,192,158553,1,0,0:0:0:0:
182,192,158703,1,0,0:0:0:0:
109,192,158853,1,0,0:0:0:0:
182,192,159003,1,0,0:0:0:0:
475,192,159003,1,0,0:0:0:0:
36,192,159153,1,0,0:0:0:0:
109,192,159303,1,0,0:0:0:0:
256,192,159303,1,0,0:0:0:0:
475,192,159453,1,0,0:0:0:0:
36,192,159453,1,0,0:0:0:0:
329,192,159603,1,0,0:0:0:0:
109,192,159603,1,0,0:0:0:0:
402,192,159753,1,0,0:0:0:0:
182,192,159753,1,0,0:0:0:0:
36,192,159753,1,0,0:0:0:0:
475,192,160053,1,0,0:0:0:0:
109,192,160053,1,0,0:0:0:0:
256,192,160203,1,0,0:0:0:0:
36,192,160203,1,0,0:0:0:0:
329,192,160203,1,0,0:0:0:0:
402,192,160353,1,0,0:0:0:0:
182,192,160503,1,0,0:0:0:0:
329,192,160503,1,0,0:0:0:0:
256,192,160653,1,0,0:0:0:0:
402,192,160653,1,0,0:0:0:0:
36,192,160653,1,0,0:0:0:0:
475,192,160803,1,0,0:0:0:0:
109,192,160803,1,0,0:0:0:0:
329,192,160953,1,0,0:0:0:0:
182,192,160953,1,0,0:0:0:0:
36,192,160953,1,0,0:0:0:0:
402,192,161103,1,0,0:0:0:0:
256,192,161253,1,0,0:0:0:0:
109,192,161253,1,0,0:0:0:0:
329,192,161403,1,0,0:0:0:0:
36,192,161403,1,0,0:0:0:0:
475,192,161403,1,0,0:0:0:0:
402,192,161553,1,0,0:0:0:0:
109,192,161553,1,0,0:0:0:0:
182,192,161703,1,0,0:0:0:0:
475,192,161703,1,0,0:0:0:0:
329,192,161853,1,0,0:0:0:0:
36,192,161853,1,0,0:0:0:0:
256,192,162003,1,0,0:0:0:0:
109,192,162003,1,0,0:0:0:0:
402,192,162003,1,0,0:0:0:0:
475,192,162153,1,0,0:0:0:0:
182,192,162153,1,0,0:0:0:0:
36,192,162153,1,0,0:0:0:0:
329,192,162303,1,0,0:0:0:0:
475,192,162453,1,0,0:0:0:0:
109,192,162453,1,0,0:0:0:0:
402,192,162603,1,0,0:0:0:0:
36,192,162603,1,0,0:0:0:0:
182,192,162603,1,0,0:0:0:0:
256,192,162753,1,0,0:0:0:0:
329,192,162903,1,0,0:0:0:0:
109,192,162903,1,0,0:0:0:0:
475,192,163053,1,0,0:0:0:0:
36,192,163053,1,0,0:0:0:0:
256,192,163053,1,0,0:0:0:0:
182,192,163203,1,0,0:0:0:0:
329,192,163203,1,0,0:0:0:0:
109,192,163353,1,0,0:0:0:0:
256,192,163353,1,0,0:0:0:0:
402,192,163353,1,0,0:0:0:0:
182,192,163503,1,0,0:0:0:0:
329,192,163503,1,0,0:0:0:0:
36,192,163578,1,0,0:0:0:0:
475,192,163578,1,0,0:0:0:0:
109,192,163653,1,0,0:0:0:0:
402,192,163653,1,0,0:0:0:0:
36,192,163803,1,0,0:0:0:0:
182,192,163803,1,0,0:0:0:0:
329,192,163803,1,0,0:0:0:0:
475,192,163803,1,0,0:0:0:0:
256,192,163953,1,0,0:0:0:0:
109,192,164103,1,0,0:0:0:0:
402,192,164103,1,0,0:0:0:0:
256,192,164253,1,0,0:0:0:0:
36,192,164253,1,0,0:0:0:0:
475,192,164253,1,0,0:0:0:0:
182,192,164403,1,0,0:0:0:0:
329,192,164403,1,0,0:0:0:0:
109,192,164553,128,0,165303:0:0:0:0:
36,192,164553,1,0,0:0:0:0:
475,192,164553,1,0,0:0:0:0:
402,192,164553,1,0,0:0:0:0:
329,192,164853,1,0,0:0:0:0:
182,192,165003,1,0,0:0:0:0:
475,192,165003,1,0,0:0:0:0:
402,192,165303,1,0,0:0:0:0:
36,192,165453,1,0,0:0:0:0:
256,192,165453,1,0,0:0:0:0:
475,192,165453,1,0,0:0:0:0:
182,192,165603,128,0,166053:0:0:0:0:
402,192,165603,1,0,0:0:0:0:
329,192,165753,1,0,0:0:0:0:
36,192,165753,1,0,0:0:0:0:
475,192,165753,1,0,0:0:0:0:
329,192,166053,1,0,0:0:0:0:
109,192,166203,1,0,0:0:0:0:
256,192,166203,1,0,0:0:0:0:
402,192,166203,1,0,0:0:0:0:
36,192,166353,1,0,0:0:0:0:
182,192,166353,1,0,0:0:0:0:
182,192,166503,1,0,0:0:0:0:
329,192,166503,1,0,0:0:0:0:
36,192,166653,1,0,0:0:0:0:
402,192,166653,1,0,0:0:0:0:
182,192,166803,1,0,0:0:0:0:
475,192,166803,1,0,0:0:0:0:
402,192,166953,1,0,0:0:0:0:
109,192,166953,128,0,167703:0:0:0:0:
256,192,166953,1,0,0:0:0:0:
329,192,167253,1,0,0:0:0:0:
475,192,167403,1,0,0:0:0:0:
182,192,167403,1,0,0:0:0:0:
36,192,167403,1,0,0:0:0:0:
329,192,167703,1,0,0:0:0:0:
475,192,167703,1,0,0:0:0:0:
182,192,167703,1,0,0:0:0:0:
36,192,167853,1,0,0:0:0:0:
256,192,167853,1,0,0:0:0:0:
182,192,168003,128,0,168753:0:0:0:0:
402,192,168003,1,0,0:0:0:0:
475,192,168153,1,0,0:0:0:0:
329,192,168153,1,0,0:0:0:0:
36,192,168153,1,0,0:0:0:0:
256,192,168303,1,0,0:0:0:0:
109,192,168453,1,0,0:0:0:0:
329,192,168603,1,0,0:0:0:0:
475,192,168603,1,0,0:0:0:0:
36,192,168903,1,0,0:0:0:0:
256,192,168903,1,0,0:0:0:0:
475,192,168903,1,0,0:0:0:0:
109,192,169053,1,0,0:0:0:0:
329,192,169053,1,0,0:0:0:0:
182,192,169203,1,0,0:0:0:0:
402,192,169203,1,0,0:0:0:0:
36,192,169353,1,0,0:0:0:0:
475,192,169353,1,0,0:0:0:0:
256,192,169353,1,0,0:0:0:0:
329,192,169353,1,0,0:0:0:0:
182,192,169503,1,0,0:0:0:0:
36,192,169653,1,0,0:0:0:0:
475,192,169653,1,0,0:0:0:0:
256,192,169803,1,0,0:0:0:0:
329,192,169803,1,0,0:0:0:0:
109,192,169803,1,0,0:0:0:0:
182,192,169953,1,0,0:0:0:0:
329,192,170103,1,0,0:0:0:0:
109,192,170103,1,0,0:0:0:0:
256,192,170253,1,0,0:0:0:0:
402,192,170253,1,0,0:0:0:0:
36,192,170403,1,0,0:0:0:0:
329,192,170403,1,0,0:0:0:0:
182,192,170553,1,0,0:0:0:0:
475,192,170553,1,0,0:0:0:0:
402,192,170553,1,0,0:0:0:0:
109,192,170703,1,0,0:0:0:0:
256,192,170853,1,0,0:0:0:0:
402,192,170853,1,0,0:0:0:0:
182,192,171003,1,0,0:0:0:0:
36,192,171003,1,0,0:0:0:0:
475,192,171003,1,0,0:0:0:0:
256,192,171153,1,0,0:0:0:0:
329,192,171303,1,0,0:0:0:0:
109,192,171303,1,0,0:0:0:0:
475,192,171303,1,0,0:0:0:0:
182,192,171453,1,0,0:0:0:0:
402,192,171453,1,0,0:0:0:0:
256,192,171603,1,0,0:0:0:0:
475,192,171603,1,0,0:0:0:0:
36,192,171603,1,0,0:0:0:0:
109,192,171753,1,0,0:0:0:0:
402,192,171753,1,0,0:0:0:0:
329,192,171753,1,0,0:0:0:0:
182,192,171903,1,0,0:0:0:0:
36,192,172053,1,0,0:0:0:0:
256,192,172053,1,0,0:0:0:0:
109,192,172203,1,0,0:0:0:0:
329,192,172203,1,0,0:0:0:0:
475,192,172203,1,0,0:0:0:0:
256,192,172353,1,0,0:0:0:0:
182,192,172503,1,0,0:0:0:0:
475,192,172503,1,0,0:0:0:0:
36,192,172653,1,0,0:0:0:0:
256,192,172653,1,0,0:0:0:0:
402,192,172653,128,0,172953:0:0:0:0:
182,192,172803,1,0,0:0:0:0:
36,192,172953,1,0,0:0:0:0:
109,192,172953,128,0,173253:0:0:0:0:
475,192,172953,1,0,0:0:0:0:
182,192,173103,1,0,0:0:0:0:
329,192,173253,1,0,0:0:0:0:
256,192,173253,128,0,173403:0:0:0:0:
475,192,173403,1,0,0:0:0:0:
36,192,173403,1,0,0:0:0:0:
402,192,173553,128,0,173703:0:0:0:0:
182,192,173703,1,0,0:0:0:0:
329,192,173703,1,0,0:0:0:0:
36,192,173853,128,0,174153:0:0:0:0:
329,192,173853,1,0,0:0:0:0:
475,192,173853,128,0,174153:0:0:0:0:
182,192,174003,1,0,0:0:0:0:
109,192,174153,128,0,174903:0:0:0:0:
256,192,174153,1,0,0:0:0:0:
402,192,174153,1,0,0:0:0:0:
329,192,174453,1,0,0:0:0:0:
182,192,174603,1,0,0:0:0:0:
475,192,174603,1,0,0:0:0:0:
329,192,174903,1,0,0:0:0:0:
475,192,174903,1,0,0:0:0:0:
36,192,175053,1,0,0:0:0:0:
256,192,175053,1,0,0:0:0:0:
402,192,175053,1,0,0:0:0:0:
182,192,175203,128,0,175653:0:0:0:0:
329,192,175203,1,0,0:0:0:0:
36,192,175353,1,0,0:0:0:0:
475,192,175353,1,0,0:0:0:0:
256,192,175353,1,0,0:0:0:0:
402,192,175653,1,0,0:0:0:0:
109,192,175803,1,0,0:0:0:0:
475,192,175803,1,0,0:0:0:0:
329,192,175803,1,0,0:0:0:0:
36,192,175953,1,0,0:0:0:0:
256,192,175953,1,0,0:0:0:0:
182,192,176103,1,0,0:0:0:0:
475,192,176103,1,0,0:0:0:0:
36,192,176253,1,0,0:0:0:0:
329,192,176253,1,0,0:0:0:0:
256,192,176253,1,0,0:0:0:0:
182,192,176403,1,0,0:0:0:0:
475,192,176403,1,0,0:0:0:0:
402,192,176553,1,0,0:0:0:0:
109,192,176553,128,0,177303:0:0:0:0:
256,192,176553,1,0,0:0:0:0:
329,192,176853,1,0,0:0:0:0:
182,192,177003,1,0,0:0:0:0:
402,192,177003,1,0,0:0:0:0:
475,192,177003,1,0,0:0:0:0:
329,192,177303,1,0,0:0:0:0:
475,192,177303,1,0,0:0:0:0:
182,192,177303,1,0,0:0:0:0:
36,192,177453,1,0,0:0:0:0:
402,192,177453,1,0,0:0:0:0:
182,192,177603,128,0,178353:0:0:0:0:
475,192,177603,1,0,0:0:0:0:
256,192,177603,1,0,0:0:0:0:
402,192,177753,1,0,0:0:0:0:
109,192,177753,1,0,0:0:0:0:
36,192,177753,1,0,0:0:0:0:
256,192,177903,1,0,0:0:0:0:
402,192,178053,1,0,0:0:0:0:
36,192,178203,1,0,0:0:0:0:
329,192,178203,1,0,0:0:0:0:
475,192,178203,1,0,0:0:0:0:
256,192,178503,1,0,0:0:0:0:
402,192,178503,1,0,0:0:0:0:
36,192,178653,1,0,0:0:0:0:
329,192,178653,1,0,0:0:0:0:
182,192,178653,1,0,0:0:0:0:
182,192,178803,1,0,0:0:0:0:
329,192,178803,1,0,0:0:0:0:
109,192,178953,1,0,0:0:0:0:
402,192,178953,1,0,0:0:0:0:
256,192,178953,1,0,0:0:0:0:
329,192,179103,1,0,0:0:0:0:
36,192,179253,1,0,0:0:0:0:
402,192,179253,1,0,0:0:0:0:
256,192,179403,1,0,0:0:0:0:
475,192,179403,1,0,0:0:0:0:
182,192,179403,1,0,0:0:0:0:
109,192,179553,1,0,0:0:0:0:
329,192,179703,1,0,0:0:0:0:
36,192,179703,1,0,0:0:0:0:
256,192,179853,1,0,0:0:0:0:
475,192,179853,1,0,0:0:0:0:
109,192,179853,1,0,0:0:0:0:
36,192,180003,1,0,0:0:0:0:
402,192,180003,1,0,0:0:0:0:
182,192,180153,1,0,0:0:0:0:
329,192,180153,1,0,0:0:0:0:
475,192,180153,1,0,0:0:0:0:
109,192,180303,1,0,0:0:0:0:
256,192,180453,1,0,0:0:0:0:
402,192,180453,1,0,0:0:0:0:
182,192,180603,1,0,0:0:0:0:
329,192,180603,1,0,0:0:0:0:
475,192,180603,1,0,0:0:0:0:
109,192,180753,1,0,0:0:0:0:
256,192,180753,1,0,0:0:0:0:
329,192,180903,1,0,0:0:0:0:
36,192,180903,1,0,0:0:0:0:
182,192,181053,1,0,0:0:0:0:
475,192,181053,1,0,0:0:0:0:
256,192,181053,1,0,0:0:0:0:
36,192,181203,1,0,0:0:0:0:
329,192,181203,1,0,0:0:0:0:
109,192,181353,1,0,0:0:0:0:
402,192,181353,1,0,0:0:0:0:
182,192,181503,1,0,0:0:0:0:
36,192,181653,1,0,0:0:0:0:
475,192,181653,1,0,0:0:0:0:
109,192,181803,1,0,0:0:0:0:
402,192,181803,1,0,0:0:0:0:
329,192,181803,1,0,0:0:0:0:
256,192,181953,1,0,0:0:0:0:
182,192,182103,1,0,0:0:0:0:
329,192,182103,1,0,0:0:0:0:
475,192,182253,1,0,0:0:0:0:
36,192,182253,1,0,0:0:0:0:
256,192,182253,1,0,0:0:0:0:
182,192,182403,1,0,0:0:0:0:
329,192,182403,1,0,0:0:0:0:
402,192,182553,1,0,0:0:0:0:
256,192,182553,1,0,0:0:0:0:
109,192,182553,1,0,0:0:0:0:
182,192,182703,1,0,0:0:0:0:
36,192,182778,1,0,0:0:0:0:
109,192,182853,1,0,0:0:0:0:
256,192,182853,1,0,0:0:0:0:
329,192,183003,1,0,0:0:0:0:
475,192,183078,1,0,0:0:0:0:
402,192,183153,1,0,0:0:0:0:
256,192,183153,1,0,0:0:0:0:
182,192,183228,1,0,0:0:0:0:
329,192,183228,1,0,0:0:0:0:
36,192,183303,1,0,0:0:0:0:
475,192,183303,1,0,0:0:0:0:
402,192,183453,1,0,0:0:0:0:
109,192,183453,1,0,0:0:0:0:
182,192,183603,1,0,0:0:0:0:
329,192,183603,1,0,0:0:0:0:
36,192,183753,1,0,0:0:0:0:
256,192,183753,1,0,0:0:0:0:
475,192,183753,1,0,0:0:0:0:
256,192,184053,1,0,0:0:0:0:
36,192,184203,1,0,0:0:0:0:
475,192,184203,1,0,0:0:0:0:
182,192,184203,1,0,0:0:0:0:
329,192,184203,1,0,0:0:0:0:
109,192,184353,1,0,0:0:0:0:
402,192,184503,1,0,0:0:0:0:
109,192,184653,1,0,0:0:0:0:
256,192,184653,1,0,0:0:0:0:
402,192,184653,1,0,0:0:0:0:
256,192,185822,1,0,0:0:0:0:
475,192,185822,1,0,0:0:0:0:
36,192,185822,128,0,186049:0:0:0:0:
109,192,185822,1,0,0:0:0:0:
402,192,186049,1,0,0:0:0:0:
182,192,186049,1,0,0:0:0:0:
475,192,186276,1,0,0:0:0:0:
36,192,186390,128,0,186503:0:0:0:0:
256,192,186503,128,0,186617:0:0:0:0:
402,192,186503,1,0,0:0:0:0:
182,192,186503,1,0,0:0:0:0:
36,192,186731,128,0,186844:0:0:0:0:
109,192,186731,1,0,0:0:0:0:
475,192,186731,1,0,0:0:0:0:
329,192,186958,1,0,0:0:0:0:
256,192,187412,128,0,187640:0:0:0:0:
402,192,187412,1,0,0:0:0:0:
329,192,187526,1,0,0:0:0:0:
36,192,187640,128,0,187753:0:0:0:0:
475,192,187640,1,0,0:0:0:0:
109,192,187640,1,0,0:0:0:0:
402,192,187867,1,0,0:0:0:0:
182,192,187867,1,0,0:0:0:0:
36,192,188094,128,0,188208:0:0:0:0:
256,192,188322,128,0,188435:0:0:0:0:
402,192,188322,1,0,0:0:0:0:
36,192,188549,128,0,188662:0:0:0:0:
182,192,188549,1,0,0:0:0:0:
475,192,188549,1,0,0:0:0:0:
329,192,188549,1,0,0:0:0:0:
402,192,188776,1,0,0:0:0:0:
109,192,188776,1,0,0:0:0:0:
36,192,188890,128,0,189003:0:0:0:0:
36,192,189117,128,0,189231:0:0:0:0:
256,192,189231,128,0,189344:0:0:0:0:
402,192,189231,1,0,0:0:0:0:
36,192,189458,128,0,189572:0:0:0:0:
109,192,189458,1,0,0:0:0:0:
329,192,189458,1,0,0:0:0:0:
475,192,189458,1,0,0:0:0:0:
36,192,189685,128,0,189799:0:0:0:0:
402,192,189685,1,0,0:0:0:0:
182,192,189685,1,0,0:0:0:0:
36,192,190026,128,0,190140:0:0:0:0:
256,192,190140,128,0,190253:0:0:0:0:
475,192,190140,1,0,0:0:0:0:
36,192,190367,128,0,190481:0:0:0:0:
329,192,190367,1,0,0:0:0:0:
402,192,190367,1,0,0:0:0:0:
182,192,190367,1,0,0:0:0:0:
475,192,190594,1,0,0:0:0:0:
256,192,191049,128,0,191276:0:0:0:0:
109,192,191049,1,0,0:0:0:0:
402,192,191049,1,0,0:0:0:0:
475,192,191276,128,0,192185:0:0:0:0:
36,192,191276,128,0,192185:0:0:0:0:
109,192,192185,5,0,0:0:0:0:
402,192,192185,1,0,0:0:0:0:
36,192,193094,128,0,194458:0:0:0:0:
256,192,193094,128,0,194003:0:0:0:0:
475,192,193094,128,0,194003:0:0:0:0:
182,192,193094,1,0,0:0:0:0:
329,192,193094,128,0,193776:0:0:0:0:
109,192,193322,1,0,0:0:0:0:
402,192,193776,1,0,0:0:0:0:
109,192,193890,1,0,0:0:0:0:
182,192,194003,128,0,194685:0:0:0:0:
402,192,194003,1,0,0:0:0:0:
329,192,194003,128,0,194912:0:0:0:0:
475,192,194231,1,0,0:0:0:0:
109,192,194458,128,0,194685:0:0:0:0:
256,192,194685,128,0,195367:0:0:0:0:
402,192,194685,1,0,0:0:0:0:
182,192,194912,128,0,195822:0:0:0:0:
109,192,194912,1,0,0:0:0:0:
36,192,194912,128,0,195594:0:0:0:0:
475,192,194912,128,0,196731:0:0:0:0:
402,192,195140,1,0,0:0:0:0:
329,192,195594,1,0,0:0:0:0:
36,192,195822,128,0,196731:0:0:0:0:
256,192,195822,1,0,0:0:0:0:
329,192,195822,128,0,196731:0:0:0:0:
402,192,196049,1,0,0:0:0:0:
402,192,196503,1,0,0:0:0:0:
109,192,196617,1,0,0:0:0:0:
402,192,196731,128,0,197640:0:0:0:0:
256,192,196731,1,0,0:0:0:0:
182,192,196731,128,0,197640:0:0:0:0:
109,192,196958,1,0,0:0:0:0:
329,192,197412,1,0,0:0:0:0:
256,192,197640,128,0,198549:0:0:0:0:
36,192,197640,1,0,0:0:0:0:
475,192,197640,128,0,198549:0:0:0:0:
329,192,197640,1,0,0:0:0:0:
109,192,197867,1,0,0:0:0:0:
329,192,198322,1,0,0:0:0:0:
402,192,198435,1,0,0:0:0:0:
109,192,198549,128,0,199231:0:0:0:0:
36,192,198549,1,0,0:0:0:0:
182,192,198549,1,0,0:0:0:0:
329,192,198549,128,0,199458:0:0:0:0:
402,192,198776,1,0,0:0:0:0:
256,192,199231,1,0,0:0:0:0:
475,192,199458,128,0,199685:0:0:0:0:
36,192,199458,1,0,0:0:0:0:
329,192,199685,128,0,199912:0:0:0:0:
182,192,199685,1,0,0:0:0:0:
182,192,199912,128,0,200140:0:0:0:0:
36,192,199912,1,0,0:0:0:0:
475,192,199912,1,0,0:0:0:0:
402,192,200026,1,0,0:0:0:0:
36,192,200140,128,0,200367:0:0:0:0:
475,192,200140,1,0,0:0:0:0:
402,192,200197,1,0,0:0:0:0:
329,192,200253,1,0,0:0:0:0:
256,192,200310,1,0,0:0:0:0:
182,192,200367,1,0,0:0:0:0:
475,192,200367,128,0,200822:0:0:0:0:
329,192,200367,128,0,201276:0:0:0:0:
109,192,200594,1,0,0:0:0:0:
182,192,200822,128,0,201276:0:0:0:0:
109,192,201049,1,0,0:0:0:0:
36,192,201276,128,0,202867:0:0:0:0:
475,192,201276,1,0,0:0:0:0:
329,192,201503,1,0,0:0:0:0:
256,192,201731,128,0,202867:0:0:0:0:
475,192,201958,1,0,0:0:0:0:
329,192,202072,1,0,0:0:0:0:
475,192,202185,128,0,202867:0:0:0:0:
109,192,202185,1,0,0:0:0:0:
402,192,202185,128,0,202412:0:0:0:0:
182,192,202412,1,0,0:0:0:0:
329,192,202412,128,0,202640:0:0:0:0:
182,192,202640,128,0,202867:0:0:0:0:
109,192,202867,128,0,203094:0:0:0:0:
402,192,202867,1,0,0:0:0:0:
402,192,203094,128,0,204003:0:0:0:0:
475,192,203094,1,0,0:0:0:0:
36,192,203094,128,0,203322:0:0:0:0:
182,192,203094,1,0,0:0:0:0:
256,192,203322,1,0,0:0:0:0:
182,192,203435,128,0,203776:0:0:0:0:
109,192,203549,128,0,204458:0:0:0:0:
256,192,203776,1,0,0:0:0:0:
329,192,203776,128,0,204003:0:0:0:0:
475,192,204003,128,0,204912:0:0:0:0:
36,192,204003,1,0,0:0:0:0:
182,192,204003,1,0,0:0:0:0:
256,192,204231,1,0,0:0:0:0:
36,192,204458,128,0,205367:0:0:0:0:
256,192,204685,1,0,0:0:0:0:
329,192,204912,128,0,205822:0:0:0:0:
182,192,204912,1,0,0:0:0:0:
256,192,205140,1,0,0:0:0:0:
182,192,205367,128,0,206503:0:0:0:0:
475,192,205594,1,0,0:0:0:0:
256,192,205708,1,0,0:0:0:0:
36,192,205822,128,0,206731:0:0:0:0:
475,192,205822,128,0,206731:0:0:0:0:
402,192,206049,1,0,0:0:0:0:
329,192,206276,1,0,0:0:0:0:
256,192,206503,128,0,206731:0:0:0:0:
402,192,206503,1,0,0:0:0:0:
109,192,206731,128,0,207185:0:0:0:0:
402,192,206731,128,0,207185:0:0:0:0:
256,192,206958,1,0,0:0:0:0:
475,192,207185,1,0,0:0:0:0:
329,192,207185,1,0,0:0:0:0:
402,192,207299,1,0,0:0:0:0:
182,192,207299,1,0,0:0:0:0:
329,192,207412,1,0,0:0:0:0:
182,192,207469,1,0,0:0:0:0:
256,192,207526,1,0,0:0:0:0:
109,192,207526,1,0,0:0:0:0:
475,192,207583,1,0,0:0:0:0:
36,192,207640,128,0,208549:0:0:0:0:
329,192,207640,128,0,209231:0:0:0:0:
256,192,207640,128,0,208549:0:0:0:0:
402,192,207640,1,0,0:0:0:0:
182,192,207867,1,0,0:0:0:0:
402,192,208322,1,0,0:0:0:0:
182,192,208549,128,0,209458:0:0:0:0:
109,192,208549,1,0,0:0:0:0:
475,192,208776,1,0,0:0:0:0:
402,192,209003,128,0,209231:0:0:0:0:
256,192,209003,1,0,0:0:0:0:
475,192,209231,128,0,210083:0:0:0:0:
109,192,209231,1,0,0:0:0:0:
256,192,209344,1,0,0:0:0:0:
329,192,209458,128,0,210367:0:0:0:0:
36,192,209458,1,0,0:0:0:0:
109,192,209685,1,0,0:0:0:0:
256,192,210140,1,0,0:0:0:0:
109,192,210253,1,0,0:0:0:0:
475,192,210367,128,0,211276:0:0:0:0:
36,192,210367,1,0,0:0:0:0:
256,192,210367,1,0,0:0:0:0:
182,192,210367,128,0,211276:0:0:0:0:
109,192,210594,1,0,0:0:0:0:
329,192,211049,1,0,0:0:0:0:
36,192,211049,1,0,0:0:0:0:
402,192,211162,1,0,0:0:0:0:
109,192,211162,1,0,0:0:0:0:
329,192,211276,128,0,212867:0:0:0:0:
36,192,211276,128,0,212867:0:0:0:0:
256,192,211503,1,0,0:0:0:0:
182,192,211958,1,0,0:0:0:0:
109,192,212185,1,0,0:0:0:0:
475,192,212185,1,0,0:0:0:0:
256,192,212412,1,0,0:0:0:0:
402,192,212867,128,0,212981:0:0:0:0:
109,192,212867,1,0,0:0:0:0:
329,192,212981,128,0,213094:0:0:0:0:
182,192,212981,1,0,0:0:0:0:
256,192,213094,128,0,213322:0:0:0:0:
36,192,213094,128,0,213322:0:0:0:0:
402,192,213322,128,0,213776:0:0:0:0:
182,192,213322,128,0,213776:0:0:0:0:
109,192,213322,1,0,0:0:0:0:
256,192,213776,128,0,214231:0:0:0:0:
475,192,213776,128,0,214231:0:0:0:0:
36,192,213776,1,0,0:0:0:0:
109,192,214003,1,0,0:0:0:0:
402,192,214003,1,0,0:0:0:0:
109,192,214231,128,0,214685:0:0:0:0:
329,192,214231,128,0,214685:0:0:0:0:
402,192,214572,1,0,0:0:0:0:
475,192,214685,128,0,214799:0:0:0:0:
36,192,214685,1,0,0:0:0:0:
402,192,214685,1,0,0:0:0:0:
329,192,214742,1,0,0:0:0:0:
256,192,214799,1,0,0:0:0:0:
36,192,214799,128,0,214912:0:0:0:0:
182,192,214856,1,0,0:0:0:0:
109,192,214912,128,0,215594:0:0:0:0:
402,192,214912,128,0,215140:0:0:0:0:
475,192,214912,1,0,0:0:0:0:
329,192,214912,128,0,215367:0:0:0:0:
256,192,215140,1,0,0:0:0:0:
402,192,215367,128,0,216162:0:0:0:0:
256,192,215594,1,0,0:0:0:0:
36,192,215594,128,0,216162:0:0:0:0:
109,192,215822,128,0,216162:0:0:0:0:
182,192,215822,1,0,0:0:0:0:
329,192,215822,1,0,0:0:0:0:
256,192,216049,1,0,0:0:0:0:
36,192,216503,128,0,216958:0:0:0:0:
475,192,216503,1,0,0:0:0:0:
182,192,216503,1,0,0:0:0:0:
475,192,216731,128,0,217412:0:0:0:0:
329,192,216731,1,0,0:0:0:0:
182,192,216731,1,0,0:0:0:0:
109,192,216844,128,0,217640:0:0:0:0:
256,192,216958,1,0,0:0:0:0:
36,192,217185,128,0,218322:0:0:0:0:
402,192,217185,128,0,218322:0:0:0:0:
256,192,217412,1,0,0:0:0:0:
475,192,217640,128,0,218322:0:0:0:0:
329,192,217640,1,0,0:0:0:0:
182,192,217640,128,0,218094:0:0:0:0:
256,192,217867,1,0,0:0:0:0:
329,192,218094,128,0,218549:0:0:0:0:
109,192,218322,128,0,218549:0:0:0:0:
256,192,218322,128,0,219458:0:0:0:0:
475,192,218549,1,0,0:0:0:0:
36,192,218549,1,0,0:0:0:0:
109,192,218776,1,0,0:0:0:0:
402,192,219003,128,0,220367:0:0:0:0:
109,192,219231,1,0,0:0:0:0:
36,192,219458,1,0,0:0:0:0:
475,192,219458,1,0,0:0:0:0:
182,192,219458,128,0,220367:0:0:0:0:
109,192,219685,1,0,0:0:0:0:
109,192,219912,128,0,220367:0:0:0:0:
256,192,220140,1,0,0:0:0:0:
329,192,220253,1,0,0:0:0:0:
36,192,220367,128,0,221731:0:0:0:0:
475,192,220367,1,0,0:0:0:0:
256,192,220367,1,0,0:0:0:0:
182,192,220594,1,0,0:0:0:0:
329,192,220822,1,0,0:0:0:0:
182,192,221049,128,0,221731:0:0:0:0:
475,192,221049,1,0,0:0:0:0:
329,192,221276,128,0,221731:0:0:0:0:
475,192,221276,1,0,0:0:0:0:
109,192,221503,1,0,0:0:0:0:
402,192,221503,1,0,0:0:0:0:
256,192,221731,1,0,0:0:0:0:
475,192,221731,1,0,0:0:0:0:
109,192,221958,1,0,0:0:0:0:
402,192,221958,1,0,0:0:0:0:
182,192,222015,1,0,0:0:0:0:
329,192,222015,1,0,0:0:0:0:
36,192,222072,1,0,0:0:0:0:
475,192,222072,1,0,0:0:0:0:
109,192,222128,1,0,0:0:0:0:
402,192,222128,1,0,0:0:0:0:
36,192,223037,1,0,0:0:0:0:
109,192,223037,1,0,0:0:0:0:
329,192,223037,1,0,0:0:0:0:
475,192,223037,1,0,0:0:0:0:
182,192,223203,1,0,0:0:0:0:
402,192,223370,1,0,0:0:0:0:
109,192,223370,1,0,0:0:0:0:
329,192,223537,1,0,0:0:0:0:
36,192,223537,1,0,0:0:0:0:
182,192,223537,1,0,0:0:0:0:
182,192,223703,1,0,0:0:0:0:
475,192,223703,1,0,0:0:0:0:
402,192,223703,1,0,0:0:0:0:
36,192,223703,1,0,0:0:0:0:
256,192,223870,1,0,0:0:0:0:
402,192,223870,1,0,0:0:0:0:
329,192,224037,1,0,0:0:0:0:
109,192,224037,1,0,0:0:0:0:
256,192,224120,1,0,0:0:0:0:
109,192,224203,1,0,0:0:0:0:
402,192,224203,1,0,0:0:0:0:
475,192,224370,1,0,0:0:0:0:
36,192,224370,1,0,0:0:0:0:
182,192,224370,1,0,0:0:0:0:
109,192,224537,1,0,0:0:0:0:
329,192,224620,1,0,0:0:0:0:
475,192,224703,1,0,0:0:0:0:
256,192,224703,1,0,0:0:0:0:
182,192,224870,1,0,0:0:0:0:
109,192,224870,1,0,0:0:0:0:
402,192,225037,1,0,0:0:0:0:
36,192,225037,1,0,0:0:0:0:
256,192,225037,1,0,0:0:0:0:
475,192,225037,1,0,0:0:0:0:
109,192,225203,1,0,0:0:0:0:
329,192,225203,1,0,0:0:0:0:
182,192,225245,1,0,0:0:0:0:
36,192,225287,1,0,0:0:0:0:
182,192,225370,1,0,0:0:0:0:
402,192,225370,1,0,0:0:0:0:
256,192,225537,1,0,0:0:0:0:
475,192,225537,1,0,0:0:0:0:
329,192,225703,1,0,0:0:0:0:
36,192,225703,1,0,0:0:0:0:
475,192,225703,1,0,0:0:0:0:
109,192,225787,1,0,0:0:0:0:
256,192,225870,1,0,0:0:0:0:
36,192,225870,1,0,0:0:0:0:
329,192,225912,1,0,0:0:0:0:
109,192,225953,1,0,0:0:0:0:
256,192,225974,1,0,0:0:0:0:
329,192,226037,1,0,0:0:0:0:
36,192,226037,1,0,0:0:0:0:
402,192,226203,1,0,0:0:0:0:
109,192,226203,1,0,0:0:0:0:
329,192,226328,1,0,0:0:0:0:
475,192,226328,1,0,0:0:0:0:
109,192,226328,1,0,0:0:0:0:
256,192,226370,1,0,0:0:0:0:
402,192,226370,1,0,0:0:0:0:
182,192,226412,1,0,0:0:0:0:
36,192,226412,1,0,0:0:0:0:
329,192,226412,1,0,0:0:0:0:
109,192,226537,1,0,0:0:0:0:
402,192,226537,1,0,0:0:0:0:
109,192,226703,1,0,0:0:0:0:
36,192,226703,1,0,0:0:0:0:
475,192,226703,1,0,0:0:0:0:
402,192,226787,1,0,0:0:0:0:
182,192,226870,1,0,0:0:0:0:
329,192,226870,1,0,0:0:0:0:
109,192,226953,1,0,0:0:0:0:
402,192,226953,1,0,0:0:0:0:
256,192,227037,1,0,0:0:0:0:
475,192,227037,1,0,0:0:0:0:
36,192,227037,1,0,0:0:0:0:
182,192,227037,1,0,0:0:0:0:
329,192,227037,1,0,0:0:0:0:
329,192,227224,1,0,0:0:0:0:
182,192,227224,1,0,0:0:0:0:
475,192,227224,1,0,0:0:0:0:
256,192,227370,1,0,0:0:0:0:
109,192,227370,1,0,0:0:0:0:
402,192,227370,1,0,0:0:0:0:
182,192,227453,1,0,0:0:0:0:
109,192,227495,1,0,0:0:0:0:
182,192,227537,1,0,0:0:0:0:
36,192,227537,1,0,0:0:0:0:
329,192,227537,1,0,0:0:0:0:
402,192,227578,1,0,0:0:0:0:
475,192,227620,1,0,0:0:0:0:
329,192,227662,1,0,0:0:0:0:
109,192,227703,1,0,0:0:0:0:
256,192,227703,1,0,0:0:0:0:
402,192,227703,1,0,0:0:0:0:
109,192,227870,1,0,0:0:0:0:
329,192,227870,1,0,0:0:0:0:
475,192,227870,1,0,0:0:0:0:
256,192,228037,1,0,0:0:0:0:
402,192,228037,1,0,0:0:0:0:
109,192,228203,1,0,0:0:0:0:
329,192,228203,1,0,0:0:0:0:
475,192,228370,1,0,0:0:0:0:
329,192,228370,1,0,0:0:0:0:
36,192,228370,1,0,0:0:0:0:
109,192,228537,1,0,0:0:0:0:
402,192,228537,1,0,0:0:0:0:
256,192,228620,1,0,0:0:0:0:
402,192,228703,1,0,0:0:0:0:
109,192,228703,1,0,0:0:0:0:
182,192,228870,1,0,0:0:0:0:
475,192,228870,1,0,0:0:0:0:
36,192,229037,1,0,0:0:0:0:
256,192,229037,1,0,0:0:0:0:
475,192,229037,1,0,0:0:0:0:
182,192,229037,1,0,0:0:0:0:
329,192,229203,1,0,0:0:0:0:
182,192,229203,1,0,0:0:0:0:
109,192,229370,1,0,0:0:0:0:
475,192,229370,1,0,0:0:0:0:
256,192,229370,1,0,0:0:0:0:
182,192,229453,1,0,0:0:0:0:
329,192,229537,1,0,0:0:0:0:
109,192,229537,1,0,0:0:0:0:
475,192,229703,1,0,0:0:0:0:
256,192,229703,1,0,0:0:0:0:
36,192,229703,1,0,0:0:0:0:
182,192,229703,1,0,0:0:0:0:
402,192,229745,1,0,0:0:0:0:
475,192,229787,1,0,0:0:0:0:
329,192,229828,1,0,0:0:0:0:
256,192,229912,1,0,0:0:0:0:
182,192,229953,1,0,0:0:0:0:
329,192,229995,1,0,0:0:0:0:
402,192,230037,1,0,0:0:0:0:
182,192,230037,1,0,0:0:0:0:
256,192,230203,1,0,0:0:0:0:
475,192,230203,1,0,0:0:0:0:
36,192,230203,1,0,0:0:0:0:
182,192,230287,1,0,0:0:0:0:
329,192,230370,1,0,0:0:0:0:
109,192,230370,1,0,0:0:0:0:
475,192,230370,1,0,0:0:0:0:
475,192,230537,1,0,0:0:0:0:
182,192,230537,1,0,0:0:0:0:
256,192,230578,1,0,0:0:0:0:
182,192,230620,1,0,0:0:0:0:
475,192,230703,1,0,0:0:0:0:
36,192,230703,1,0,0:0:0:0:
402,192,230870,1,0,0:0:0:0:
182,192,230870,1,0,0:0:0:0:
329,192,230953,1,0,0:0:0:0:
109,192,230953,1,0,0:0:0:0:
256,192,231037,1,0,0:0:0:0:
36,192,231037,1,0,0:0:0:0:
402,192,231037,1,0,0:0:0:0:
475,192,231037,1,0,0:0:0:0:
182,192,231120,1,0,0:0:0:0:
36,192,231203,1,0,0:0:0:0:
182,192,231287,1,0,0:0:0:0:
256,192,231370,1,0,0:0:0:0:
36,192,231370,1,0,0:0:0:0:
475,192,231370,1,0,0:0:0:0:
182,192,231537,1,0,0:0:0:0:
402,192,231537,1,0,0:0:0:0:
256,192,231537,1,0,0:0:0:0:
329,192,231620,1,0,0:0:0:0:
256,192,231724,1,0,0:0:0:0:
109,192,231724,1,0,0:0:0:0:
36,192,231870,1,0,0:0:0:0:
402,192,231870,1,0,0:0:0:0:
109,192,231995,1,0,0:0:0:0:
329,192,231995,1,0,0:0:0:0:
182,192,232078,1,0,0:0:0:0:
402,192,232078,1,0,0:0:0:0:
36,192,232162,1,0,0:0:0:0:
475,192,232162,1,0,0:0:0:0:
109,192,232245,1,0,0:0:0:0:
402,192,232245,1,0,0:0:0:0:
256,192,232328,1,0,0:0:0:0:
256,192,232443,128,0,233068:0:0:0:0:
36,192,234148,1,0,0:0:0:0:
256,192,234148,1,0,0:0:0:0:
475,192,234148,1,0,0:0:0:0:
329,192,234148,1,0,0:0:0:0:
402,192,234231,1,0,0:0:0:0:
182,192,234231,1,0,0:0:0:0:
109,192,234314,1,0,0:0:0:0:
329,192,234314,1,0,0:0:0:0:
36,192,234481,1,0,0:0:0:0:
256,192,234481,1,0,0:0:0:0:
402,192,234481,1,0,0:0:0:0:
475,192,234481,1,0,0:0:0:0:
36,192,234648,1,0,0:0:0:0:
109,192,234648,1,0,0:0:0:0:
475,192,234648,1,0,0:0:0:0:
329,192,234648,1,0,0:0:0:0:
402,192,234814,1,0,0:0:0:0:
182,192,234814,1,0,0:0:0:0:
256,192,234898,1,0,0:0:0:0:
109,192,234981,1,0,0:0:0:0:
475,192,234981,1,0,0:0:0:0:
36,192,235064,1,0,0:0:0:0:
329,192,235064,1,0,0:0:0:0:
182,192,235148,1,0,0:0:0:0:
475,192,235148,1,0,0:0:0:0:
256,192,235148,1,0,0:0:0:0:
109,192,235231,1,0,0:0:0:0:
256,192,235314,1,0,0:0:0:0:
36,192,235314,1,0,0:0:0:0:
402,192,235314,1,0,0:0:0:0:
109,192,235481,1,0,0:0:0:0:
329,192,235481,1,0,0:0:0:0:
475,192,235481,1,0,0:0:0:0:
36,192,235481,1,0,0:0:0:0:
182,192,235648,1,0,0:0:0:0:
402,192,235648,1,0,0:0:0:0:
256,192,235648,1,0,0:0:0:0:
36,192,235814,1,0,0:0:0:0:
109,192,235814,1,0,0:0:0:0:
329,192,235814,1,0,0:0:0:0:
475,192,235981,1,0,0:0:0:0:
182,192,235981,1,0,0:0:0:0:
36,192,235981,1,0,0:0:0:0:
402,192,236148,1,0,0:0:0:0:
109,192,236148,1,0,0:0:0:0:
256,192,236148,1,0,0:0:0:0:
182,192,236314,1,0,0:0:0:0:
36,192,236398,1,0,0:0:0:0:
329,192,236398,1,0,0:0:0:0:
182,192,236481,1,0,0:0:0:0:
402,192,236481,1,0,0:0:0:0:
475,192,236481,1,0,0:0:0:0:
109,192,236564,1,0,0:0:0:0:
182,192,236648,1,0,0:0:0:0:
36,192,236648,1,0,0:0:0:0:
475,192,236648,1,0,0:0:0:0:
329,192,236814,1,0,0:0:0:0:
109,192,236814,1,0,0:0:0:0:
256,192,236814,1,0,0:0:0:0:
475,192,236814,1,0,0:0:0:0:
402,192,236898,1,0,0:0:0:0:
256,192,236981,1,0,0:0:0:0:
109,192,236981,1,0,0:0:0:0:
402,192,237023,1,0,0:0:0:0:
256,192,237064,1,0,0:0:0:0:
402,192,237106,1,0,0:0:0:0:
256,192,237148,1,0,0:0:0:0:
36,192,237148,1,0,0:0:0:0:
109,192,237148,1,0,0:0:0:0:
475,192,237148,1,0,0:0:0:0:
182,192,237314,1,0,0:0:0:0:
402,192,237314,1,0,0:0:0:0:
475,192,237314,1,0,0:0:0:0:
109,192,237314,1,0,0:0:0:0:
329,192,237481,1,0,0:0:0:0:
36,192,237481,1,0,0:0:0:0:
182,192,237648,1,0,0:0:0:0:
109,192,237731,1,0,0:0:0:0:
402,192,237731,1,0,0:0:0:0:
329,192,237814,1,0,0:0:0:0:
182,192,237814,1,0,0:0:0:0:
402,192,237898,1,0,0:0:0:0:
256,192,237981,1,0,0:0:0:0:
36,192,237981,1,0,0:0:0:0:
182,192,237981,1,0,0:0:0:0:
109,192,238148,1,0,0:0:0:0:
402,192,238148,1,0,0:0:0:0:
475,192,238148,1,0,0:0:0:0:
329,192,238148,1,0,0:0:0:0:
402,192,238314,1,0,0:0:0:0:
182,192,238314,1,0,0:0:0:0:
329,192,238370,1,0,0:0:0:0:
475,192,238481,1,0,0:0:0:0:
109,192,238481,1,0,0:0:0:0:
36,192,238481,1,0,0:0:0:0:
402,192,238536,1,0,0:0:0:0:
329,192,238592,1,0,0:0:0:0:
256,192,238648,1,0,0:0:0:0:
36,192,238648,1,0,0:0:0:0:
475,192,238648,1,0,0:0:0:0:
109,192,238814,1,0,0:0:0:0:
402,192,238814,1,0,0:0:0:0:
329,192,238814,1,0,0:0:0:0:
182,192,238898,1,0,0:0:0:0:
36,192,238981,1,0,0:0:0:0:
256,192,238981,1,0,0:0:0:0:
475,192,238981,1,0,0:0:0:0:
109,192,239148,1,0,0:0:0:0:
182,192,239148,1,0,0:0:0:0:
402,192,239148,1,0,0:0:0:0:
36,192,239314,1,0,0:0:0:0:
475,192,239314,1,0,0:0:0:0:
329,192,239314,1,0,0:0:0:0:
109,192,239481,1,0,0:0:0:0:
182,192,239481,1,0,0:0:0:0:
402,192,239481,1,0,0:0:0:0:
109,192,239564,1,0,0:0:0:0:
109,192,239648,1,0,0:0:0:0:
475,192,239648,1,0,0:0:0:0:
182,192,239689,1,0,0:0:0:0:
256,192,239731,1,0,0:0:0:0:
329,192,239773,1,0,0:0:0:0:
402,192,239814,1,0,0:0:0:0:
36,192,239814,1,0,0:0:0:0:
182,192,239814,1,0,0:0:0:0:
109,192,239981,1,0,0:0:0:0:
329,192,239981,1,0,0:0:0:0:
475,192,239981,1,0,0:0:0:0:
402,192,240148,1,0,0:0:0:0:
182,192,240148,1,0,0:0:0:0:
256,192,240314,1,0,0:0:0:0:
36,192,240398,1,0,0:0:0:0:
182,192,240398,1,0,0:0:0:0:
329,192,240481,1,0,0:0:0:0:
109,192,240481,1,0,0:0:0:0:
402,192,240523,1,0,0:0:0:0:
329,192,240564,1,0,0:0:0:0:
256,192,240606,1,0,0:0:0:0:
182,192,240648,1,0,0:0:0:0:
475,192,240648,1,0,0:0:0:0:
36,192,240648,1,0,0:0:0:0:
109,192,240814,1,0,0:0:0:0:
329,192,240814,1,0,0:0:0:0:
402,192,240814,1,0,0:0:0:0:
256,192,240814,1,0,0:0:0:0:
109,192,240981,1,0,0:0:0:0:
329,192,240981,1,0,0:0:0:0:
402,192,240981,1,0,0:0:0:0:
36,192,241148,1,0,0:0:0:0:
475,192,241148,1,0,0:0:0:0:
182,192,241148,1,0,0:0:0:0:
402,192,241148,1,0,0:0:0:0:
36,192,241314,1,0,0:0:0:0:
182,192,241314,1,0,0:0:0:0:
475,192,241314,1,0,0:0:0:0:
256,192,241314,1,0,0:0:0:0:
402,192,241481,1,0,0:0:0:0:
109,192,241481,1,0,0:0:0:0:
329,192,241481,1,0,0:0:0:0:
182,192,241648,1,0,0:0:0:0:
329,192,241648,1,0,0:0:0:0:
109,192,241689,1,0,0:0:0:0:
402,192,241689,1,0,0:0:0:0:
36,192,241814,1,0,0:0:0:0:
475,192,241814,1,0,0:0:0:0:
109,192,241856,1,0,0:0:0:0:
402,192,241856,1,0,0:0:0:0:
182,192,241981,1,0,0:0:0:0:
256,192,241981,1,0,0:0:0:0:
475,192,241981,1,0,0:0:0:0:
36,192,242148,128,0,242314:0:0:0:0:
182,192,242148,128,0,242314:0:0:0:0:
402,192,242148,128,0,242314:0:0:0:0:
36,192,242398,1,0,0:0:0:0:
182,192,242398,1,0,0:0:0:0:
402,192,242398,1,0,0:0:0:0:
256,192,242481,1,0,0:0:0:0:
475,192,242481,1,0,0:0:0:0:
329,192,242481,1,0,0:0:0:0:
256,192,242648,1,0,0:0:0:0:
402,192,242648,1,0,0:0:0:0:
109,192,242648,1,0,0:0:0:0:
36,192,242814,1,0,0:0:0:0:
329,192,242814,1,0,0:0:0:0:
182,192,242856,1,0,0:0:0:0:
36,192,242898,1,0,0:0:0:0:
475,192,242898,1,0,0:0:0:0:
182,192,242939,1,0,0:0:0:0:
36,192,242981,1,0,0:0:0:0:
329,192,242981,1,0,0:0:0:0:
402,192,242981,1,0,0:0:0:0:
109,192,243064,1,0,0:0:0:0:
256,192,243064,1,0,0:0:0:0:
36,192,243148,1,0,0:0:0:0:
475,192,243148,1,0,0:0:0:0:
329,192,243148,1,0,0:0:0:0:
109,192,243314,1,0,0:0:0:0:
402,192,243314,1,0,0:0:0:0:
256,192,243314,1,0,0:0:0:0:
329,192,243481,1,0,0:0:0:0:
182,192,243481,1,0,0:0:0:0:
36,192,243481,1,0,0:0:0:0:
36,192,243648,1,0,0:0:0:0:
475,192,243648,1,0,0:0:0:0:
256,192,243814,1,0,0:0:0:0:
36,192,243814,1,0,0:0:0:0:
109,192,243898,1,0,0:0:0:0:
402,192,243898,1,0,0:0:0:0:
182,192,243939,1,0,0:0:0:0:
475,192,243939,1,0,0:0:0:0:
329,192,243981,1,0,0:0:0:0:
36,192,243981,1,0,0:0:0:0:
402,192,244023,1,0,0:0:0:0:
109,192,244023,1,0,0:0:0:0:
182,192,244148,1,0,0:0:0:0:
329,192,244148,1,0,0:0:0:0:
36,192,244189,1,0,0:0:0:0:
475,192,244189,1,0,0:0:0:0:
109,192,244314,1,0,0:0:0:0:
402,192,244314,1,0,0:0:0:0:
36,192,244481,1,0,0:0:0:0:
475,192,244481,1,0,0:0:0:0:
182,192,244523,1,0,0:0:0:0:
329,192,244523,1,0,0:0:0:0:
402,192,244648,1,0,0:0:0:0:
109,192,244648,1,0,0:0:0:0:
36,192,244814,128,0,245231:0:0:0:0:
475,192,244814,128,0,245231:0:0:0:0:
402,192,245231,1,0,0:0:0:0:
109,192,245231,1,0,0:0:0:0:
329,192,245273,1,0,0:0:0:0:
182,192,245273,1,0,0:0:0:0:
256,192,245314,1,0,0:0:0:0:
182,192,245356,1,0,0:0:0:0:
329,192,245356,1,0,0:0:0:0:
109,192,245398,1,0,0:0:0:0:
402,192,245398,1,0,0:0:0:0:
36,192,245439,1,0,0:0:0:0:
475,192,245439,1,0,0:0:0:0:
256,192,245481,128,0,245814:0:0:0:0:
402,192,245814,1,0,0:0:0:0:
402,192,245898,1,0,0:0:0:0:
402,192,245981,1,0,0:0:0:0:
402,192,246064,1,0,0:0:0:0:
36,192,246148,128,0,246203:0:0:0:0:
182,192,246148,128,0,246203:0:0:0:0:
329,192,246148,128,0,246203:0:0:0:0:
475,192,246148,1,0,0:0:0:0:
36,192,246259,1,0,0:0:0:0:
182,192,246259,128,0,246314:0:0:0:0:
329,192,246259,1,0,0:0:0:0:
475,192,246259,1,0,0:0:0:0:
329,192,246370,128,0,246425:0:0:0:0:
475,192,246370,1,0,0:0:0:0:
182,192,246370,1,0,0:0:0:0:
36,192,246370,1,0,0:0:0:0:
36,192,246481,1,0,0:0:0:0:
182,192,246481,1,0,0:0:0:0:
329,192,246481,1,0,0:0:0:0:
475,192,246481,128,0,246814:0:0:0:0:
329,192,246592,128,0,246814:0:0:0:0:
182,192,246703,128,0,246814:0:0:0:0:
36,192,246814,1,0,0:0:0:0:
109,192,246814,128,0,247148:0:0:0:0:
256,192,246981,128,0,247148:0:0:0:0:
402,192,247148,128,0,247481:0:0:0:0:
256,192,247314,128,0,247481:0:0:0:0:
109,192,247398,128,0,247481:0:0:0:0:
36,192,247481,128,0,247648:0:0:0:0:
475,192,247648,128,0,247814:0:0:0:0:
109,192,247814,128,0,247981:0:0:0:0:
402,192,247814,128,0,247981:0:0:0:0:
36,192,247981,128,0,248148:0:0:0:0:
475,192,247981,128,0,248148:0:0:0:0:
109,192,248148,128,0,248314:0:0:0:0:
402,192,248148,128,0,248314:0:0:0:0:
182,192,248314,128,0,248481:0:0:0:0:
329,192,248314,128,0,248481:0:0:0:0:
256,192,248481,128,0,248647:0:0:0:0:
36,192,248647,128,0,248814:0:0:0:0:
475,192,248647,128,0,248814:0:0:0:0:
402,192,248814,128,0,249481:0:0:0:0:
109,192,248814,128,0,249481:0:0:0:0:
256,192,249481,128,0,249647:0:0:0:0:
36,192,249647,128,0,250147:0:0:0:0:
182,192,249647,128,0,250147:0:0:0:0:
329,192,249647,128,0,250147:0:0:0:0:
475,192,249647,128,0,250147:0:0:0:0:
256,192,250147,128,0,250314:0:0:0:0:
402,192,250147,128,0,250314:0:0:0:0:
109,192,250147,128,0,250314:0:0:0:0:
329,192,250314,128,0,250481:0:0:0:0:
182,192,250314,128,0,250481:0:0:0:0:
36,192,250314,128,0,250481:0:0:0:0:
256,192,250481,128,0,250647:0:0:0:0:
109,192,250481,128,0,250647:0:0:0:0:
182,192,250647,128,0,250814:0:0:0:0:
329,192,250647,128,0,250814:0:0:0:0:
475,192,250647,128,0,250814:0:0:0:0:
402,192,250814,128,0,250981:0:0:0:0:
256,192,250814,128,0,250981:0:0:0:0:
329,192,250981,128,0,251147:0:0:0:0:
475,192,250981,128,0,251147:0:0:0:0:
402,192,251147,128,0,251314:0:0:0:0:
256,192,251147,128,0,251314:0:0:0:0:
182,192,251314,128,0,251481:0:0:0:0:
36,192,251314,128,0,251481:0:0:0:0:
36,192,252502,128,0,253835:0:0:0:0:
475,192,252502,1,0,0:0:0:0:
329,192,252502,1,0,0:0:0:0:
402,192,252668,1,0,0:0:0:0:
256,192,252835,1,0,0:0:0:0:
402,192,253002,1,0,0:0:0:0:
256,192,253168,1,0,0:0:0:0:
475,192,253335,1,0,0:0:0:0:
329,192,253502,1,0,0:0:0:0:
475,192,253668,1,0,0:0:0:0:
182,192,253835,128,0,255168:0:0:0:0:
402,192,253835,1,0,0:0:0:0:
329,192,254002,1,0,0:0:0:0:
475,192,254085,1,0,0:0:0:0:
402,192,254168,1,0,0:0:0:0:
329,192,254335,1,0,0:0:0:0:
475,192,254418,1,0,0:0:0:0:
402,192,254502,1,0,0:0:0:0:
329,192,254668,1,0,0:0:0:0:
475,192,254835,1,0,0:0:0:0:
329,192,254918,1,0,0:0:0:0:
402,192,255002,1,0,0:0:0:0:
329,192,255168,128,0,256502:0:0:0:0:
36,192,255168,1,0,0:0:0:0:
182,192,255335,1,0,0:0:0:0:
36,192,255502,1,0,0:0:0:0:
256,192,255585,1,0,0:0:0:0:
109,192,255752,1,0,0:0:0:0:
182,192,255835,1,0,0:0:0:0:
36,192,255918,1,0,0:0:0:0:
109,192,256002,1,0,0:0:0:0:
256,192,256085,1,0,0:0:0:0:
182,192,256168,1,0,0:0:0:0:
36,192,256252,1,0,0:0:0:0:
182,192,256418,1,0,0:0:0:0:
475,192,256502,128,0,257835:0:0:0:0:
256,192,256585,1,0,0:0:0:0:
109,192,256668,1,0,0:0:0:0:
329,192,256752,1,0,0:0:0:0:
256,192,256918,1,0,0:0:0:0:
256,192,257252,1,0,0:0:0:0:
109,192,257418,1,0,0:0:0:0:
36,192,258791,128,0,259118:0:0:0:0:
109,192,258791,128,0,259444:0:0:0:0:
329,192,258791,1,0,0:0:0:0:
475,192,258791,1,0,0:0:0:0:
182,192,258791,1,0,0:0:0:0:
182,192,259118,128,0,259444:0:0:0:0:
256,192,259118,128,0,259771:0:0:0:0:
402,192,259118,1,0,0:0:0:0:
475,192,259118,1,0,0:0:0:0:
329,192,259444,128,0,259771:0:0:0:0:
475,192,259444,1,0,0:0:0:0:
475,192,259771,128,0,260097:0:0:0:0:
402,192,259771,128,0,260424:0:0:0:0:
36,192,259771,1,0,0:0:0:0:
182,192,259771,1,0,0:0:0:0:
109,192,259934,1,0,0:0:0:0:
329,192,260097,128,0,260587:0:0:0:0:
182,192,260097,1,0,0:0:0:0:
256,192,260097,1,0,0:0:0:0:
256,192,260260,128,0,260913:0:0:0:0:
109,192,260260,1,0,0:0:0:0:
36,192,260424,1,0,0:0:0:0:
182,192,260587,128,0,261240:0:0:0:0:
475,192,260587,1,0,0:0:0:0:
109,192,260587,1,0,0:0:0:0:
402,192,260669,1,0,0:0:0:0:
475,192,260750,1,0,0:0:0:0:
109,192,260913,128,0,261240:0:0:0:0:
402,192,260913,1,0,0:0:0:0:
329,192,261077,1,0,0:0:0:0:
475,192,261077,1,0,0:0:0:0:
475,192,261240,1,0,0:0:0:0:
36,192,261403,128,0,261730:0:0:0:0:
109,192,261403,128,0,262056:0:0:0:0:
402,192,261403,1,0,0:0:0:0:
329,192,261403,1,0,0:0:0:0:
256,192,261567,1,0,0:0:0:0:
475,192,261567,1,0,0:0:0:0:
182,192,261730,128,0,262383:0:0:0:0:
329,192,261730,1,0,0:0:0:0:
475,192,261893,1,0,0:0:0:0:
36,192,261893,1,0,0:0:0:0:
256,192,262056,128,0,262709:0:0:0:0:
402,192,262056,1,0,0:0:0:0:
329,192,262056,1,0,0:0:0:0:
475,192,262138,1,0,0:0:0:0:
402,192,262220,1,0,0:0:0:0:
36,192,262301,1,0,0:0:0:0:
329,192,262383,128,0,262873:0:0:0:0:
109,192,262383,1,0,0:0:0:0:
475,192,262383,1,0,0:0:0:0:
109,192,262546,1,0,0:0:0:0:
402,192,262709,128,0,263199:0:0:0:0:
182,192,262709,1,0,0:0:0:0:
36,192,262709,1,0,0:0:0:0:
475,192,262873,128,0,263526:0:0:0:0:
109,192,262873,1,0,0:0:0:0:
36,192,263036,1,0,0:0:0:0:
329,192,263199,128,0,263689:0:0:0:0:
256,192,263199,1,0,0:0:0:0:
109,192,263199,1,0,0:0:0:0:
182,192,263281,1,0,0:0:0:0:
36,192,263362,1,0,0:0:0:0:
256,192,263526,128,0,264016:0:0:0:0:
109,192,263526,1,0,0:0:0:0:
402,192,263689,1,0,0:0:0:0:
36,192,263689,1,0,0:0:0:0:
182,192,263852,1,0,0:0:0:0:
475,192,264016,1,0,0:0:0:0:
36,192,264016,1,0,0:0:0:0:
329,192,264097,1,0,0:0:0:0:
109,192,264179,1,0,0:0:0:0:
402,192,264179,1,0,0:0:0:0:
256,192,264260,1,0,0:0:0:0:
36,192,264342,128,0,264995:0:0:0:0:
402,192,264342,1,0,0:0:0:0:
182,192,264342,1,0,0:0:0:0:
475,192,264424,1,0,0:0:0:0:
256,192,264505,1,0,0:0:0:0:
329,192,264505,1,0,0:0:0:0:
182,192,264669,128,0,265322:0:0:0:0:
475,192,264669,1,0,0:0:0:0:
109,192,264669,1,0,0:0:0:0:
402,192,264832,1,0,0:0:0:0:
329,192,264995,128,0,265648:0:0:0:0:
475,192,264995,1,0,0:0:0:0:
109,192,264995,1,0,0:0:0:0:
402,192,265077,1,0,0:0:0:0:
256,192,265158,1,0,0:0:0:0:
36,192,265158,1,0,0:0:0:0:
109,192,265240,1,0,0:0:0:0:
36,192,265322,1,0,0:0:0:0:
475,192,265322,1,0,0:0:0:0:
402,192,265403,1,0,0:0:0:0:
256,192,265485,1,0,0:0:0:0:
109,192,265648,128,0,265975:0:0:0:0:
475,192,265648,1,0,0:0:0:0:
402,192,265811,1,0,0:0:0:0:
182,192,265811,1,0,0:0:0:0:
256,192,265975,128,0,266628:0:0:0:0:
475,192,265975,1,0,0:0:0:0:
36,192,265975,1,0,0:0:0:0:
402,192,266138,128,0,266628:0:0:0:0:
182,192,266138,1,0,0:0:0:0:
36,192,266301,1,0,0:0:0:0:
475,192,266301,1,0,0:0:0:0:
182,192,266465,1,0,0:0:0:0:
109,192,266628,128,0,266954:0:0:0:0:
475,192,266628,1,0,0:0:0:0:
36,192,266628,1,0,0:0:0:0:
329,192,266791,1,0,0:0:0:0:
182,192,266791,1,0,0:0:0:0:
402,192,266954,128,0,268260:0:0:0:0:
475,192,266954,1,0,0:0:0:0:
329,192,267036,1,0,0:0:0:0:
256,192,267118,128,0,268260:0:0:0:0:
36,192,267118,1,0,0:0:0:0:
475,192,267118,1,0,0:0:0:0:
182,192,267281,1,0,0:0:0:0:
475,192,267281,1,0,0:0:0:0:
109,192,267444,128,0,268260:0:0:0:0:
329,192,267444,1,0,0:0:0:0:
475,192,267607,1,0,0:0:0:0:
36,192,267607,1,0,0:0:0:0:
182,192,267771,1,0,0:0:0:0:
329,192,267934,1,0,0:0:0:0:
475,192,267934,1,0,0:0:0:0:
36,192,268097,1,0,0:0:0:0:
475,192,268260,1,0,0:0:0:0:
329,192,268424,1,0,0:0:0:0:
36,192,268424,1,0,0:0:0:0:
182,192,268587,1,0,0:0:0:0:
475,192,268587,1,0,0:0:0:0:
329,192,268750,1,0,0:0:0:0:
36,192,268913,1,0,0:0:0:0:
256,192,268913,1,0,0:0:0:0:
475,192,268913,1,0,0:0:0:0:
182,192,268995,1,0,0:0:0:0:
329,192,269077,1,0,0:0:0:0:
109,192,269077,1,0,0:0:0:0:
256,192,269158,1,0,0:0:0:0:
402,192,269240,128,0,269893:0:0:0:0:
475,192,269240,128,0,269567:0:0:0:0:
182,192,269240,1,0,0:0:0:0:
109,192,269403,1,0,0:0:0:0:
256,192,269567,128,0,270220:0:0:0:0:
329,192,269567,128,0,269893:0:0:0:0:
36,192,269567,1,0,0:0:0:0:
182,192,269567,1,0,0:0:0:0:
109,192,269648,1,0,0:0:0:0:
182,192,269730,1,0,0:0:0:0:
475,192,269730,1,0,0:0:0:0:
182,192,269893,128,0,270220:0:0:0:0:
36,192,269893,1,0,0:0:0:0:
475,192,270056,1,0,0:0:0:0:
36,192,270220,128,0,270546:0:0:0:0:
109,192,270220,128,0,270873:0:0:0:0:
329,192,270220,1,0,0:0:0:0:
402,192,270383,1,0,0:0:0:0:
182,192,270546,128,0,271036:0:0:0:0:
329,192,270546,1,0,0:0:0:0:
475,192,270546,1,0,0:0:0:0:
256,192,270709,128,0,271362:0:0:0:0:
402,192,270709,1,0,0:0:0:0:
475,192,270873,1,0,0:0:0:0:
329,192,271036,128,0,271689:0:0:0:0:
36,192,271036,1,0,0:0:0:0:
475,192,271036,1,0,0:0:0:0:
402,192,271118,1,0,0:0:0:0:
36,192,271199,1,0,0:0:0:0:
109,192,271281,1,0,0:0:0:0:
402,192,271362,128,0,271689:0:0:0:0:
36,192,271362,1,0,0:0:0:0:
182,192,271526,1,0,0:0:0:0:
109,192,271526,1,0,0:0:0:0:
36,192,271689,1,0,0:0:0:0:
475,192,271852,128,0,272179:0:0:0:0:
402,192,271852,128,0,272505:0:0:0:0:
256,192,271852,1,0,0:0:0:0:
109,192,272016,1,0,0:0:0:0:
36,192,272016,1,0,0:0:0:0:
329,192,272179,128,0,272832:0:0:0:0:
182,192,272179,1,0,0:0:0:0:
36,192,272342,1,0,0:0:0:0:
182,192,272424,1,0,0:0:0:0:
256,192,272505,128,0,273158:0:0:0:0:
109,192,272505,1,0,0:0:0:0:
36,192,272669,1,0,0:0:0:0:
182,192,272832,128,0,273322:0:0:0:0:
475,192,272832,1,0,0:0:0:0:
36,192,272995,1,0,0:0:0:0:
109,192,273158,128,0,273648:0:0:0:0:
475,192,273158,1,0,0:0:0:0:
36,192,273322,128,0,273975:0:0:0:0:
329,192,273322,1,0,0:0:0:0:
402,192,273485,1,0,0:0:0:0:
182,192,273648,128,0,274138:0:0:0:0:
329,192,273648,1,0,0:0:0:0:
475,192,273730,1,0,0:0:0:0:
402,192,273811,1,0,0:0:0:0:
256,192,273975,128,0,274465:0:0:0:0:
329,192,273975,1,0,0:0:0:0:
402,192,274138,1,0,0:0:0:0:
109,192,274138,1,0,0:0:0:0:
329,192,274220,1,0,0:0:0:0:
475,192,274301,1,0,0:0:0:0:
109,192,274465,1,0,0:0:0:0:
182,192,274546,1,0,0:0:0:0:
36,192,274628,1,0,0:0:0:0:
475,192,274791,128,0,275444:0:0:0:0:
329,192,274791,1,0,0:0:0:0:
256,192,274873,1,0,0:0:0:0:
402,192,274954,1,0,0:0:0:0:
36,192,274954,1,0,0:0:0:0:
329,192,275118,128,0,275771:0:0:0:0:
109,192,275118,1,0,0:0:0:0:
182,192,275118,1,0,0:0:0:0:
256,192,275281,1,0,0:0:0:0:
182,192,275444,128,0,276097:0:0:0:0:
402,192,275444,1,0,0:0:0:0:
109,192,275444,1,0,0:0:0:0:
36,192,275607,1,0,0:0:0:0:
256,192,275771,1,0,0:0:0:0:
402,192,275771,1,0,0:0:0:0:
109,192,275852,1,0,0:0:0:0:
475,192,275934,1,0,0:0:0:0:
36,192,275934,1,0,0:0:0:0:
402,192,276097,128,0,276424:0:0:0:0:
36,192,276097,1,0,0:0:0:0:
329,192,276260,1,0,0:0:0:0:
109,192,276260,1,0,0:0:0:0:
256,192,276424,128,0,277077:0:0:0:0:
182,192,276424,1,0,0:0:0:0:
475,192,276424,1,0,0:0:0:0:
109,192,276587,128,0,277077:0:0:0:0:
329,192,276587,1,0,0:0:0:0:
475,192,276750,1,0,0:0:0:0:
36,192,276750,1,0,0:0:0:0:
329,192,276913,1,0,0:0:0:0:
182,192,276995,1,0,0:0:0:0:
402,192,277077,128,0,277403:0:0:0:0:
36,192,277077,1,0,0:0:0:0:
475,192,277077,1,0,0:0:0:0:
329,192,277158,1,0,0:0:0:0:
182,192,277240,1,0,0:0:0:0:
109,192,277403,128,0,278709:0:0:0:0:
329,192,277403,1,0,0:0:0:0:
402,192,277485,1,0,0:0:0:0:
256,192,277567,128,0,278709:0:0:0:0:
475,192,277567,1,0,0:0:0:0:
329,192,277730,1,0,0:0:0:0:
475,192,277811,1,0,0:0:0:0:
402,192,277893,128,0,278709:0:0:0:0:
182,192,277893,1,0,0:0:0:0:
36,192,278056,1,0,0:0:0:0:
475,192,278056,1,0,0:0:0:0:
329,192,278138,1,0,0:0:0:0:
182,192,278220,1,0,0:0:0:0:
36,192,278301,1,0,0:0:0:0:
182,192,278383,1,0,0:0:0:0:
329,192,278383,1,0,0:0:0:0:
475,192,278465,1,0,0:0:0:0:
329,192,278546,1,0,0:0:0:0:
36,192,278628,1,0,0:0:0:0:
475,192,278709,1,0,0:0:0:0:
182,192,278709,1,0,0:0:0:0:
329,192,278791,1,0,0:0:0:0:
109,192,278873,1,0,0:0:0:0:
402,192,278873,1,0,0:0:0:0:
36,192,279036,128,0,279362:0:0:0:0:
182,192,279036,1,0,0:0:0:0:
329,192,279036,1,0,0:0:0:0:
402,192,279199,1,0,0:0:0:0:
182,192,279362,128,0,279689:0:0:0:0:
475,192,279362,1,0,0:0:0:0:
329,192,279362,1,0,0:0:0:0:
402,192,279526,1,0,0:0:0:0:
329,192,279689,128,0,280016:0:0:0:0:
36,192,279689,1,0,0:0:0:0:
109,192,279852,1,0,0:0:0:0:
256,192,279934,1,0,0:0:0:0:
109,192,280016,128,0,280179:0:0:0:0:
402,192,280016,1,0,0:0:0:0:
36,192,280016,1,0,0:0:0:0:
475,192,280097,1,0,0:0:0:0:
256,192,280179,128,0,280505:0:0:0:0:
329,192,280179,1,0,0:0:0:0:
36,192,280179,1,0,0:0:0:0:
402,192,280260,1,0,0:0:0:0:
182,192,280342,1,0,0:0:0:0:
475,192,280342,1,0,0:0:0:0:
402,192,280505,128,0,281158:0:0:0:0:
109,192,280505,1,0,0:0:0:0:
36,192,280669,1,0,0:0:0:0:
475,192,280669,1,0,0:0:0:0:
329,192,280832,1,0,0:0:0:0:
182,192,280995,1,0,0:0:0:0:
36,192,280995,1,0,0:0:0:0:
109,192,281158,1,0,0:0:0:0:
329,192,281322,1,0,0:0:0:0:
182,192,281322,1,0,0:0:0:0:
402,192,281485,1,0,0:0:0:0:
256,192,281485,1,0,0:0:0:0:
36,192,281648,128,0,281975:0:0:0:0:
182,192,281648,1,0,0:0:0:0:
475,192,281648,1,0,0:0:0:0:
329,192,281648,1,0,0:0:0:0:
402,192,281811,1,0,0:0:0:0:
256,192,281893,1,0,0:0:0:0:
182,192,281975,128,0,282301:0:0:0:0:
475,192,281975,1,0,0:0:0:0:
329,192,281975,1,0,0:0:0:0:
256,192,282138,1,0,0:0:0:0:
329,192,282220,1,0,0:0:0:0:
329,192,282301,128,0,282628:0:0:0:0:
109,192,282301,1,0,0:0:0:0:
402,192,282301,1,0,0:0:0:0:
256,192,282465,1,0,0:0:0:0:
36,192,282465,1,0,0:0:0:0:
402,192,282628,128,0,284560:0:0:0:0:
109,192,282628,1,0,0:0:0:0:
256,192,282791,128,0,284560:0:0:0:0:
182,192,282954,1,0,0:0:0:0:
109,192,283118,128,0,284560:0:0:0:0:
475,192,283281,1,0,0:0:0:0:
36,192,283281,1,0,0:0:0:0:
329,192,283444,1,0,0:0:0:0:
182,192,283526,1,0,0:0:0:0:
36,192,283607,1,0,0:0:0:0:
182,192,283689,1,0,0:0:0:0:
329,192,283771,1,0,0:0:0:0:
475,192,283852,1,0,0:0:0:0:
182,192,283934,1,0,0:0:0:0:
329,192,284097,1,0,0:0:0:0:
182,192,284097,1,0,0:0:0:0:
36,192,284260,1,0,0:0:0:0:
475,192,284260,1,0,0:0:0:0:
329,192,284403,1,0,0:0:0:0:
182,192,284403,1,0,0:0:0:0:
36,192,285350,1,0,0:0:0:0:
475,192,285350,1,0,0:0:0:0:
329,192,285350,1,0,0:0:0:0:
109,192,285666,1,0,0:0:0:0:
256,192,285666,1,0,0:0:0:0:
402,192,285666,1,0,0:0:0:0:
36,192,285981,1,0,0:0:0:0:
475,192,285981,1,0,0:0:0:0:
109,192,286139,1,0,0:0:0:0:
256,192,286297,1,0,0:0:0:0:
402,192,286297,1,0,0:0:0:0:
329,192,286455,1,0,0:0:0:0:
402,192,286613,1,0,0:0:0:0:
475,192,286613,1,0,0:0:0:0:
182,192,286613,1,0,0:0:0:0:
109,192,286771,1,0,0:0:0:0:
36,192,286929,1,0,0:0:0:0:
256,192,286929,1,0,0:0:0:0:
329,192,286929,1,0,0:0:0:0:
475,192,287087,1,0,0:0:0:0:
109,192,287403,1,0,0:0:0:0:
402,192,287403,1,0,0:0:0:0:
329,192,287481,1,0,0:0:0:0:
256,192,287560,1,0,0:0:0:0:
36,192,287560,1,0,0:0:0:0:
109,192,287718,1,0,0:0:0:0:
402,192,287718,1,0,0:0:0:0:
182,192,287797,1,0,0:0:0:0:
256,192,287876,1,0,0:0:0:0:
475,192,287876,1,0,0:0:0:0:
36,192,288034,1,0,0:0:0:0:
109,192,288113,1,0,0:0:0:0:
36,192,288192,1,0,0:0:0:0:
402,192,288192,1,0,0:0:0:0:
329,192,288271,1,0,0:0:0:0:
256,192,288350,1,0,0:0:0:0:
109,192,288350,1,0,0:0:0:0:
475,192,288429,1,0,0:0:0:0:
402,192,288508,1,0,0:0:0:0:
182,192,288508,1,0,0:0:0:0:
109,192,288587,1,0,0:0:0:0:
36,192,288666,1,0,0:0:0:0:
329,192,288666,1,0,0:0:0:0:
109,192,288745,1,0,0:0:0:0:
182,192,288824,1,0,0:0:0:0:
402,192,288824,1,0,0:0:0:0:
329,192,288903,1,0,0:0:0:0:
256,192,288981,1,0,0:0:0:0:
109,192,288981,1,0,0:0:0:0:
36,192,289060,1,0,0:0:0:0:
182,192,289139,1,0,0:0:0:0:
402,192,289139,1,0,0:0:0:0:
109,192,289297,1,0,0:0:0:0:
182,192,289376,1,0,0:0:0:0:
36,192,289455,1,0,0:0:0:0:
475,192,289455,1,0,0:0:0:0:
402,192,289534,1,0,0:0:0:0:
329,192,289613,1,0,0:0:0:0:
109,192,289613,1,0,0:0:0:0:
182,192,289692,1,0,0:0:0:0:
256,192,289771,1,0,0:0:0:0:
475,192,289771,1,0,0:0:0:0:
36,192,289771,1,0,0:0:0:0:
182,192,296049,5,0,0:0:0:0:
36,192,296049,1,0,0:0:0:0:
329,192,296049,1,0,0:0:0:0:
475,192,296049,1,0,0:0:0:0:
402,192,296206,1,0,0:0:0:0:
329,192,296285,1,0,0:0:0:0:
256,192,296364,1,0,0:0:0:0:
329,192,296522,1,0,0:0:0:0:
475,192,296522,1,0,0:0:0:0:
182,192,296680,1,0,0:0:0:0:
402,192,296680,1,0,0:0:0:0:
329,192,296838,1,0,0:0:0:0:
36,192,296838,1,0,0:0:0:0:
36,192,296996,128,0,297312:0:0:0:0:
182,192,296996,128,0,297233:0:0:0:0:
329,192,296996,128,0,297233:0:0:0:0:
475,192,296996,128,0,297312:0:0:0:0:
182,192,297312,1,0,0:0:0:0:
329,192,297312,1,0,0:0:0:0:
109,192,297943,1,0,0:0:0:0:
256,192,297943,1,0,0:0:0:0:
402,192,297943,1,0,0:0:0:0:
182,192,298575,1,0,0:0:0:0:
329,192,298575,1,0,0:0:0:0:
36,192,299206,1,0,0:0:0:0:
475,192,299206,1,0,0:0:0:0:
256,192,299206,1,0,0:0:0:0:
109,192,299364,1,0,0:0:0:0:
402,192,299364,1,0,0:0:0:0:
256,192,299364,1,0,0:0:0:0:
475,192,299522,1,0,0:0:0:0:
36,192,299522,1,0,0:0:0:0:
256,192,299522,1,0,0:0:0:0:
329,192,299838,1,0,0:0:0:0:
182,192,299838,1,0,0:0:0:0:
182,192,300154,1,0,0:0:0:0:
36,192,300154,1,0,0:0:0:0:
329,192,300154,1,0,0:0:0:0:
475,192,300154,1,0,0:0:0:0:
256,192,300233,1,0,0:0:0:0:
182,192,300312,1,0,0:0:0:0:
402,192,300312,1,0,0:0:0:0:
109,192,300391,1,0,0:0:0:0:
182,192,300470,1,0,0:0:0:0:
329,192,300470,1,0,0:0:0:0:
475,192,300470,1,0,0:0:0:0:
109,192,300549,1,0,0:0:0:0:
36,192,300627,1,0,0:0:0:0:
402,192,300627,1,0,0:0:0:0:
182,192,300706,1,0,0:0:0:0:
256,192,300785,1,0,0:0:0:0:
475,192,300785,1,0,0:0:0:0:
36,192,300785,1,0,0:0:0:0:
109,192,300864,1,0,0:0:0:0:
256,192,300943,1,0,0:0:0:0:
402,192,300943,1,0,0:0:0:0:
182,192,301022,1,0,0:0:0:0:
109,192,301101,1,0,0:0:0:0:
329,192,301101,1,0,0:0:0:0:
475,192,301101,1,0,0:0:0:0:
36,192,301101,1,0,0:0:0:0:
182,192,301180,1,0,0:0:0:0:
402,192,301259,1,0,0:0:0:0:
256,192,301338,1,0,0:0:0:0:
329,192,301417,1,0,0:0:0:0:
109,192,301417,1,0,0:0:0:0:
36,192,301417,1,0,0:0:0:0:
402,192,301496,1,0,0:0:0:0:
475,192,301575,1,0,0:0:0:0:
329,192,301654,1,0,0:0:0:0:
256,192,301733,1,0,0:0:0:0:
109,192,301733,1,0,0:0:0:0:
475,192,301733,1,0,0:0:0:0:
329,192,301812,1,0,0:0:0:0:
402,192,301891,1,0,0:0:0:0:
256,192,301970,1,0,0:0:0:0:
475,192,302049,1,0,0:0:0:0:
36,192,302049,1,0,0:0:0:0:
182,192,302049,1,0,0:0:0:0:
402,192,302127,1,0,0:0:0:0:
329,192,302206,1,0,0:0:0:0:
109,192,302206,1,0,0:0:0:0:
475,192,302285,1,0,0:0:0:0:
402,192,302364,1,0,0:0:0:0:
182,192,302364,1,0,0:0:0:0:
36,192,302364,1,0,0:0:0:0:
109,192,302443,1,0,0:0:0:0:
256,192,302522,1,0,0:0:0:0:
475,192,302522,1,0,0:0:0:0:
182,192,302601,1,0,0:0:0:0:
36,192,302680,1,0,0:0:0:0:
329,192,302680,1,0,0:0:0:0:
475,192,302680,1,0,0:0:0:0:
182,192,302759,1,0,0:0:0:0:
36,192,302838,1,0,0:0:0:0:
402,192,302838,1,0,0:0:0:0:
109,192,302917,1,0,0:0:0:0:
475,192,302996,1,0,0:0:0:0:
256,192,302996,1,0,0:0:0:0:
36,192,302996,1,0,0:0:0:0:
402,192,303075,1,0,0:0:0:0:
109,192,303154,1,0,0:0:0:0:
256,192,303154,1,0,0:0:0:0:
475,192,303233,1,0,0:0:0:0:
329,192,303312,1,0,0:0:0:0:
182,192,303312,1,0,0:0:0:0:
36,192,303312,1,0,0:0:0:0:
475,192,303391,1,0,0:0:0:0:
256,192,303470,1,0,0:0:0:0:
109,192,303470,1,0,0:0:0:0:
402,192,303549,1,0,0:0:0:0:
475,192,303627,1,0,0:0:0:0:
329,192,303627,1,0,0:0:0:0:
36,192,303627,1,0,0:0:0:0:
256,192,303627,1,0,0:0:0:0:
182,192,303706,1,0,0:0:0:0:
402,192,303785,1,0,0:0:0:0:
109,192,303785,1,0,0:0:0:0:
256,192,303864,1,0,0:0:0:0:
182,192,303943,1,0,0:0:0:0:
475,192,303943,1,0,0:0:0:0:
36,192,303943,1,0,0:0:0:0:
329,192,304022,1,0,0:0:0:0:
256,192,304101,1,0,0:0:0:0:
402,192,304101,1,0,0:0:0:0:
182,192,304180,1,0,0:0:0:0:
329,192,304259,1,0,0:0:0:0:
109,192,304259,1,0,0:0:0:0:
475,192,304259,1,0,0:0:0:0:
36,192,304259,1,0,0:0:0:0:
256,192,304338,1,0,0:0:0:0:
36,192,304417,1,0,0:0:0:0:
402,192,304417,1,0,0:0:0:0:
182,192,304496,1,0,0:0:0:0:
256,192,304575,1,0,0:0:0:0:
475,192,304575,1,0,0:0:0:0:
402,192,304575,1,0,0:0:0:0:
36,192,304575,1,0,0:0:0:0:
109,192,304654,1,0,0:0:0:0:
182,192,304733,1,0,0:0:0:0:
402,192,304733,1,0,0:0:0:0:
36,192,304812,1,0,0:0:0:0:
109,192,304891,1,0,0:0:0:0:
329,192,304891,1,0,0:0:0:0:
475,192,304891,1,0,0:0:0:0:
256,192,304970,1,0,0:0:0:0:
475,192,305049,1,0,0:0:0:0:
182,192,305049,1,0,0:0:0:0:
402,192,305127,1,0,0:0:0:0:
109,192,305127,1,0,0:0:0:0:
329,192,305206,1,0,0:0:0:0:
36,192,305206,1,0,0:0:0:0:
475,192,305206,1,0,0:0:0:0:
256,192,305285,1,0,0:0:0:0:
109,192,305285,1,0,0:0:0:0:
182,192,305364,1,0,0:0:0:0:
475,192,305364,1,0,0:0:0:0:
329,192,305443,1,0,0:0:0:0:
109,192,305443,1,0,0:0:0:0:
36,192,305522,1,0,0:0:0:0:
475,192,305522,1,0,0:0:0:0:
256,192,305522,1,0,0:0:0:0:
109,192,305680,1,0,0:0:0:0:
256,192,305680,1,0,0:0:0:0:
402,192,305680,1,0,0:0:0:0:
36,192,305838,1,0,0:0:0:0:
182,192,305838,1,0,0:0:0:0:
329,192,305838,1,0,0:0:0:0:
475,192,305838,1,0,0:0:0:0:
109,192,305996,1,0,0:0:0:0:
256,192,305996,1,0,0:0:0:0:
402,192,305996,1,0,0:0:0:0:
36,192,306154,1,0,0:0:0:0:
182,192,306154,1,0,0:0:0:0:
329,192,306154,1,0,0:0:0:0:
475,192,306154,1,0,0:0:0:0:
109,192,306312,1,0,0:0:0:0:
256,192,306312,1,0,0:0:0:0:
182,192,306470,1,0,0:0:0:0:
329,192,306470,1,0,0:0:0:0:
256,192,306627,1,0,0:0:0:0:
402,192,306627,1,0,0:0:0:0:
475,192,306785,1,0,0:0:0:0:
36,192,306785,1,0,0:0:0:0:
109,192,306943,1,0,0:0:0:0:
402,192,306943,1,0,0:0:0:0:
36,192,307101,1,0,0:0:0:0:
256,192,307101,1,0,0:0:0:0:
475,192,307101,1,0,0:0:0:0:
109,192,307259,1,0,0:0:0:0:
402,192,307259,1,0,0:0:0:0:
36,192,307417,1,0,0:0:0:0:
182,192,307417,1,0,0:0:0:0:
329,192,307417,1,0,0:0:0:0:
475,192,307417,1,0,0:0:0:0:
109,192,307496,1,0,0:0:0:0:
182,192,307575,1,0,0:0:0:0:
402,192,307575,1,0,0:0:0:0:
36,192,307654,1,0,0:0:0:0:
256,192,307733,1,0,0:0:0:0:
475,192,307733,1,0,0:0:0:0:
329,192,307733,1,0,0:0:0:0:
182,192,307812,1,0,0:0:0:0:
109,192,307891,1,0,0:0:0:0:
402,192,307891,1,0,0:0:0:0:
256,192,307970,1,0,0:0:0:0:
402,192,308049,1,0,0:0:0:0:
36,192,308049,1,0,0:0:0:0:
182,192,308049,1,0,0:0:0:0:
329,192,308127,1,0,0:0:0:0:
256,192,308206,1,0,0:0:0:0:
109,192,308206,1,0,0:0:0:0:
402,192,308285,1,0,0:0:0:0:
182,192,308364,1,0,0:0:0:0:
475,192,308364,1,0,0:0:0:0:
36,192,308364,1,0,0:0:0:0:
256,192,308443,1,0,0:0:0:0:
329,192,308522,1,0,0:0:0:0:
182,192,308522,1,0,0:0:0:0:
109,192,308601,1,0,0:0:0:0:
475,192,308680,1,0,0:0:0:0:
36,192,308680,1,0,0:0:0:0:
182,192,308680,1,0,0:0:0:0:
402,192,308680,1,0,0:0:0:0:
329,192,308759,1,0,0:0:0:0:
256,192,308838,1,0,0:0:0:0:
402,192,308917,1,0,0:0:0:0:
475,192,308996,1,0,0:0:0:0:
36,192,308996,1,0,0:0:0:0:
256,192,308996,1,0,0:0:0:0:
329,192,309075,1,0,0:0:0:0:
182,192,309154,1,0,0:0:0:0:
402,192,309154,1,0,0:0:0:0:
329,192,309233,1,0,0:0:0:0:
109,192,309312,1,0,0:0:0:0:
475,192,309312,1,0,0:0:0:0:
329,192,309391,1,0,0:0:0:0:
182,192,309470,1,0,0:0:0:0:
402,192,309470,1,0,0:0:0:0:
256,192,309549,1,0,0:0:0:0:
109,192,309627,1,0,0:0:0:0:
402,192,309627,1,0,0:0:0:0:
475,192,309627,1,0,0:0:0:0:
329,192,309706,1,0,0:0:0:0:
36,192,309785,1,0,0:0:0:0:
256,192,309785,1,0,0:0:0:0:
475,192,309864,1,0,0:0:0:0:
329,192,309943,1,0,0:0:0:0:
182,192,309943,1,0,0:0:0:0:
402,192,309943,1,0,0:0:0:0:
109,192,309943,1,0,0:0:0:0:
256,192,310101,1,0,0:0:0:0:
36,192,310259,1,0,0:0:0:0:
475,192,310259,1,0,0:0:0:0:
329,192,310259,1,0,0:0:0:0:
182,192,310259,1,0,0:0:0:0:
256,192,310338,1,0,0:0:0:0:
329,192,310417,1,0,0:0:0:0:
109,192,310417,1,0,0:0:0:0:
402,192,310496,1,0,0:0:0:0:
329,192,310575,1,0,0:0:0:0:
182,192,310575,1,0,0:0:0:0:
475,192,310575,1,0,0:0:0:0:
109,192,310654,1,0,0:0:0:0:
475,192,310733,1,0,0:0:0:0:
256,192,310733,1,0,0:0:0:0:
329,192,310812,1,0,0:0:0:0:
256,192,310891,1,0,0:0:0:0:
36,192,310891,1,0,0:0:0:0:
475,192,310891,1,0,0:0:0:0:
402,192,310970,1,0,0:0:0:0:
256,192,311049,1,0,0:0:0:0:
109,192,311049,1,0,0:0:0:0:
329,192,311127,1,0,0:0:0:0:
402,192,311206,1,0,0:0:0:0:
182,192,311206,1,0,0:0:0:0:
36,192,311206,1,0,0:0:0:0:
475,192,311206,1,0,0:0:0:0:
329,192,311285,1,0,0:0:0:0:
109,192,311364,1,0,0:0:0:0:
402,192,311364,1,0,0:0:0:0:
256,192,311443,1,0,0:0:0:0:
182,192,311522,1,0,0:0:0:0:
402,192,311522,1,0,0:0:0:0:
475,192,311522,1,0,0:0:0:0:
109,192,311601,1,0,0:0:0:0:
36,192,311680,1,0,0:0:0:0:
329,192,311680,1,0,0:0:0:0:
182,192,311759,1,0,0:0:0:0:
256,192,311838,1,0,0:0:0:0:
475,192,311838,1,0,0:0:0:0:
329,192,311838,1,0,0:0:0:0:
36,192,311917,1,0,0:0:0:0:
109,192,311996,1,0,0:0:0:0:
402,192,311996,1,0,0:0:0:0:
182,192,312075,1,0,0:0:0:0:
36,192,312154,1,0,0:0:0:0:
329,192,312154,1,0,0:0:0:0:
402,192,312154,1,0,0:0:0:0:
256,192,312233,1,0,0:0:0:0:
109,192,312312,1,0,0:0:0:0:
475,192,312312,1,0,0:0:0:0:
36,192,312391,1,0,0:0:0:0:
329,192,312470,1,0,0:0:0:0:
109,192,312470,1,0,0:0:0:0:
256,192,312470,1,0,0:0:0:0:
475,192,312470,1,0,0:0:0:0:
402,192,312549,1,0,0:0:0:0:
36,192,312627,1,0,0:0:0:0:
256,192,312627,1,0,0:0:0:0:
329,192,312706,1,0,0:0:0:0:
475,192,312785,1,0,0:0:0:0:
182,192,312785,1,0,0:0:0:0:
109,192,312785,1,0,0:0:0:0:
329,192,312864,1,0,0:0:0:0:
475,192,312943,1,0,0:0:0:0:
109,192,312943,1,0,0:0:0:0:
402,192,313022,1,0,0:0:0:0:
36,192,313101,1,0,0:0:0:0:
256,192,313101,1,0,0:0:0:0:
475,192,313101,1,0,0:0:0:0:
109,192,313180,1,0,0:0:0:0:
182,192,313259,1,0,0:0:0:0:
402,192,313259,1,0,0:0:0:0:
36,192,313338,1,0,0:0:0:0:
182,192,313417,1,0,0:0:0:0:
329,192,313417,1,0,0:0:0:0:
402,192,313417,1,0,0:0:0:0:
36,192,313496,1,0,0:0:0:0:
256,192,313575,1,0,0:0:0:0:
475,192,313575,1,0,0:0:0:0:
109,192,313654,1,0,0:0:0:0:
475,192,313733,1,0,0:0:0:0:
36,192,313733,1,0,0:0:0:0:
182,192,313733,1,0,0:0:0:0:
402,192,313733,1,0,0:0:0:0:
329,192,313812,1,0,0:0:0:0:
182,192,313891,1,0,0:0:0:0:
36,192,313891,1,0,0:0:0:0:
256,192,313970,1,0,0:0:0:0:
402,192,314049,1,0,0:0:0:0:
109,192,314049,1,0,0:0:0:0:
36,192,314049,1,0,0:0:0:0:
182,192,314127,1,0,0:0:0:0:
256,192,314206,1,0,0:0:0:0:
475,192,314206,1,0,0:0:0:0:
329,192,314285,1,0,0:0:0:0:
109,192,314364,1,0,0:0:0:0:
402,192,314364,1,0,0:0:0:0:
475,192,314364,1,0,0:0:0:0:
256,192,314443,1,0,0:0:0:0:
182,192,314522,1,0,0:0:0:0:
402,192,314522,1,0,0:0:0:0:
329,192,314601,1,0,0:0:0:0:
256,192,314680,1,0,0:0:0:0:
109,192,314680,1,0,0:0:0:0:
36,192,314680,1,0,0:0:0:0:
475,192,314759,1,0,0:0:0:0:
329,192,314838,1,0,0:0:0:0:
475,192,314917,1,0,0:0:0:0:
182,192,314996,1,0,0:0:0:0:
402,192,314996,1,0,0:0:0:0:
36,192,314996,1,0,0:0:0:0:
329,192,314996,1,0,0:0:0:0:
256,192,315075,1,0,0:0:0:0:
329,192,315154,1,0,0:0:0:0:
36,192,315154,1,0,0:0:0:0:
109,192,315233,1,0,0:0:0:0:
402,192,315233,1,0,0:0:0:0:
475,192,315312,1,0,0:0:0:0:
182,192,315312,1,0,0:0:0:0:
256,192,315391,1,0,0:0:0:0:
402,192,315391,1,0,0:0:0:0:
329,192,315470,1,0,0:0:0:0:
402,192,315549,1,0,0:0:0:0:
182,192,315549,1,0,0:0:0:0:
475,192,315627,1,0,0:0:0:0:
36,192,315627,1,0,0:0:0:0:
402,192,315785,1,0,0:0:0:0:
109,192,315785,1,0,0:0:0:0:
256,192,315785,1,0,0:0:0:0:
36,192,315943,1,0,0:0:0:0:
475,192,315943,1,0,0:0:0:0:
182,192,315943,1,0,0:0:0:0:
329,192,315943,1,0,0:0:0:0:
402,192,316101,1,0,0:0:0:0:
256,192,316101,1,0,0:0:0:0:
109,192,316101,1,0,0:0:0:0:
329,192,316259,1,0,0:0:0:0:
36,192,316259,1,0,0:0:0:0:
475,192,316259,1,0,0:0:0:0:
182,192,316259,1,0,0:0:0:0:
402,192,316417,1,0,0:0:0:0:
256,192,316417,1,0,0:0:0:0:
182,192,316575,1,0,0:0:0:0:
329,192,316575,1,0,0:0:0:0:
256,192,316733,1,0,0:0:0:0:
109,192,316733,1,0,0:0:0:0:
475,192,316891,1,0,0:0:0:0:
36,192,316891,1,0,0:0:0:0:
109,192,317049,1,0,0:0:0:0:
402,192,317049,1,0,0:0:0:0:
475,192,317206,1,0,0:0:0:0:
256,192,317206,1,0,0:0:0:0:
36,192,317206,1,0,0:0:0:0:
402,192,317364,1,0,0:0:0:0:
109,192,317364,1,0,0:0:0:0:
475,192,317522,1,0,0:0:0:0:
329,192,317522,1,0,0:0:0:0:
182,192,317522,1,0,0:0:0:0:
36,192,317522,128,0,317838:0:0:0:0:
402,192,317601,1,0,0:0:0:0:
475,192,317680,1,0,0:0:0:0:
402,192,317759,1,0,0:0:0:0:
329,192,317838,128,0,318154:0:0:0:0:
109,192,317838,1,0,0:0:0:0:
182,192,317917,1,0,0:0:0:0:
256,192,317996,1,0,0:0:0:0:
182,192,318075,1,0,0:0:0:0:
475,192,318154,1,0,0:0:0:0:
109,192,318154,128,0,318470:0:0:0:0:
182,192,318233,1,0,0:0:0:0:
256,192,318312,1,0,0:0:0:0:
329,192,318391,1,0,0:0:0:0:
402,192,318470,128,0,318627:0:0:0:0:
329,192,318549,1,0,0:0:0:0:
109,192,318627,128,0,318785:0:0:0:0:
182,192,318706,1,0,0:0:0:0:
329,192,318785,1,0,0:0:0:0:
475,192,318785,128,0,318943:0:0:0:0:
36,192,318943,128,0,319101:0:0:0:0:
256,192,318943,1,0,0:0:0:0:
182,192,319101,1,0,0:0:0:0:
402,192,319101,128,0,319259:0:0:0:0:
109,192,319259,1,0,0:0:0:0:
36,192,319259,128,0,319417:0:0:0:0:
182,192,319417,1,0,0:0:0:0:
475,192,319417,128,0,319575:0:0:0:0:
256,192,319575,1,0,0:0:0:0:
109,192,319575,128,0,319733:0:0:0:0:
329,192,319733,1,0,0:0:0:0:
475,192,319733,128,0,319891:0:0:0:0:
402,192,319891,1,0,0:0:0:0:
256,192,319891,128,0,320049:0:0:0:0:
329,192,320049,1,0,0:0:0:0:
182,192,320049,128,0,320206:0:0:0:0:
256,192,320206,1,0,0:0:0:0:
109,192,320206,128,0,320364:0:0:0:0:
182,192,320364,1,0,0:0:0:0:
36,192,320364,128,0,320522:0:0:0:0:
109,192,320522,1,0,0:0:0:0:
475,192,320522,128,0,320680:0:0:0:0:
402,192,320680,1,0,0:0:0:0:
329,192,320680,128,0,320838:0:0:0:0:
256,192,320838,1,0,0:0:0:0:
182,192,320838,128,0,320996:0:0:0:0:
109,192,320996,1,0,0:0:0:0:
36,192,320996,128,0,321154:0:0:0:0:
182,192,321154,128,0,321312:0:0:0:0:
329,192,321154,128,0,321312:0:0:0:0:
109,192,321312,1,0,0:0:0:0:
402,192,321312,1,0,0:0:0:0:
256,192,321312,128,0,321470:0:0:0:0:
36,192,321470,1,0,0:0:0:0:
475,192,321470,1,0,0:0:0:0:
182,192,321470,128,0,321627:0:0:0:0:
329,192,321470,128,0,321627:0:0:0:0:
109,192,321627,1,0,0:0:0:0:
402,192,321627,1,0,0:0:0:0:
256,192,321627,128,0,321785:0:0:0:0:
36,192,321785,1,0,0:0:0:0:
475,192,321785,1,0,0:0:0:0:
182,192,321785,128,0,321943:0:0:0:0:
329,192,321785,128,0,321943:0:0:0:0:
109,192,321943,1,0,0:0:0:0:
256,192,321943,1,0,0:0:0:0:
402,192,321943,1,0,0:0:0:0:
182,192,322417,128,0,322496:0:0:0:0:
256,192,322496,1,0,0:0:0:0:
329,192,322496,128,0,322575:0:0:0:0:
109,192,322575,128,0,322654:0:0:0:0:
475,192,322575,1,0,0:0:0:0:
182,192,322654,1,0,0:0:0:0:
402,192,322654,128,0,322733:0:0:0:0:
329,192,322733,1,0,0:0:0:0:
36,192,322733,128,0,322812:0:0:0:0:
109,192,322812,1,0,0:0:0:0:
256,192,322812,128,0,322891:0:0:0:0:
329,192,322891,1,0,0:0:0:0:
182,192,322891,128,0,322970:0:0:0:0:
109,192,322970,1,0,0:0:0:0:
475,192,322970,128,0,323049:0:0:0:0:
402,192,323049,1,0,0:0:0:0:
36,192,323049,128,0,323127:0:0:0:0:
109,192,323127,1,0,0:0:0:0:
256,192,323127,128,0,323206:0:0:0:0:
329,192,323206,1,0,0:0:0:0:
475,192,323206,128,0,323285:0:0:0:0:
402,192,323285,1,0,0:0:0:0:
182,192,323285,128,0,323364:0:0:0:0:
256,192,323364,1,0,0:0:0:0:
36,192,323364,128,0,323443:0:0:0:0:
109,192,323443,1,0,0:0:0:0:
402,192,323443,128,0,323522:0:0:0:0:
329,192,323522,1,0,0:0:0:0:
182,192,323522,128,0,323601:0:0:0:0:
109,192,323601,1,0,0:0:0:0:
36,192,323601,128,0,323680:0:0:0:0:
256,192,323680,1,0,0:0:0:0:
329,192,323680,128,0,323759:0:0:0:0:
402,192,323759,1,0,0:0:0:0:
182,192,323759,128,0,323838:0:0:0:0:
475,192,323838,128,0,324154:0:0:0:0:
109,192,323838,1,0,0:0:0:0:
329,192,323996,128,0,324312:0:0:0:0:
182,192,323996,1,0,0:0:0:0:
182,192,324154,128,0,324470:0:0:0:0:
36,192,324154,1,0,0:0:0:0:
36,192,324312,128,0,324627:0:0:0:0:
475,192,324312,1,0,0:0:0:0:
475,192,324470,128,0,324785:0:0:0:0:
329,192,324470,1,0,0:0:0:0:
329,192,324627,128,0,324943:0:0:0:0:
182,192,324627,1,0,0:0:0:0:
182,192,324785,128,0,325101:0:0:0:0:
36,192,324785,1,0,0:0:0:0:
36,192,324943,128,0,325259:0:0:0:0:
402,192,325101,128,0,325180:0:0:0:0:
475,192,325180,1,0,0:0:0:0:
256,192,325180,128,0,325259:0:0:0:0:
329,192,325259,1,0,0:0:0:0:
182,192,325259,128,0,325338:0:0:0:0:
109,192,325338,1,0,0:0:0:0:
402,192,325338,128,0,325417:0:0:0:0:
256,192,325417,1,0,0:0:0:0:
36,192,325417,128,0,325496:0:0:0:0:
182,192,325496,1,0,0:0:0:0:
329,192,325496,128,0,325575:0:0:0:0:
475,192,325575,1,0,0:0:0:0:
402,192,325575,128,0,325654:0:0:0:0:
256,192,325654,1,0,0:0:0:0:
109,192,325654,128,0,325733:0:0:0:0:
182,192,325733,1,0,0:0:0:0:
36,192,325733,128,0,325812:0:0:0:0:
256,192,325812,1,0,0:0:0:0:
402,192,325812,128,0,325891:0:0:0:0:
329,192,325891,1,0,0:0:0:0:
182,192,325891,128,0,325970:0:0:0:0:
256,192,325970,1,0,0:0:0:0:
109,192,325970,128,0,326049:0:0:0:0:
36,192,326049,1,0,0:0:0:0:
329,192,326049,128,0,326127:0:0:0:0:
402,192,326127,1,0,0:0:0:0:
475,192,326206,128,0,326522:0:0:0:0:
256,192,326285,128,0,326522:0:0:0:0:
36,192,326364,128,0,326522:0:0:0:0:
109,192,326522,128,0,326759:0:0:0:0:
256,192,326680,128,0,326917:0:0:0:0:
109,192,326838,128,0,327075:0:0:0:0:
402,192,326996,128,0,327233:0:0:0:0:
182,192,327154,128,0,327470:0:0:0:0:
109,192,327312,128,0,327627:0:0:0:0:
36,192,327470,128,0,327785:0:0:0:0:
256,192,327470,1,0,0:0:0:0:
329,192,327549,1,0,0:0:0:0:
182,192,327588,1,0,0:0:0:0:
329,192,327627,128,0,327785:0:0:0:0:
256,192,327785,128,0,327864:0:0:0:0:
182,192,327864,1,0,0:0:0:0:
109,192,327864,128,0,327943:0:0:0:0:
329,192,327943,1,0,0:0:0:0:
402,192,327943,128,0,328022:0:0:0:0:
256,192,328022,1,0,0:0:0:0:
36,192,328022,128,0,328101:0:0:0:0:
182,192,328101,1,0,0:0:0:0:
329,192,328101,128,0,328180:0:0:0:0:
402,192,328180,1,0,0:0:0:0:
109,192,328180,128,0,328259:0:0:0:0:
256,192,328259,1,0,0:0:0:0:
36,192,328259,128,0,328338:0:0:0:0:
182,192,328338,1,0,0:0:0:0:
109,192,328417,128,0,328496:0:0:0:0:
256,192,328496,1,0,0:0:0:0:
329,192,328575,128,0,328654:0:0:0:0:
402,192,328654,1,0,0:0:0:0:
475,192,328654,128,0,328733:0:0:0:0:
182,192,328733,128,0,329049:0:0:0:0:
36,192,328733,1,0,0:0:0:0:
329,192,328812,128,0,329127:0:0:0:0:
475,192,328891,128,0,329206:0:0:0:0:
256,192,329206,1,0,0:0:0:0:
36,192,329206,1,0,0:0:0:0:
402,192,329364,128,0,329680:0:0:0:0:
256,192,329443,128,0,329759:0:0:0:0:
109,192,329522,128,0,329838:0:0:0:0:
329,192,329838,1,0,0:0:0:0:
475,192,329838,1,0,0:0:0:0:
36,192,329996,128,0,330470:0:0:0:0:
182,192,330075,128,0,330470:0:0:0:0:
329,192,330154,128,0,330470:0:0:0:0:
475,192,330470,128,0,330627:0:0:0:0:
402,192,330549,128,0,330706:0:0:0:0:
329,192,330627,1,0,0:0:0:0:
256,192,330706,1,0,0:0:0:0:
329,192,330785,128,0,330943:0:0:0:0:
256,192,330864,128,0,331022:0:0:0:0:
182,192,330943,1,0,0:0:0:0:
109,192,331022,1,0,0:0:0:0:
182,192,331101,1,0,0:0:0:0:
256,192,331180,128,0,331338:0:0:0:0:
182,192,331259,128,0,331417:0:0:0:0:
109,192,331338,128,0,331496:0:0:0:0:
36,192,331417,128,0,331575:0:0:0:0:
329,192,331417,1,0,0:0:0:0:
475,192,331417,1,0,0:0:0:0:
182,192,331575,128,0,331733:0:0:0:0:
329,192,331733,128,0,331891:0:0:0:0:
475,192,331891,128,0,332049:0:0:0:0:
36,192,332049,128,0,332206:0:0:0:0:
256,192,332049,1,0,0:0:0:0:
109,192,332049,1,0,0:0:0:0:
182,192,332206,128,0,332364:0:0:0:0:
256,192,332285,128,0,332443:0:0:0:0:
109,192,332364,128,0,332522:0:0:0:0:
329,192,332364,1,0,0:0:0:0:
475,192,332364,1,0,0:0:0:0:
402,192,332522,128,0,332680:0:0:0:0:
329,192,332601,128,0,332759:0:0:0:0:
36,192,332680,128,0,332838:0:0:0:0:
475,192,332680,128,0,332838:0:0:0:0:
256,192,332680,1,0,0:0:0:0:
109,192,332680,1,0,0:0:0:0:
182,192,332838,128,0,332996:0:0:0:0:
402,192,332838,1,0,0:0:0:0:
109,192,332996,128,0,333154:0:0:0:0:
329,192,332996,1,0,0:0:0:0:
475,192,332996,1,0,0:0:0:0:
256,192,333154,128,0,333312:0:0:0:0:
402,192,333154,1,0,0:0:0:0:
182,192,333312,128,0,333470:0:0:0:0:
329,192,333312,1,0,0:0:0:0:
36,192,333312,1,0,0:0:0:0:
329,192,333470,128,0,333785:0:0:0:0:
475,192,333470,1,0,0:0:0:0:
36,192,333627,1,0,0:0:0:0:
256,192,333627,1,0,0:0:0:0:
475,192,333785,128,0,333943:0:0:0:0:
109,192,333785,1,0,0:0:0:0:
256,192,333943,128,0,334101:0:0:0:0:
36,192,333943,1,0,0:0:0:0:
182,192,333943,1,0,0:0:0:0:
402,192,333943,1,0,0:0:0:0:
402,192,334101,128,0,334259:0:0:0:0:
109,192,334101,1,0,0:0:0:0:
329,192,334101,1,0,0:0:0:0:
182,192,334259,128,0,334417:0:0:0:0:
475,192,334259,1,0,0:0:0:0:
36,192,334259,1,0,0:0:0:0:
329,192,334259,1,0,0:0:0:0:
329,192,334417,128,0,334575:0:0:0:0:
256,192,334417,1,0,0:0:0:0:
109,192,334417,1,0,0:0:0:0:
109,192,334575,128,0,334733:0:0:0:0:
475,192,334575,1,0,0:0:0:0:
36,192,334575,1,0,0:0:0:0:
182,192,334575,1,0,0:0:0:0:
256,192,334733,128,0,334891:0:0:0:0:
402,192,334733,1,0,0:0:0:0:
182,192,334733,1,0,0:0:0:0:
36,192,334891,128,0,335049:0:0:0:0:
329,192,334891,1,0,0:0:0:0:
475,192,334891,1,0,0:0:0:0:
109,192,334891,1,0,0:0:0:0:
182,192,335049,128,0,335206:0:0:0:0:
256,192,335049,1,0,0:0:0:0:
402,192,335049,1,0,0:0:0:0:
109,192,335206,128,0,335364:0:0:0:0:
402,192,335206,128,0,335364:0:0:0:0:
475,192,335206,1,0,0:0:0:0:
329,192,335206,1,0,0:0:0:0:
36,192,335206,1,0,0:0:0:0:
256,192,335364,1,0,0:0:0:0:
36,192,335522,128,0,335838:0:0:0:0:
475,192,335522,128,0,335838:0:0:0:0:
182,192,335522,1,0,0:0:0:0:
329,192,335522,1,0,0:0:0:0:
109,192,335680,1,0,0:0:0:0:
182,192,335838,128,0,335996:0:0:0:0:
256,192,335838,1,0,0:0:0:0:
402,192,335838,1,0,0:0:0:0:
36,192,335996,128,0,336154:0:0:0:0:
402,192,335996,1,0,0:0:0:0:
329,192,336154,128,0,336312:0:0:0:0:
109,192,336154,1,0,0:0:0:0:
256,192,336154,1,0,0:0:0:0:
475,192,336154,1,0,0:0:0:0:
475,192,336312,128,0,336470:0:0:0:0:
402,192,336312,1,0,0:0:0:0:
182,192,336470,1,0,0:0:0:0:
36,192,336470,1,0,0:0:0:0:
256,192,336470,1,0,0:0:0:0:
329,192,336627,1,0,0:0:0:0:
109,192,336627,1,0,0:0:0:0:
182,192,336785,1,0,0:0:0:0:
475,192,336785,1,0,0:0:0:0:
36,192,336785,1,0,0:0:0:0:
329,192,336864,1,0,0:0:0:0:
182,192,336943,1,0,0:0:0:0:
402,192,336943,1,0,0:0:0:0:
329,192,337022,1,0,0:0:0:0:
182,192,337101,128,0,337259:0:0:0:0:
36,192,337101,1,0,0:0:0:0:
475,192,337101,1,0,0:0:0:0:
256,192,337101,1,0,0:0:0:0:
329,192,337259,128,0,337417:0:0:0:0:
109,192,337259,1,0,0:0:0:0:
402,192,337259,1,0,0:0:0:0:
475,192,337417,128,0,337733:0:0:0:0:
109,192,337417,1,0,0:0:0:0:
256,192,337417,1,0,0:0:0:0:
36,192,337417,1,0,0:0:0:0:
182,192,337575,1,0,0:0:0:0:
182,192,337733,128,0,337812:0:0:0:0:
36,192,337733,1,0,0:0:0:0:
402,192,337733,1,0,0:0:0:0:
256,192,337733,1,0,0:0:0:0:
329,192,337891,1,0,0:0:0:0:
475,192,337891,1,0,0:0:0:0:
182,192,337970,1,0,0:0:0:0:
329,192,338049,128,0,338206:0:0:0:0:
475,192,338049,1,0,0:0:0:0:
36,192,338049,1,0,0:0:0:0:
256,192,338049,1,0,0:0:0:0:
182,192,338206,128,0,338285:0:0:0:0:
109,192,338206,1,0,0:0:0:0:
329,192,338364,1,0,0:0:0:0:
36,192,338364,1,0,0:0:0:0:
256,192,338364,1,0,0:0:0:0:
475,192,338443,1,0,0:0:0:0:
329,192,338522,1,0,0:0:0:0:
182,192,338522,1,0,0:0:0:0:
475,192,338601,1,0,0:0:0:0:
329,192,338680,128,0,338838:0:0:0:0:
109,192,338680,1,0,0:0:0:0:
256,192,338680,1,0,0:0:0:0:
36,192,338680,1,0,0:0:0:0:
182,192,338838,128,0,338917:0:0:0:0:
402,192,338838,1,0,0:0:0:0:
256,192,338996,1,0,0:0:0:0:
475,192,338996,1,0,0:0:0:0:
36,192,338996,1,0,0:0:0:0:
329,192,339075,1,0,0:0:0:0:
109,192,339154,1,0,0:0:0:0:
402,192,339154,1,0,0:0:0:0:
182,192,339233,1,0,0:0:0:0:
36,192,339312,1,0,0:0:0:0:
475,192,339312,1,0,0:0:0:0:
329,192,339312,1,0,0:0:0:0:
109,192,339470,128,0,339627:0:0:0:0:
402,192,339470,1,0,0:0:0:0:
182,192,339470,1,0,0:0:0:0:
256,192,339627,128,0,339785:0:0:0:0:
329,192,339627,1,0,0:0:0:0:
475,192,339627,1,0,0:0:0:0:
36,192,339627,1,0,0:0:0:0:
402,192,339785,128,0,340101:0:0:0:0:
36,192,339785,1,0,0:0:0:0:
109,192,339785,1,0,0:0:0:0:
182,192,339943,1,0,0:0:0:0:
109,192,339943,1,0,0:0:0:0:
475,192,339943,1,0,0:0:0:0:
36,192,340101,128,0,340417:0:0:0:0:
329,192,340101,128,0,340417:0:0:0:0:
256,192,340101,1,0,0:0:0:0:
475,192,340101,1,0,0:0:0:0:
182,192,340259,1,0,0:0:0:0:
475,192,340259,1,0,0:0:0:0:
109,192,340259,1,0,0:0:0:0:
402,192,340417,128,0,340575:0:0:0:0:
109,192,340417,128,0,340575:0:0:0:0:
256,192,340417,1,0,0:0:0:0:
329,192,340575,128,0,340733:0:0:0:0:
36,192,340575,128,0,340733:0:0:0:0:
182,192,340575,1,0,0:0:0:0:
182,192,340733,128,0,340891:0:0:0:0:
256,192,340733,1,0,0:0:0:0:
402,192,340812,1,0,0:0:0:0:
475,192,340891,128,0,341049:0:0:0:0:
109,192,340891,128,0,341049:0:0:0:0:
329,192,340891,1,0,0:0:0:0:
402,192,341049,128,0,341206:0:0:0:0:
36,192,341049,128,0,341206:0:0:0:0:
256,192,341049,1,0,0:0:0:0:
475,192,341206,128,0,341364:0:0:0:0:
182,192,341206,128,0,341364:0:0:0:0:
329,192,341206,1,0,0:0:0:0:
109,192,341364,128,0,341680:0:0:0:0:
402,192,341364,128,0,341680:0:0:0:0:
256,192,341364,1,0,0:0:0:0:
256,192,341522,1,0,0:0:0:0:
182,192,341680,128,0,341838:0:0:0:0:
329,192,341680,128,0,341838:0:0:0:0:
256,192,341680,1,0,0:0:0:0:
36,192,341838,128,0,341996:0:0:0:0:
475,192,341838,128,0,341996:0:0:0:0:
256,192,341838,1,0,0:0:0:0:
109,192,341996,128,0,342154:0:0:0:0:
402,192,341996,128,0,342154:0:0:0:0:
182,192,341996,1,0,0:0:0:0:
329,192,341996,1,0,0:0:0:0:
36,192,342154,128,0,342312:0:0:0:0:
475,192,342154,128,0,342312:0:0:0:0:
256,192,342154,1,0,0:0:0:0:
109,192,342312,128,0,342470:0:0:0:0:
402,192,342312,128,0,342470:0:0:0:0:
182,192,342312,1,0,0:0:0:0:
329,192,342312,1,0,0:0:0:0:
329,192,342470,128,0,342627:0:0:0:0:
182,192,342470,128,0,342627:0:0:0:0:
256,192,342470,1,0,0:0:0:0:
256,192,342627,128,0,342785:0:0:0:0:
109,192,342627,1,0,0:0:0:0:
402,192,342627,1,0,0:0:0:0:
36,192,342785,128,0,347206:0:0:0:0:
182,192,342785,128,0,347364:0:0:0:0:
329,192,342785,128,0,347522:0:0:0:0:
475,192,342785,128,0,347680:0:0:0:0:
402,192,342785,1,0,0:0:0:0:
109,192,342785,1,0,0:0:0:0:
256,192,343259,1,0,0:0:0:0:
109,192,343417,1,0,0:0:0:0:
402,192,343417,1,0,0:0:0:0:
256,192,343891,1,0,0:0:0:0:
256,192,344049,1,0,0:0:0:0:
256,192,344285,1,0,0:0:0:0:
256,192,344522,1,0,0:0:0:0:
109,192,344680,1,0,0:0:0:0:
402,192,344680,1,0,0:0:0:0:
256,192,344996,1,0,0:0:0:0:
256,192,345312,1,0,0:0:0:0:
256,192,345470,1,0,0:0:0:0:
256,192,345785,1,0,0:0:0:0:
109,192,345943,1,0,0:0:0:0:
402,192,345943,1,0,0:0:0:0:
256,192,346180,1,0,0:0:0:0:
256,192,346417,1,0,0:0:0:0:
256,192,346575,1,0,0:0:0:0:
256,192,347049,1,0,0:0:0:0:
109,192,347285,1,0,0:0:0:0:
256,192,347443,1,0,0:0:0:0:
402,192,347601,1,0,0:0:0:0:
