osu file format v14

[General]
AudioFilename: Streaming Heart.mp3
AudioLeadIn: 0
PreviewTime: 131195
Countdown: 0
SampleSet: Soft
StackLeniency: 0.7
Mode: 0
LetterboxInBreaks: 0
WidescreenStoryboard: 0

[Editor]
DistanceSpacing: 0.5
BeatDivisor: 4
GridSize: 4
TimelineZoom: 1.6

[Metadata]
Title:Streaming Heart
TitleUnicode:ストリーミングハート
Artist:Reol
ArtistUnicode:れをる
Creator:Guy
Version:Extra
Source:
Tags:nico douga
BeatmapID:632029
BeatmapSetID:279053

[Difficulty]
HPDrainRate:7
CircleSize:4
OverallDifficulty:8
ApproachRate:9.3
SliderMultiplier:2
SliderTickRate:1

[Events]
//Background and Video events
0,0,"2d110406.jpg",0,0
//Break Periods
2,75752,84141
//Storyboard Layer 0 (Background)
//Storyboard Layer 1 (Fail)
//Storyboard Layer 2 (Pass)
//Storyboard Layer 3 (Foreground)
//Storyboard Sound Samples

[TimingPoints]
1267,285.714285714286,4,1,1,60,1,0
1267,-142.857142857143,4,2,1,60,0,0
9267,-76.9230769230769,4,2,1,60,0,0
10124,-125,4,2,1,60,0,0
12124,-66.6666666666667,4,2,1,60,0,0
12409,-125,4,2,1,60,0,0
14409,-66.6666666666667,4,2,1,60,0,0
14695,-125,4,2,1,60,0,0
16695,-66.6666666666667,4,2,1,60,0,0
16981,-125,4,2,1,60,0,0
18981,-66.6666666666667,4,2,1,60,0,0
19267,-125,4,2,1,60,0,0
21267,-66.6666666666667,4,2,1,60,0,0
21552,-125,4,2,1,60,0,0
23552,-66.6666666666667,4,2,1,60,0,0
23838,-125,4,2,1,60,0,0
25838,-66.6666666666667,4,2,1,60,0,0
26124,-125,4,2,1,60,0,0
28124,-66.6666666666667,4,2,1,60,0,0
29838,-125,4,2,1,60,0,0
38981,-100,4,2,1,60,0,0
48124,-125,4,2,1,60,0,0
56695,-200,4,2,1,60,0,0
57267,-83.3333333333333,4,2,3,80,0,1
57338,-83.3333333333333,4,2,1,80,0,1
65267,-200,4,2,1,80,0,1
65838,-83.3333333333333,4,2,1,80,0,1
75552,-83.3333333333333,4,2,1,80,0,0
84695,-125,4,2,2,60,0,0
92695,-125,4,2,1,60,0,0
93838,-100,4,2,1,60,0,0
102981,-125,4,2,2,60,0,0
111124,-125,4,2,1,60,0,0
116124,-100,4,2,1,60,0,0
118552,-200,4,2,1,60,0,0
118981,-100,4,2,1,60,0,0
120695,-125,4,2,1,60,0,0
129838,-200,4,2,1,5,0,0
131267,-200,4,2,1,60,0,0
131552,-83.3333333333333,4,2,3,80,0,1
131624,-83.3333333333333,4,2,1,80,0,1
140409,-200,4,2,1,80,0,1
140695,-83.3333333333333,4,2,1,80,0,1
149838,-200,4,2,1,80,0,1
150124,-66.6666666666667,4,2,1,80,0,1
150409,-83.3333333333333,4,2,1,80,0,1
168124,-125,4,2,0,60,0,0

[Colours]
Combo1 : 255,0,204
Combo2 : 39,231,124
Combo3 : 232,139,0
Combo4 : 1,197,254
Combo5 : 170,201,48

[HitObjects]
180,264,1267,6,0,L|100:256,1,69.9999978637696,2|0,0:0|0:0,0:0:0:0:
236,164,1552,1,2,0:0:0:0:
328,236,1695,1,0,0:0:0:0:
232,152,1838,2,0,P|220:108|216:76,1,69.9999978637696,2|0,0:0|0:0,0:0:0:0:
336,24,2124,2,0,P|330:58|320:92,1,69.9999978637696,2|0,0:0|0:0,0:0:0:0:
240,176,2409,6,0,L|160:168,1,69.9999978637696,2|0,0:0|0:0,0:0:0:0:
68,68,2695,2,0,L|137:74,1,69.9999978637696,2|0,0:0|0:0,0:0:0:0:
256,84,2981,1,2,0:0:0:0:
168,176,3124,1,0,0:0:0:0:
280,240,3266,2,0,L|296:164,1,69.9999978637696,2|0,0:0|0:0,0:0:0:0:
144,84,3552,5,2,0:0:0:0:
144,84,3838,2,0,P|128:24|124:0,1,69.9999978637696,2|0,0:0|0:0,0:0:0:0:
232,144,4124,2,0,P|272:108|360:112,1,139.999995727539,2|2,0:0|0:0,0:0:0:0:
216,240,4552,6,0,B|176:236|176:236|136:220,1,69.9999978637696,0|2,0:0|0:0,0:0:0:0:
64,192,4838,2,0,B|87:159|87:159|121:132,1,69.9999978637696,0|2,0:0|0:0,0:0:0:0:
180,80,5124,2,0,B|196:116|196:116|202:159,1,69.9999978637696,0|2,0:0|0:0,0:0:0:0:
136,308,5409,1,0,0:0:0:0:
142,311,5552,1,2,0:0:0:0:
138,317,5695,1,0,0:0:0:0:
131,313,5838,6,0,P|110:246|107:174,1,139.999995727539,2|2,0:0|0:0,0:0:0:0:
180,80,6267,1,0,0:0:0:0:
212,172,6409,2,0,L|380:160,1,139.999995727539,2|2,0:0|0:0,0:0:0:0:
452,156,6838,1,0,0:0:0:0:
372,260,6981,6,0,P|316:252|288:244,1,69.9999978637696,2|0,0:0|0:0,0:0:0:0:
216,152,7267,2,0,P|204:100|204:72,1,69.9999978637696,2|0,0:0|0:0,0:0:0:0:
344,56,7552,1,2,0:0:0:0:
152,132,7695,1,0,0:0:0:0:
346,191,7838,1,2,0:0:0:0:
177,256,7981,1,0,0:0:0:0:
324,316,8124,5,2,0:0:0:0:
328,320,9267,6,0,P|352:288|364:260,1,64.9999970245363,2|2,0:0|0:0,0:0:0:0:
248,184,9409,2,0,P|263:220|281:245,1,64.9999970245363,2|2,0:0|0:0,0:0:0:0:
440,308,9552,1,8,0:0:0:0:
344,176,9695,1,0,0:0:0:0:
196,336,9838,6,0,P|148:328|112:312,1,64.9999970245363,8|0,0:0|0:0,0:0:0:0:
16,248,9981,2,0,P|64:240|100:224,1,64.9999970245363,2|2,0:0|0:0,0:0:0:0:
240,176,10124,1,8,0:0:0:0:
144,56,10267,1,0,0:0:0:0:
140,52,10338,1,0,0:0:0:0:
136,48,10409,6,0,L|156:228,1,160,4|0,0:0|0:0,0:0:0:0:
232,96,10838,1,2,0:0:0:0:
36,132,10981,2,0,P|96:164|128:176,1,80,8|0,0:0|0:0,0:0:0:0:
224,272,11267,2,0,P|312:252|336:252,1,80
436,248,11552,6,0,L|428:144,1,80,2|0,0:0|0:0,0:0:0:0:
456,120,11767,6,0,L|448:224,1,80,2|0,0:0|0:0,0:0:0:0:
436,272,11981,5,2,0:0:0:0:
312,336,12124,6,0,P|256:292|176:308,1,150.000005722046,8|0,0:0|0:0,0:0:0:0:
20,212,12409,6,0,P|80:208|116:200,1,80
272,16,12695,6,0,P|256:108|252:200,1,160,4|0,0:0|0:0,0:0:0:0:
164,128,13124,1,2,0:0:0:0:
284,272,13267,2,0,P|344:256|376:244,1,80,8|0,0:0|0:0,0:0:0:0:
476,152,13552,2,0,P|438:139|399:130,1,80
228,72,13838,6,0,B|204:108|204:108|220:160,1,80,2|0,0:0|0:0,0:0:0:0:
267,191,14052,6,0,B|291:155|291:155|275:103,1,80,2|0,0:0|0:0,0:0:0:0:
219,64,14267,5,2,0:0:0:0:
230,264,14409,6,0,B|251:316|239:367|239:367|204:370|206:331,1,150.000005722046,8|0,0:0|0:0,0:0:0:0:
64,136,14695,6,0,P|130:114|157:110,1,80
324,46,14981,2,0,P|429:65|416:179,1,240,2|2,0:0|0:0,0:0:0:0:
238,221,15552,2,0,P|197:212|159:195,1,80,8|0,0:0|0:0,0:0:0:0:
370,112,15838,6,0,P|361:197|352:258,1,120
345,305,16124,6,0,P|279:314|259:308,1,80,2|0,0:0|0:0,0:0:0:0:
206,245,16338,6,0,P|272:236|292:242,1,80,2|0,0:0|0:0,0:0:0:0:
352,312,16552,5,2,0:0:0:0:
120,373,16695,6,0,B|125:338|125:338|99:324|99:324|117:282|96:222,1,150.000005722046,8|0,0:0|0:0,0:0:0:0:
172,43,16981,6,0,P|182:104|189:133,1,80
281,272,17267,6,0,P|396:246|425:344,1,240,2|2,0:0|0:0,0:0:0:0:
216,323,17838,2,0,P|201:279|203:242,1,80,8|0,0:0|0:0,0:0:0:0:
319,40,18124,2,0,L|310:179,1,120
311,159,18409,5,2,0:0:0:0:
197,122,18624,5,2,0:0:0:0:
219,240,18838,5,2,0:0:0:0:
373,233,18981,6,0,P|317:158|244:204,1,150.000005722046,8|0,0:0|0:0,0:0:0:0:
52,61,19267,6,0,L|57:124,1,40,2|0,0:0|0:0,0:0:0:0:
124,189,19409,6,0,L|119:252,1,40,2|0,0:0|0:0,0:0:0:0:
46,336,19552,6,0,B|92:316|92:316|139:341|139:341|199:302|293:315,1,240,4|2,0:0|0:0,0:0:0:0:
431,341,20124,2,0,L|422:259,1,80,8|0,0:0|0:0,0:0:0:0:
350,108,20409,2,0,P|290:117|245:67,1,120
249,79,20695,5,2,0:0:0:0:
249,79,20909,5,2,0:0:0:0:
249,79,21124,5,2,0:0:0:0:
228,207,21267,6,0,P|172:168|79:187,1,150.000005722046,8|0,0:0|0:0,0:0:0:0:
233,351,21552,6,0,P|272:351|319:335,1,80
438,221,21838,6,0,B|418:39|418:39|381:117,1,240,2|2,0:0|0:0,0:0:0:0:
309,250,22409,1,8,0:0:0:0:
314,257,22695,2,0,P|257:255|214:249,1,80
75,197,22981,5,2,0:0:0:0:
179,157,23195,5,2,0:0:0:0:
282,115,23409,5,2,0:0:0:0:
158,268,23552,6,0,P|95:228|68:157,1,150.000005722046,8|0,0:0|0:0,0:0:0:0:
292,37,23838,6,0,L|283:116,1,80
247,339,24124,6,0,P|281:272|447:305,1,240,2|2,0:0|0:0,0:0:0:0:
428,277,24695,2,0,P|440:227|441:192,1,80,8|0,0:0|0:0,0:0:0:0:
329,87,24981,2,0,P|318:125|316:165,1,80
227,272,25267,5,2,0:0:0:0:
150,151,25481,5,2,0:0:0:0:
227,272,25695,5,2,0:0:0:0:
354,195,25838,6,0,P|336:111|316:45,1,150.000005722046,8|0,0:0|0:0,0:0:0:0:
227,272,26124,6,0,P|208:222|193:192,1,80
76,40,26409,6,0,B|66:77|44:106|44:106|74:186|74:186|54:223|46:273,1,240,2|2,0:0|0:0,0:0:0:0:
282,339,26981,2,0,P|309:282|309:244,1,80,8|0,0:0|0:0,0:0:0:0:
170,207,27267,2,0,P|143:264|143:302,1,80
227,272,27552,5,2,0:0:0:0:
282,339,27767,5,0,0:0:0:0:
170,207,27981,5,0,0:0:0:0:
282,339,28124,6,0,P|309:277|281:204,1,150.000005722046,8|0,0:0|0:0,0:0:0:0:
224,147,28338,2,0,P|214:113|214:65,1,75.0000028610231,2|2,0:0|0:0,0:0:0:0:
377,171,28552,1,4,0:3:0:0:
141,289,28695,1,2,0:0:0:0:
150,296,29838,6,0,L|233:289,1,80,4|0,0:0|0:0,0:0:0:0:
325,247,30124,1,0,0:0:0:0:
244,183,30267,1,0,0:0:0:0:
426,250,30409,2,0,P|417:198|411:139,1,80,8|0,0:0|0:0,0:0:0:0:
445,77,30695,1,0,0:0:0:0:
327,123,30838,2,0,P|319:78|311:42,1,80
111,48,31124,5,2,0:0:0:0:
217,97,31267,1,2,0:0:0:0:
103,43,31409,1,0,0:0:0:0:
113,175,31552,2,0,L|117:262,1,80,8|2,0:0|0:0,0:0:0:0:
301,339,31838,1,0,0:0:0:0:
219,258,31981,1,0,0:0:0:0:
330,222,32124,6,0,P|339:166|343:126,1,80,2|0,0:0|0:0,0:0:0:0:
350,43,32409,1,0,0:0:0:0:
436,139,32552,1,2,0:0:0:0:
342,35,32695,2,0,P|271:87|199:73,1,160,8|0,0:0|0:0,0:0:0:0:
126,22,33124,2,0,P|115:70|116:104,1,80
182,244,33409,6,0,P|193:196|192:162,1,80,2|2,0:0|0:0,0:0:0:0:
103,191,33695,1,0,0:0:0:0:
258,296,33838,2,0,P|328:284|357:280,1,80,8|0,0:0|0:0,0:0:0:0:
434,268,34124,1,0,0:0:0:0:
285,210,34267,1,0,0:0:0:0:
180,329,34409,5,2,0:0:0:0:
94,282,34552,1,0,0:0:0:0:
180,329,34695,2,0,P|226:326|275:317,1,80
94,282,34981,2,0,P|48:285|-1:294,1,80,8|0,0:0|0:0,0:0:0:0:
179,233,35267,5,0,0:0:0:0:
126,151,35409,1,0,0:0:0:0:
204,89,35552,2,0,P|217:37|222:3,1,80,0|2,0:0|0:0,0:0:0:0:
253,171,35838,5,2,0:0:0:0:
116,62,35981,1,0,0:0:0:0:
179,233,36124,1,8,0:0:0:0:
285,147,36267,1,0,0:0:0:0:
276,319,36409,1,0,0:0:0:0:
126,229,36552,1,0,0:0:0:0:
276,319,36695,6,0,P|316:314|361:306,1,80,2|0,0:0|0:0,0:0:0:0:
418,198,36981,1,0,0:0:0:0:
303,211,37124,1,2,0:0:0:0:
188,226,37267,2,0,L|193:144,1,80,8|0,0:0|0:0,0:0:0:0:
266,21,37552,2,0,P|301:61|291:129,1,120
294,124,37838,5,2,0:0:0:0:
103,183,37981,1,8,0:0:0:0:
103,183,38052,1,8,0:0:0:0:
103,183,38124,1,8,0:0:0:0:
266,237,38267,1,8,0:0:0:0:
142,308,38409,5,8,0:0:0:0:
340,280,38551,1,8,0:0:0:0:
201,164,38694,1,8,0:0:0:0:
361,293,38837,1,8,0:0:0:0:
359,217,38909,1,0,0:0:0:0:
356,144,38981,6,0,P|353:69|349:23,1,100,4|0,0:0|0:0,0:0:0:0:
91,107,39267,2,0,P|87:156|86:206,1,100,8|0,0:0|0:0,0:0:0:0:
308,309,39552,1,2,0:0:0:0:
168,262,39695,1,0,0:0:0:0:
338,161,39838,1,8,0:0:0:0:
191,118,39981,1,0,0:0:0:0:
315,322,40124,6,0,P|365:318|416:304,1,100,2|0,0:0|0:0,0:0:0:0:
252,212,40409,1,8,0:0:0:0:
204,317,40552,1,0,0:0:0:0:
361,222,40695,2,0,P|372:178|374:118,1,100,2|0,0:0|0:0,0:0:0:0:
255,18,40981,2,0,P|256:67|268:116,1,100,8|0,0:0|0:0,0:0:0:0:
435,268,41267,5,2,0:0:0:0:
275,249,41409,1,0,0:0:0:0:
306,82,41552,1,8,0:0:0:0:
275,249,41695,1,0,0:0:0:0:
148,146,41838,2,0,P|132:217|134:249,1,100,2|0,0:0|0:0,0:0:0:0:
334,319,42124,1,8,0:0:0:0:
231,211,42267,1,0,0:0:0:0:
377,169,42409,6,0,P|372:93|369:59,1,100,2|0,0:0|0:0,0:0:0:0:
275,250,42695,2,0,P|270:174|267:140,1,100,8|0,0:0|0:0,0:0:0:0:
382,267,42981,1,2,0:0:0:0:
190,197,43124,1,0,0:0:0:0:
238,354,43267,1,8,0:0:0:0:
304,231,43409,1,0,0:0:0:0:
162,184,43552,2,0,P|147:135|142:81,1,100,2|0,0:0|0:0,0:0:0:0:
374,35,43838,5,8,0:0:0:0:
357,155,43981,1,0,0:0:0:0:
269,66,44124,1,2,0:0:0:0:
294,218,44267,1,0,0:0:0:0:
197,144,44409,1,8,0:0:0:0:
282,304,44552,1,0,0:0:0:0:
388,250,44695,5,2,0:0:0:0:
157,186,44838,1,0,0:0:0:0:
384,100,44981,2,0,L|369:211,1,100,8|0,0:0|0:0,0:0:0:0:
202,317,45267,1,2,0:0:0:0:
236,208,45409,1,0,0:0:0:0:
103,266,45552,2,0,P|50:288|0:287,1,100,8|0,0:0|0:0,0:0:0:0:
215,334,45838,6,0,P|275:309|323:312,1,100,2|0,0:0|0:0,0:0:0:0:
426,335,46124,1,8,0:0:0:0:
406,197,46267,1,0,0:0:0:0:
240,235,46409,1,2,0:0:0:0:
365,271,46552,1,0,0:0:0:0:
158,208,46695,1,8,0:0:0:0:
331,138,46838,1,0,0:0:0:0:
125,80,46981,6,0,P|117:137|118:195,1,100,2|0,0:0|0:0,0:0:0:0:
319,293,47267,2,0,P|327:236|326:178,1,100,8|0,0:0|0:0,0:0:0:0:
222,46,47552,1,2,0:0:0:0:
343,113,47695,1,0,0:0:0:0:
343,113,47767,1,0,0:0:0:0:
343,113,47838,1,8,0:0:0:0:
217,184,47981,1,0,0:0:0:0:
454,193,48124,6,0,L|447:30,1,160,4|0,0:0|0:0,0:0:0:0:
370,234,48552,2,0,L|363:71,1,160,2|0,0:0|0:0,0:0:0:0:
281,40,48981,2,0,P|241:55|202:57,1,80,2|0,0:0|0:0,0:0:0:0:
114,52,49267,6,0,P|50:61|26:209,2,240,2|2|2,0:0|0:0|0:0,0:0:0:0:
92,142,50267,1,0,0:0:0:0:
178,121,50409,6,0,P|270:108|337:107,1,160,2|0,0:0|0:0,0:0:0:0:
400,176,50838,2,0,P|370:221|454:237,1,160,2|0,0:0|0:0,0:0:0:0:
488,172,51267,2,0,P|477:105|468:72,1,80,2|0,0:0|0:0,0:0:0:0:
383,86,51552,6,0,B|347:96|330:115|330:115|290:89|290:89|234:141|161:120,2,240,2|2|2,0:0|0:0|0:0,0:0:0:0:
400,176,52552,1,0,0:0:0:0:
317,210,52695,6,0,P|241:234|146:233,1,160,2|0,0:0|0:0,0:0:0:0:
98,165,53124,2,0,P|70:219|104:308,1,160,2|0,0:0|0:0,0:0:0:0:
185,352,53552,2,0,P|229:345|290:347,1,80,2|0,0:0|0:0,0:0:0:0:
358,358,53838,6,0,B|357:308|332:280|332:280|356:249|356:249|323:197|340:127,2,240,2|2|2,0:0|0:0|0:0,0:0:0:0:
427,293,54838,1,0,0:0:0:0:
264,236,54981,6,0,P|208:226|158:222,1,80,2|0,0:0|0:0,0:0:0:0:
35,164,55267,2,0,P|74:159|113:151,1,80,2|0,0:0|0:0,0:0:0:0:
205,30,55552,2,0,P|209:83|215:118,1,80,2|0,0:0|0:0,0:0:0:0:
356,168,55838,2,0,P|352:221|346:256,1,80,2|0,0:0|0:0,0:0:0:0:
220,336,56124,5,8,0:0:0:0:
196,332,56195,1,8,0:0:0:0:
172,328,56267,1,8,0:0:0:0:
148,324,56338,1,8,0:0:0:0:
124,320,56409,1,8,0:0:0:0:
100,316,56481,1,8,0:0:0:0:
76,312,56552,1,8,0:0:0:0:
52,308,56624,1,8,0:0:0:0:
28,304,56695,2,0,B|24:276|8:248|8:248|16:220|16:220|4:196|4:196|16:168|4:136,1,175,8|0,0:0|0:0,0:0:0:0:
0,116,57267,6,0,P|104:152|168:52,1,239.999992675781,6|8,0:0|0:0,0:0:0:0:
80,72,57695,1,0,0:0:0:0:
113,240,57838,1,2,0:0:0:0:
240,128,57981,1,0,0:0:0:0:
203,334,58124,2,0,L|78:313,1,119.999996337891,8|0,0:0|0:0,0:0:0:0:
35,192,58409,5,2,0:0:0:0:
221,231,58552,1,0,0:0:0:0:
149,108,58695,1,8,0:0:0:0:
237,249,58838,1,0,0:0:0:0:
348,165,58981,1,2,0:0:0:0:
214,100,59124,1,0,0:0:0:0:
225,249,59267,2,0,P|228:301|234:369,1,119.999996337891,8|0,0:0|0:0,0:0:0:0:
321,233,59552,5,2,0:0:0:0:
174,168,59695,1,0,0:0:0:0:
326,131,59838,2,0,P|323:79|317:11,1,119.999996337891,8|0,0:0|0:0,0:0:0:0:
174,168,60124,1,2,0:0:0:0:
321,233,60267,1,0,0:0:0:0:
193,326,60409,2,0,P|132:322|72:315,1,119.999996337891,8|0,0:0|0:0,0:0:0:0:
174,168,60695,6,0,P|232:223|324:124,1,239.999992675781,2|8,0:0|0:0,0:0:0:0:
100,76,61124,1,0,0:0:0:0:
100,76,61195,1,0,0:0:0:0:
100,76,61267,1,2,0:0:0:0:
250,147,61409,1,0,0:0:0:0:
86,67,61552,2,0,P|88:100|92:144,1,59.9999981689454,4|0,0:3|0:0,0:0:0:0:
40,212,61695,2,0,P|59:249|85:278,1,59.9999981689454,8|0,0:3|0:0,0:0:0:0:
123,348,61838,6,0,P|217:298|347:330,1,239.999992675781,6|8,0:0|0:0,0:0:0:0:
438,193,62267,1,0,0:0:0:0:
273,207,62409,1,2,0:0:0:0:
385,107,62552,1,0,0:0:0:0:
344,256,62695,1,8,0:0:0:0:
236,152,62838,1,0,0:0:0:0:
351,269,62981,6,0,P|422:261|469:244,1,119.999996337891,2|0,0:0|0:0,0:0:0:0:
143,331,63267,2,0,P|199:349|259:355,1,119.999996337891,8|0,0:0|0:0,0:0:0:0:
70,246,63552,1,2,0:0:0:0:
242,267,63695,1,0,0:0:0:0:
137,158,63838,1,8,0:0:0:0:
288,118,63981,1,0,0:0:0:0:
132,38,64124,6,0,L|138:159,1,119.999996337891,8|0,0:0|0:0,0:0:0:0:
148,337,64409,2,0,P|229:322|283:319,1,119.999996337891,8|0,0:0|0:0,0:0:0:0:
459,231,64695,2,0,P|378:216|324:213,1,119.999996337891,8|0,0:0|0:0,0:0:0:0:
62,165,64981,2,0,P|143:150|197:147,1,119.999996337891,8|0,0:0|0:0,0:0:0:0:
436,66,65267,6,0,B|440:94|456:122|456:122|448:150|448:150|460:174|460:174|448:202|460:234,1,175,4|0,0:1|0:0,0:0:0:0:
373,304,65838,6,0,P|368:268|359:223,1,59.9999981689454,8|8,0:0|0:0,0:0:0:0:
289,158,65981,6,0,P|283:187|279:217,1,59.9999981689454,8|8,0:0|0:0,0:0:0:0:
212,319,66124,6,0,B|205:289|205:289|202:259,1,59.9999981689454,8|8,0:0|0:0,0:0:0:0:
105,192,66267,6,0,B|112:222|112:222|114:251,1,59.9999981689454,8|8,0:0|0:0,0:0:0:0:
216,343,66409,6,0,P|313:362|344:243,1,239.999992675781,4|8,0:0|0:0,0:0:0:0:
220,124,66838,1,0,0:0:0:0:
184,240,66981,1,2,0:0:0:0:
125,104,67124,1,0,0:0:0:0:
305,177,67267,1,8,0:0:0:0:
105,235,67409,1,0,0:0:0:0:
280,295,67552,5,2,0:0:0:0:
171,178,67695,2,0,P|176:248|179:299,1,119.999996337891,0|8,0:0|0:0,0:0:0:0:
388,344,67981,2,0,P|383:274|380:223,1,119.999996337891,0|2,0:0|0:0,0:0:0:0:
365,73,68267,1,0,0:0:0:0:
283,150,68409,1,8,0:0:0:0:
416,206,68552,1,0,0:0:0:0:
359,56,68695,6,0,L|238:62,1,119.999996337891,2|0,0:0|0:0,0:0:0:0:
27,213,68981,1,8,0:0:0:0:
27,213,69124,2,0,P|94:150|266:180,1,239.999992675781
309,259,69552,1,8,0:0:0:0:
170,240,69695,1,0,0:0:0:0:
328,263,69838,5,2,0:0:0:0:
209,359,69981,2,0,P|194:262|194:229,1,119.999996337891,0|8,0:0|0:0,0:0:0:0:
106,78,70267,2,0,P|197:113|226:130,1,119.999996337891,0|2,0:0|0:0,0:0:0:0:
400,135,70552,2,0,P|323:196|294:212,1,119.999996337891,0|8,0:0|0:0,0:0:0:0:
99,335,70838,1,0,0:0:0:0:
99,335,70909,1,0,0:0:0:0:
99,335,70981,6,0,P|86:269|84:206,1,119.999996337891,4|0,0:0|0:0,0:0:0:0:
106,78,71267,1,8,0:0:0:0:
192,174,71409,2,0,P|278:206|359:89,1,239.999992675781
361,104,71838,1,8,0:0:0:0:
256,294,71981,1,0,0:0:0:0:
356,223,72124,5,2,0:0:0:0:
181,135,72267,2,0,P|163:197|166:255,1,119.999996337891,0|8,0:0|0:0,0:0:0:0:
345,303,72552,2,0,P|363:241|360:183,1,119.999996337891,0|2,0:0|0:0,0:0:0:0:
119,84,72838,1,0,0:0:0:0:
219,157,72981,1,8,0:0:0:0:
107,211,73124,1,0,0:0:0:0:
204,70,73267,5,8,0:0:0:0:
184,232,73409,1,0,0:0:0:0:
344,170,73552,1,8,0:0:0:0:
167,124,73695,1,0,0:0:0:0:
298,238,73838,5,8,0:0:0:0:
133,280,73981,1,0,0:0:0:0:
309,317,74124,1,8,0:0:0:0:
166,206,74267,1,0,0:0:0:0:
344,170,74409,5,8,0:0:0:0:
202,134,74552,2,0,L|207:268,1,119.999996337891,0|8,0:0|0:0,0:0:0:0:
395,311,74838,1,8,0:0:0:0:
395,311,74909,1,8,0:0:0:0:
395,311,74981,5,8,0:0:0:0:
298,238,75124,1,8,0:0:0:0:
409,189,75267,1,8,0:0:0:0:
190,109,75409,1,8,0:0:0:0:
248,307,75552,1,4,0:1:0:0:
258,282,84695,6,0,P|260:204|293:127,1,160,4|8,0:0|0:0,0:0:0:0:
385,158,85124,2,0,P|383:236|350:313,1,160,4|0,0:3|0:0,0:0:0:0:
258,282,85552,2,0,P|208:271|175:270,1,80,8|0,0:0|0:0,0:0:0:0:
90,293,85838,6,0,B|41:304|41:304|10:258|25:192,1,160,4|8,0:3|0:0,0:0:0:0:
52,108,86267,2,0,B|101:97|101:97|132:143|117:209,1,160,4|0,0:3|0:0,0:0:0:0:
181,271,86695,2,0,P|224:267|272:257,1,80,8|0,0:0|0:0,0:0:0:0:
343,208,86981,6,0,B|402:180|402:180|468:202|501:197,1,160,4|8,0:3|0:0,0:0:0:0:
357,110,87409,2,0,B|298:138|298:138|232:116|199:121,1,160,4|0,0:3|0:0,0:0:0:0:
128,167,87838,2,0,P|117:116|123:74,1,80,8|0,0:0|0:0,0:0:0:0:
210,207,88124,6,0,P|157:255|67:237,1,160,4|8,0:3|0:0,0:0:0:0:
45,130,88552,2,0,P|98:82|188:100,1,160,4|0,0:3|0:0,0:0:0:0:
281,138,88981,2,0,L|360:126,1,80,8|0,0:0|0:0,0:0:0:0:
454,87,89267,6,0,B|429:226|429:226|400:202,1,160,4|8,0:3|0:0,0:0:0:0:
289,356,89695,2,0,B|314:217|314:217|343:241,1,160,4|0,0:3|0:0,0:0:0:0:
400,295,90124,2,0,P|436:321|474:338,1,80,8|0,0:0|0:0,0:0:0:0:
201,345,90409,6,0,P|193:280|113:244,1,160,4|8,0:3|0:0,0:0:0:0:
95,160,90838,2,0,P|34:206|48:295,1,160,4|0,0:3|0:0,0:0:0:0:
124,330,91267,2,0,P|163:342|215:345,1,80,8|0,0:0|0:0,0:0:0:0:
290,304,91552,6,0,P|354:222|505:254,2,240,4|4|8,0:3|0:3|0:0,0:0:0:0:
185,249,92552,1,0,0:0:0:0:
290,183,92695,2,0,P|281:119|279:76,1,80,8|0,0:0|0:0,0:0:0:0:
436,44,92981,5,8,0:0:0:0:
432,84,93052,1,8,0:0:0:0:
428,124,93124,1,8,0:0:0:0:
424,164,93195,1,8,0:0:0:0:
420,204,93267,1,8,0:0:0:0:
416,244,93338,1,8,0:0:0:0:
412,284,93409,2,0,B|352:304|352:304|276:280|276:280|216:296,1,200,4|0,0:3|0:0,0:0:0:0:
144,308,93838,6,0,P|80:292|44:288,1,100,4|0,0:0|0:0,0:0:0:0:
232,172,94124,1,8,0:0:0:0:
136,216,94267,1,0,0:0:0:0:
152,88,94409,1,2,0:0:0:0:
152,88,94552,1,0,0:0:0:0:
276,180,94695,2,0,P|328:172|384:160,1,100,8|0,0:0|0:0,0:0:0:0:
304,64,94981,5,2,0:0:0:0:
184,144,95124,1,0,0:0:0:0:
300,212,95267,1,8,0:0:0:0:
220,60,95409,2,0,P|160:72|108:64,1,100,0|2,0:0|0:0,0:0:0:0:
24,208,95695,2,0,P|84:196|136:204,1,100,0|8,0:0|0:0,0:0:0:0:
236,284,95981,2,0,P|296:320|388:236,1,200
387,248,96409,5,8,0:0:0:0:
236,172,96552,1,0,0:0:0:0:
168,344,96695,1,2,0:0:0:0:
168,344,96838,1,0,0:0:0:0:
307,244,96981,2,0,P|323:184|327:132,1,100,8|0,0:0|0:0,0:0:0:0:
110,55,97267,5,2,0:0:0:0:
96,172,97409,1,0,0:0:0:0:
204,120,97552,1,8,0:0:0:0:
99,43,97695,2,0,L|105:164,1,100,0|2,0:0|0:0,0:0:0:0:
110,284,97981,1,0,0:0:0:0:
217,254,98124,1,8,0:0:0:0:
326,232,98267,1,0,0:0:0:0:
199,158,98409,6,0,P|185:102|183:57,1,100,4|0,0:0|0:0,0:0:0:0:
380,70,98695,1,8,0:0:0:0:
352,260,98838,1,0,0:0:0:0:
294,126,98981,1,2,0:0:0:0:
422,209,99124,1,0,0:0:0:0:
294,288,99267,2,0,P|230:278|194:269,1,100,8|0,0:0|0:0,0:0:0:0:
59,95,99552,6,0,B|99:124|99:124|146:47|236:62,1,200,2|8,0:0|0:0,0:0:0:0:
369,150,99981,1,0,0:0:0:0:
369,150,100052,1,0,0:0:0:0:
369,150,100124,1,2,0:0:0:0:
208,236,100267,1,0,0:0:0:0:
120,152,100409,1,8,0:0:0:0:
320,230,100552,1,0,0:0:0:0:
144,320,100695,5,4,0:0:0:0:
292,340,100838,1,0,0:0:0:0:
208,184,100981,1,8,0:0:0:0:
64,280,101124,1,0,0:0:0:0:
196,380,101267,2,0,P|188:304|176:256,1,100,2|0,0:0|0:0,0:0:0:0:
134,73,101552,1,8,0:0:0:0:
134,73,101695,1,0,0:0:0:0:
232,249,101838,6,0,P|305:201|432:219,1,200,2|8,0:0|0:0,0:0:0:0:
497,277,102267,1,0,0:0:0:0:
497,277,102338,1,0,0:0:0:0:
497,277,102409,1,8,0:0:0:0:
278,154,102552,1,8,0:0:0:0:
396,329,102695,1,8,0:0:0:0:
386,233,102838,1,8,0:0:0:0:
379,137,102981,6,0,P|324:152|222:169,1,160,4|10,0:0|0:0,0:0:0:0:
121,159,103409,1,0,0:0:0:0:
181,75,103552,1,2,0:0:0:0:
223,169,103695,2,0,P|219:218|208:266,2,80,0|10|0,0:0|0:0|0:0,0:0:0:0:
181,75,104124,5,2,0:0:0:0:
121,159,104267,1,0,0:0:0:0:
11,150,104409,1,10,0:0:0:0:
71,234,104552,2,0,P|152:219|230:213,1,160
330,219,104981,2,0,P|336:157|337:126,1,80,10|0,0:0|0:0,0:0:0:0:
410,28,105267,6,0,P|428:129|445:199,1,160,2|10,0:0|0:0,0:0:0:0:
462,284,105695,1,0,0:0:0:0:
365,252,105838,1,2,0:0:0:0:
274,207,105981,2,0,P|223:221|181:223,2,80,0|10|0,0:0|0:0|0:0,0:0:0:0:
349,129,106409,5,2,0:0:0:0:
365,252,106552,1,0,0:0:0:0:
368,122,106695,1,10,0:0:0:0:
348,258,106838,1,0,0:0:0:0:
448,214,106981,1,2,0:0:0:0:
302,191,107124,1,0,0:0:0:0:
296,340,107267,2,0,P|239:335|194:329,1,80,10|0,0:0|0:0,0:0:0:0:
115,325,107552,6,0,B|127:283|127:283|105:156,1,160,2|10,0:0|0:0,0:0:0:0:
88,67,107981,1,0,0:0:0:0:
190,121,108124,1,2,0:0:0:0:
190,121,108267,2,0,L|182:34,2,80,0|10|0,0:0|0:0|0:0,0:0:0:0:
199,222,108695,5,2,0:0:0:0:
313,162,108838,1,0,0:0:0:0:
168,153,108981,1,10,0:0:0:0:
344,231,109124,1,0,0:0:0:0:
236,287,109267,1,2,0:0:0:0:
250,123,109409,2,0,P|254:82|261:37,2,80,0|10|0,0:0|0:0|0:0,0:0:0:0:
241,206,109838,6,0,P|152:172|89:180,1,160,2|10,0:0|0:0,0:0:0:0:
3,228,110267,1,0,0:0:0:0:
3,228,110409,2,0,P|-8:167|-1:135,1,80,2|0,0:0|0:0,0:0:0:0:
41,58,110695,1,10,0:0:0:0:
134,97,110838,1,0,0:0:0:0:
396,33,111124,5,0,0:0:0:0:
343,198,111409,5,0,0:0:0:0:
211,96,111695,5,0,0:0:0:0:
318,108,111838,5,8,0:0:0:0:
257,242,111981,1,8,0:0:0:0:
257,242,112052,1,8,0:0:0:0:
257,242,112124,6,0,P|174:262|116:193,1,160,4|0,0:0|0:0,0:0:0:0:
107,112,112552,1,0,0:0:0:0:
210,161,112695,1,8,0:3:0:0:
248,156,112767,1,2,0:0:0:0:
288,152,112838,1,2,0:0:0:0:
328,148,112909,1,2,0:0:0:0:
368,144,112981,2,0,L|360:48,1,80,8|0,0:3|0:0,0:0:0:0:
267,9,113267,6,0,L|255:67,1,40,4|2,0:3|0:0,0:0:0:0:
178,109,113409,2,0,L|190:165,1,40,2|2,0:0|0:0,0:0:0:0:
248,232,113552,1,8,0:3:0:0:
256,264,113624,1,2,0:0:0:0:
262,295,113695,1,2,0:0:0:0:
267,326,113767,1,2,0:0:0:0:
267,357,113838,6,0,L|198:348,1,40,8|2,0:0|0:0,0:0:0:0:
114,327,113981,2,0,L|156:271,1,40,2|2,0:0|0:0,0:0:0:0:
213,206,114124,2,0,L|239:270,1,40,8|2,0:3|0:0,0:0:0:0:
354,325,114267,1,2,0:0:0:0:
354,325,114338,1,2,0:0:0:0:
354,325,114409,6,0,P|403:330|436:336,1,80,4|0,0:0|0:0,0:0:0:0:
376,197,114695,1,4,0:3:0:0:
336,206,114767,1,2,0:0:0:0:
296,204,114838,1,4,0:3:0:0:
259,184,114909,1,2,0:0:0:0:
237,149,114981,1,8,0:0:0:0:
331,78,115124,2,0,P|320:131|312:152,1,40,2|2,0:0|0:0,0:0:0:0:
165,207,115267,2,0,L|78:195,1,80,8|2,0:3|0:0,0:0:0:0:
11,182,115481,1,2,0:0:0:0:
29,257,115552,6,0,L|39:295,1,40,8|2,0:3|0:0,0:0:0:0:
125,299,115695,2,0,L|152:326,1,40,2|2,0:0|0:0,0:0:0:0:
222,278,115838,2,0,L|259:288,1,40,8|2,0:3|0:0,0:0:0:0:
287,208,115981,2,0,L|324:198,1,40,2|2,0:0|0:0,0:0:0:0:
190,84,116124,6,0,L|198:194,1,100,12|0,0:0|0:0,0:0:0:0:
110,248,116338,1,0,0:0:0:0:
110,248,116409,2,0,L|102:138,1,100,12|0,0:0|0:0,0:0:0:0:
279,24,116695,6,0,P|370:36|379:158,1,200,4|2,0:0|0:0,0:0:0:0:
353,278,117124,1,2,0:0:0:0:
313,298,117195,1,2,0:0:0:0:
267,295,117267,1,10,0:0:0:0:
229,270,117338,1,2,0:0:0:0:
195,240,117409,1,2,0:0:0:0:
151,226,117481,1,2,0:0:0:0:
107,234,117552,1,8,0:3:0:0:
75,266,117624,1,2,0:0:0:0:
71,310,117695,1,2,0:0:0:0:
94,348,117767,1,2,0:0:0:0:
135,365,117838,6,0,L|195:361,1,50,4|2,0:0|0:0,0:0:0:0:
273,315,117981,2,0,L|333:311,1,50,2|2,0:0|0:0,0:0:0:0:
115,152,118124,6,0,P|144:180|171:196,1,50,2|2,0:0|0:0,0:0:0:0:
252,238,118267,2,0,P|295:234|322:225,1,50,2|2,0:0|0:0,0:0:0:0:
403,188,118409,1,8,0:0:0:0:
291,88,118552,6,0,L|285:27,2,50,8|8|8,0:3|0:3|0:3,0:0:0:0:
296,190,118981,5,2,0:0:0:0:
195,147,119124,1,8,0:3:0:0:
275,277,119267,1,2,0:0:0:0:
407,199,119409,1,8,0:3:0:0:
237,58,119552,1,8,0:0:0:0:
254,234,119695,1,2,0:0:0:0:
254,234,119767,1,2,0:0:0:0:
254,234,119838,1,8,0:3:0:0:
254,234,119909,1,2,0:0:0:0:
254,234,119981,1,2,0:0:0:0:
254,234,120052,1,2,0:0:0:0:
254,234,120124,6,0,L|260:287,1,50,2|0,0:0|0:0,0:0:0:0:
195,148,120267,2,0,L|248:142,1,50,8|0,0:3|0:0,0:0:0:0:
106,210,120409,2,0,L|100:157,1,50,2|0,0:0|0:0,0:0:0:0:
167,295,120552,2,0,L|114:301,1,50,8|0,0:3|0:0,0:0:0:0:
29,316,120695,6,0,B|19:295|19:295|32:275|32:275|15:253|15:253|33:229|33:229|15:202|15:202|28:174|28:174|10:149|10:149|26:128|26:128|8:104|8:104|23:73,1,280,8|0,0:3|0:0,0:0:0:0:
77,30,121267,6,0,P|123:64|225:41,1,160,4|0,0:0|0:0,0:0:0:0:
395,148,121695,2,0,P|349:114|247:137,1,160,2|0,0:0|0:0,0:0:0:0:
168,170,122124,2,0,L|177:253,1,80,2|0,0:0|0:0,0:0:0:0:
202,345,122409,6,0,B|251:328|272:281|272:281|334:338,1,160,2|0,0:0|0:0,0:0:0:0:
474,211,122838,2,0,B|425:228|404:275|404:275|342:218,1,160,2|0,0:0|0:0,0:0:0:0:
296,161,123267,2,0,P|271:105|265:66,1,80,2|0,0:0|0:0,0:0:0:0:
171,63,123552,6,0,P|90:53|33:128,1,160,2|0,0:0|0:0,0:0:0:0:
69,202,123981,2,0,P|150:212|207:137,1,160,2|0,0:0|0:0,0:0:0:0:
262,88,124409,2,0,P|301:73|354:70,1,80,2|0,0:0|0:0,0:0:0:0:
430,54,124695,6,0,B|458:51|477:40|477:40|463:161,1,160,2|0,0:0|0:0,0:0:0:0:
415,244,125124,2,0,B|387:247|368:258|368:258|382:137,1,160,2|0,0:0|0:0,0:0:0:0:
306,80,125552,2,0,L|296:168,1,80,2|0,0:0|0:0,0:0:0:0:
252,244,125838,6,0,B|229:237|213:219|213:219|171:228|171:228|120:157|36:182,2,240,2|2|2,0:0|0:0|0:0,0:0:0:0:
260,140,126981,6,0,B|283:147|299:165|299:165|341:156|341:156|392:227|476:202,2,240,2|2|2,0:0|0:0|0:0,0:0:0:0:
158,181,128124,6,0,P|146:115|144:67,1,80,2|0,0:0|0:0,0:0:0:0:
303,244,128409,2,0,P|315:178|317:130,1,80,2|0,0:0|0:0,0:0:0:0:
229,32,128695,2,0,P|233:71|242:110,1,80,2|0,0:0|0:0,0:0:0:0:
405,179,128981,2,0,P|400:218|391:257,1,80,2|0,0:0|0:0,0:0:0:0:
249,333,129267,5,8,0:0:0:0:
209,340,129338,1,8,0:0:0:0:
169,336,129409,1,8,0:0:0:0:
133,317,129481,1,8,0:0:0:0:
114,282,129552,1,8,0:0:0:0:
111,241,129624,1,8,0:0:0:0:
125,203,129695,2,0,P|132:167|134:138,1,40,8|8,0:0|0:0,0:0:0:0:
128,67,129838,5,8,0:0:0:0:
201,252,131267,6,0,P|238:243|271:240,1,50,8|0,0:0|0:0,0:0:0:0:
322,281,131552,6,0,P|352:212|251:244,1,239.999992675781,6|8,0:0|0:0,0:0:0:0:
188,349,131981,2,0,P|127:264|4:285,1,239.999992675781
5,283,132409,1,8,0:0:0:0:
165,189,132552,1,0,0:0:0:0:
292,324,132695,5,2,0:0:0:0:
105,290,132838,1,0,0:0:0:0:
283,212,132981,1,8,0:0:0:0:
136,131,133124,1,0,0:0:0:0:
200,276,133267,1,2,0:0:0:0:
372,139,133409,1,0,0:0:0:0:
158,208,133552,1,8,0:0:0:0:
306,304,133695,1,0,0:0:0:0:
321,164,133838,6,0,P|326:91|322:42,1,119.999996337891,2|0,0:0|0:0,0:0:0:0:
238,132,134052,1,0,0:0:0:0:
234,111,134124,2,0,P|192:30|41:77,1,239.999992675781,8|2,0:0|0:0,0:0:0:0:
192,205,134552,1,0,0:0:0:0:
428,145,134695,2,0,P|419:209|406:275,1,119.999996337891,8|0,0:0|0:0,0:0:0:0:
184,308,134981,5,2,0:0:0:0:
304,246,135124,1,0,0:0:0:0:
130,167,135267,1,8,0:0:0:0:
177,331,135409,1,0,0:0:0:0:
318,263,135552,1,2,0:0:0:0:
143,187,135695,1,0,0:0:0:0:
349,149,135838,1,8,0:0:0:0:
236,236,135981,1,0,0:0:0:0:
236,236,136052,1,0,0:0:0:0:
236,236,136124,6,0,P|174:222|113:198,1,119.999996337891,4|0,0:0|0:0,0:0:0:0:
139,91,136409,1,8,0:0:0:0:
242,305,136552,2,0,P|291:215|422:247,1,239.999992675781
475,319,136981,1,8,0:0:0:0:
339,288,137124,1,0,0:0:0:0:
412,183,137267,5,2,0:0:0:0:
328,307,137409,1,0,0:0:0:0:
228,170,137552,1,8,0:0:0:0:
165,348,137695,1,0,0:0:0:0:
68,154,137838,1,2,0:0:0:0:
170,248,137981,1,0,0:0:0:0:
170,248,138052,1,0,0:0:0:0:
170,248,138124,1,8,0:0:0:0:
266,100,138267,1,0,0:0:0:0:
374,279,138409,6,0,L|253:261,1,119.999996337891,2|0,0:0|0:0,0:0:0:0:
221,38,138695,2,0,L|203:159,1,119.999996337891,8|0,0:0|0:0,0:0:0:0:
165,301,138981,1,2,0:0:0:0:
297,200,139124,1,0,0:0:0:0:
143,141,139267,1,8,0:0:0:0:
286,328,139409,1,8,0:0:0:0:
295,337,140409,6,0,L|358:333,1,50
404,263,140695,5,12,0:0:0:0:
416,113,140838,1,0,0:0:0:0:
309,248,140981,5,8,0:0:0:0:
307,97,141124,1,0,0:0:0:0:
214,247,141267,5,8,0:0:0:0:
198,96,141410,1,0,0:0:0:0:
119,259,141552,5,8,0:0:0:0:
89,109,141695,1,0,0:0:0:0:
206,235,141838,5,12,0:0:0:0:
351,161,141981,1,0,0:0:0:0:
139,148,142124,1,8,0:0:0:0:
294,268,142267,1,0,0:0:0:0:
165,319,142409,5,8,0:0:0:0:
372,245,142552,1,0,0:0:0:0:
176,189,142695,1,8,0:0:0:0:
308,344,142838,1,0,0:0:0:0:
473,242,142981,6,0,P|468:164|463:113,1,119.999996337891,12|0,0:0|0:0,0:0:0:0:
201,71,143267,2,0,P|206:149|211:200,1,119.999996337891,8|0,0:0|0:0,0:0:0:0:
277,278,143552,1,8,0:0:0:0:
333,134,143695,1,0,0:0:0:0:
274,291,143838,1,8,0:0:0:0:
118,232,143981,1,0,0:0:0:0:
206,152,144124,5,12,0:0:0:0:
173,337,144267,1,0,0:0:0:0:
106,126,144409,1,8,0:0:0:0:
106,126,144552,1,0,0:0:0:0:
215,33,144695,2,0,L|205:164,1,119.999996337891,8|0,0:0|0:0,0:0:0:0:
383,331,144981,2,0,L|393:200,1,119.999996337891,8|0,0:0|0:0,0:0:0:0:
357,71,145267,5,12,0:0:0:0:
289,174,145409,1,0,0:0:0:0:
177,115,145552,1,8,0:0:0:0:
232,256,145695,1,0,0:0:0:0:
367,188,145838,2,0,P|370:114|353:64,1,119.999996337891,8|0,0:0|0:0,0:0:0:0:
232,256,146124,2,0,P|227:315|242:373,1,119.999996337891,8|0,0:0|0:0,0:0:0:0:
274,162,146409,6,0,L|139:184,1,119.999996337891,12|0,0:0|0:0,0:0:0:0:
73,265,146695,2,0,L|58:200,1,59.9999981689454,8|0,0:0|0:0,0:0:0:0:
73,55,146838,2,0,L|86:113,1,59.9999981689454
161,270,146981,2,0,P|221:298|285:311,1,119.999996337891,8|0,0:0|0:0,0:0:0:0:
421,264,147267,5,8,0:0:0:0:
416,222,147338,1,0,0:0:0:0:
411,180,147409,1,0,0:0:0:0:
406,137,147481,1,0,0:0:0:0:
401,95,147552,2,0,P|310:119|276:117,1,119.999996337891,12|0,0:0|0:0,0:0:0:0:
53,162,147838,5,8,0:0:0:0:
92,150,147909,1,0,0:0:0:0:
133,158,147981,1,0,0:0:0:0:
169,177,148052,1,0,0:0:0:0:
197,208,148124,2,0,P|218:244|221:330,1,119.999996337891,12|0,0:0|0:0,0:0:0:0:
77,355,148409,6,0,L|66:294,3,59.9999981689454,8|0|0|0,0:0|0:0|0:0|0:0,0:0:0:0:
60,260,148695,5,12,0:0:0:0:
57,223,148767,1,0,0:0:0:0:
68,189,148838,1,0,0:0:0:0:
96,166,148909,1,0,0:0:0:0:
132,163,148981,1,12,0:0:0:0:
165,175,149052,1,0,0:0:0:0:
190,201,149124,1,0,0:0:0:0:
220,218,149195,1,0,0:0:0:0:
256,218,149267,5,12,0:0:0:0:
289,204,149338,1,0,0:0:0:0:
312,177,149409,1,0,0:0:0:0:
320,141,149481,1,0,0:0:0:0:
315,105,149552,2,0,P|312:77|307:46,1,59.9999981689454,12|0,0:0|0:0,0:0:0:0:
232,76,149695,2,0,P|234:103|240:135,1,59.9999981689454
410,207,149838,6,0,P|403:251|394:297,1,75
381,321,150124,6,0,L|224:296,1,150.000005722046,4|0,0:0|0:0,0:0:0:0:
101,271,150409,5,2,0:0:0:0:
182,161,150552,1,0,0:0:0:0:
92,283,150695,1,8,0:0:0:0:
287,225,150838,1,0,0:0:0:0:
144,118,150981,6,0,P|149:175|157:244,1,119.999996337891,2|0,0:0|0:0,0:0:0:0:
317,352,151267,2,0,L|323:292|329:232,1,119.999996337891,8|0,0:0|0:0,0:0:0:0:
341,109,151552,1,2,0:0:0:0:
341,109,151695,1,0,0:0:0:0:
235,188,151838,1,8,0:0:0:0:
423,126,151981,1,0,0:0:0:0:
265,74,152124,6,0,P|197:52|147:33,1,119.999996337891,4|0,0:0|0:0,0:0:0:0:
33,188,152409,2,0,P|101:210|151:229,1,119.999996337891,8|0,0:0|0:0,0:0:0:0:
270,280,152695,1,2,0:0:0:0:
211,172,152838,1,0,0:0:0:0:
233,327,152981,1,8,0:0:0:0:
358,242,153124,1,0,0:0:0:0:
187,158,153267,5,2,0:0:0:0:
312,250,153409,1,0,0:0:0:0:
165,314,153552,1,8,0:0:0:0:
350,322,153695,1,0,0:0:0:0:
190,238,153838,1,2,0:0:0:0:
338,173,153981,1,0,0:0:0:0:
130,80,154124,2,0,P|134:149|139:215,1,119.999996337891,8|0,0:0|0:0,0:0:0:0:
252,342,154409,6,0,P|325:242|431:309,1,239.999992675781,4|8,0:0|0:0,0:0:0:0:
442,142,154838,1,0,0:0:0:0:
311,204,154981,1,2,0:0:0:0:
430,290,155124,1,0,0:0:0:0:
455,123,155267,1,8,0:0:0:0:
385,229,155409,1,0,0:0:0:0:
282,74,155552,5,4,0:0:0:0:
224,209,155695,1,0,0:0:0:0:
361,137,155838,1,8,0:0:0:0:
186,56,155981,1,0,0:0:0:0:
186,56,156052,1,0,0:0:0:0:
186,56,156124,1,2,0:0:0:0:
307,204,156267,1,0,0:0:0:0:
196,286,156409,2,0,P|155:249|152:173,1,119.999996337891,8|0,0:0|0:0,0:0:0:0:
339,58,156695,6,0,P|428:89|376:218,1,239.999992675781,4|8,0:0|0:0,0:0:0:0:
173,326,157124,2,0,P|84:295|136:166,1,239.999992675781,4|0,0:0|0:0,0:0:0:0:
361,137,157552,1,8,0:0:0:0:
151,247,157695,1,0,0:0:0:0:
361,137,157838,6,0,B|383:215|359:315|359:315|313:273|286:297,1,239.999992675781,4|8,0:0|0:0,0:0:0:0:
128,126,158267,1,0,0:0:0:0:
244,191,158409,1,2,0:0:0:0:
128,261,158552,1,0,0:0:0:0:
212,153,158695,5,8,0:0:0:0:
169,286,158838,1,0,0:0:0:0:
58,213,158981,2,0,B|41:120|40:29|40:29|68:84,1,239.999992675781,4|8,0:0|0:0,0:0:0:0:
212,153,159409,2,0,P|320:180|364:66,1,239.999992675781,4|0,0:0|0:0,0:0:0:0:
180,63,159838,1,8,0:0:0:0:
133,203,159981,1,0,0:0:0:0:
284,105,160124,6,0,B|302:38|290:5|290:5|263:33,1,119.999996337891,2|0,0:0|0:0,0:0:0:0:
98,147,160409,2,0,P|103:209|118:266,1,119.999996337891,8|0,0:0|0:0,0:0:0:0:
249,334,160695,1,2,0:0:0:0:
342,257,160838,1,0,0:0:0:0:
195,209,160981,1,8,0:0:0:0:
394,173,161124,1,0,0:0:0:0:
394,173,161195,1,0,0:0:0:0:
394,173,161267,6,0,L|384:296,1,119.999996337891,4|0,0:0|0:0,0:0:0:0:
127,292,161552,2,0,L|118:173,1,119.999996337891,8|0,0:0|0:0,0:0:0:0:
329,79,161838,1,2,0:0:0:0:
192,170,161981,1,0,0:0:0:0:
326,238,162124,1,8,0:0:0:0:
256,115,162267,1,0,0:0:0:0:
276,316,162409,6,0,L|396:298,1,119.999996337891,2|0,0:0|0:0,0:0:0:0:
192,346,162695,2,0,P|183:269|189:200,1,119.999996337891,8|0,0:0|0:0,0:0:0:0:
319,119,162981,2,0,P|328:196|322:265,1,119.999996337891,2|0,0:0|0:0,0:0:0:0:
100,322,163267,1,8,0:0:0:0:
82,222,163409,1,0,0:0:0:0:
65,121,163552,6,0,P|102:46|244:70,1,239.999992675781,4|8,0:0|0:0,0:0:0:0:
447,82,163981,2,0,P|410:157|268:133,1,239.999992675781,4|0,0:0|0:0,0:0:0:0:
160,109,164409,1,8,0:0:0:0:
283,248,164552,1,0,0:0:0:0:
174,211,164695,5,2,0:0:0:0:
368,182,164838,1,0,0:0:0:0:
255,95,164981,1,8,0:0:0:0:
396,198,165124,1,0,0:0:0:0:
241,265,165267,2,0,P|231:174|230:135,1,119.999996337891,2|0,0:0|0:0,0:0:0:0:
341,72,165552,1,8,0:0:0:0:
326,277,165695,1,0,0:0:0:0:
326,277,165767,1,0,0:0:0:0:
326,277,165838,6,0,P|234:266|198:259,1,119.999996337891,4|0,0:0|0:0,0:0:0:0:
67,102,166124,1,8,0:0:0:0:
90,67,166195,1,0,0:0:0:0:
130,53,166267,1,0,0:0:0:0:
171,51,166338,1,0,0:0:0:0:
208,68,166409,2,0,P|204:142|197:193,1,119.999996337891,2|0,0:0|0:0,0:0:0:0:
103,326,166695,1,8,0:0:0:0:
145,322,166767,1,0,0:0:0:0:
186,318,166838,1,0,0:0:0:0:
227,315,166909,1,0,0:0:0:0:
269,313,166981,6,0,L|347:307,1,59.9999981689454,2|0,0:0|0:0,0:0:0:0:
423,227,167124,2,0,L|345:221,1,59.9999981689454,2|0,0:0|0:0,0:0:0:0:
235,158,167267,2,0,L|313:152,1,59.9999981689454,10|0,0:0|0:0,0:0:0:0:
389,72,167410,2,0,L|311:66,1,59.9999981689454,2|0,0:0|0:0,0:0:0:0:
152,49,167552,5,8,0:0:0:0:
140,89,167624,1,2,0:0:0:0:
132,130,167695,1,2,0:0:0:0:
127,172,167767,1,0,0:0:0:0:
127,213,167838,1,8,0:0:0:0:
133,254,167909,1,2,0:0:0:0:
162,284,167981,1,2,0:0:0:0:
201,292,168052,1,0,0:0:0:0:
236,281,168124,6,0,P|310:257|400:257,1,160,4|2,0:0|0:0,0:0:0:0:
455,138,168552,1,0,0:0:0:0:
455,138,168695,2,0,P|381:162|291:162,1,160,0|2,0:0|0:0,0:0:0:0:
207,148,169124,2,0,P|197:100|197:61,1,80
92,37,169409,6,0,P|102:85|102:124,1,80,0|2,0:0|0:0,0:0:0:0:
120,209,169695,2,0,P|185:246|276:231,1,160
341,171,170124,2,0,P|331:122|330:89,1,80,2|0,0:0|0:0,0:0:0:0:
413,40,170409,6,0,P|448:95|419:204,1,160,0|2,0:0|0:0,0:0:0:0:
371,259,170838,1,0,0:0:0:0:
371,259,170981,2,0,B|290:242|290:242|203:253,1,160,0|2,0:0|0:0,0:0:0:0:
141,306,171409,2,0,P|123:238|188:166,2,160,0|2|0,0:0|0:0|0:0,0:0:0:0:
355,146,172267,5,0,0:0:0:0:
287,71,172409,1,2,0:0:0:0:
257,168,172552,1,0,0:0:0:0:
355,146,172695,6,0,L|437:131,1,80
323,248,172981,2,0,L|405:233,1,80,2|0,0:0|0:0,0:0:0:0:
289,342,173267,2,0,P|230:321|127:317,1,160,0|2,0:0|0:0,0:0:0:0:
39,249,173695,6,0,P|98:228|201:224,2,160,0|2|0,0:0|0:0|0:0,0:0:0:0:
73,149,174409,2,0,P|93:94|99:57,1,80
176,138,174695,2,0,P|215:119|252:91,1,80,2|0,0:0|0:0,0:0:0:0:
249,209,174981,6,0,P|297:228|402:204,1,160,0|2,0:0|0:0,0:0:0:0:
455,123,175409,1,0,0:0:0:0:
455,123,175552,2,0,L|435:296,1,160,0|2,0:0|0:0,0:0:0:0:
353,333,175981,6,0,L|180:313,2,160,0|2|0,0:0|0:0|0:0,0:0:0:0:
256,92,176838,6,0,L|256:174,2,80,0|2|2,0:0|0:0|0:0,0:0:0:0:
