osu file format v14

[General]
AudioFilename: Reol - SYSTEMATIC LOVE.mp3
AudioLeadIn: 2000
PreviewTime: 21476
Countdown: 0
SampleSet: None
StackLeniency: 0.2
Mode: 0
LetterboxInBreaks: 0
EpilepsyWarning: 1
WidescreenStoryboard: 1

[Editor]
Bookmarks: 328,10916,21504,36063,49739,63857,77975,92092,106210,120769,134445,148563,162680,176798,190916,205033,219151,233269,247386,261945,275622,289739,303857
DistanceSpacing: 1.7
BeatDivisor: 16
GridSize: 4
TimelineZoom: 2.899999

[Metadata]
Title:SYSTEMATIC LOVE
TitleUnicode:システマティック・ラヴ
Artist:Reol
ArtistUnicode:れをる
Creator:Gero
Version:// LOVE; server IP=argv(HEART);(EXIT_FAILURE);
Source:
Tags:Reworu Utattemita 歌ってみた Cover Kameria×Satsuki ga Tenkomori さつき が てんこもり feat Hatsune Miku 初音ミク Camellia かめりあ Maclo マクロ Error Dubstep Party Junkie Stance on Wave VOCA NICO☆PARTY DJ VOCA NICO VOCALOID 踊ボカ!! ~踊ってみたセレクション~. Hall of Fame VOCALOID殿堂 dendou VOCALOID伝説 densetsu Legends Collab Collaboration Secretpipe Asphyxia -kevincela- iyasine BluOxy Irreversible monstrata Monstrata Kyshiro alacat EvilElvis EvilElvisV2
BeatmapID:914570
BeatmapSetID:423194

[Difficulty]
HPDrainRate:6
CircleSize:4
OverallDifficulty:8
ApproachRate:9
SliderMultiplier:1.91999990463257
SliderTickRate:2

[Events]
//Background and Video events
0,0,"BG.jpg",0,0
Video,7000,"Video.flv"
//Break Periods
//Storyboard Layer 0 (Background)
//Storyboard Layer 1 (Fail)
//Storyboard Layer 2 (Pass)
//Storyboard Layer 3 (Foreground)
//Storyboard Sound Samples
Sample,22827,0,"normal-hitclap.wav",80
Sample,26357,0,"normal-hitclap.wav",80
Sample,29886,0,"normal-hitclap.wav",80
Sample,87239,0,"normal-hitclap.wav",70
Sample,99592,0,"normal-hitclap.wav",70
Sample,101357,0,"normal-hitclap.wav",70
Sample,111063,0,"normal-hitclap.wav",80
Sample,125180,0,"normal-hitclap.wav",80
Sample,139077,0,"drum-hitwhistle10.wav",70
Sample,146136,0,"drum-hitwhistle10.wav",70
Sample,149666,0,"drum-hitwhistle10.wav",70
Sample,153195,0,"drum-hitwhistle10.wav",70
Sample,181872,0,"drum-hitwhistle10.wav",70
Sample,183195,0,"drum-hitwhistle10.wav",70
Sample,266357,0,"normal-hitclap.wav",80

[TimingPoints]
328,441.176470588235,4,3,1,80,1,0
769,-125,4,3,1,80,0,0
1651,-100,4,3,1,80,0,0
4298,-83.3333333333333,4,3,1,80,0,0
5622,-100,4,3,1,80,0,0
7386,-83.3333333333333,4,3,1,80,0,0
10916,-100,4,3,1,80,0,0
17092,-83.3333333333333,4,3,1,80,0,0
17975,-100,4,3,1,80,0,0
19739,-71.4285714285714,4,3,1,80,0,0
20180,-100,4,3,1,80,0,0
20732,-71.4285714285714,4,3,1,80,0,0
21063,-62.5,4,3,1,80,0,0
21504,-83.3333333333333,4,3,1,90,0,1
35622,-83.3333333333333,4,3,1,90,0,0
36063,-55.5555555555556,4,3,1,90,0,1
36504,-71.4285714285714,4,3,1,90,0,1
37166,-62.5,4,3,1,90,0,1
37386,-76.9230769230769,4,3,1,90,0,1
38930,-66.6666666666667,4,3,1,90,0,1
39151,-100,4,3,1,90,0,1
39592,-66.6666666666667,4,3,1,90,0,1
40033,-71.4285714285714,4,3,1,90,0,1
42680,-83.3333333333333,4,3,1,90,0,1
43122,-71.4285714285714,4,3,1,90,0,1
44225,-62.5,4,3,1,90,0,1
44445,-76.9230769230769,4,3,1,90,0,1
46210,-76.9230769230769,4,3,1,90,0,1
47533,-66.6666666666667,4,3,1,90,0,1
47754,-125,4,3,1,90,0,1
48416,-100,4,3,1,90,0,1
48747,-76.9230769230769,4,3,1,90,0,1
49298,-62.5,4,3,1,90,0,1
49739,-125,4,2,1,80,0,0
51063,-500,4,2,1,80,0,0
53600,-100,4,2,1,80,0,0
54592,-500,4,2,1,80,0,0
56798,-83.3333333333333,4,2,1,80,0,0
58122,-500,4,2,1,80,0,0
60658,-76.9230769230769,4,2,1,80,0,0
61651,-500,4,2,1,80,0,0
63857,-66.6666666666666,4,2,1,80,0,0
64188,-142.857142857143,4,2,1,80,0,0
64519,-66.6666666666667,4,2,1,80,0,0
64850,-142.857142857143,4,2,1,80,0,0
65180,-500,4,2,1,80,0,0
65236,-500,4,2,1,30,0,0
67717,-66.6666666666667,4,2,1,80,0,0
68048,-142.857142857143,4,2,1,80,0,0
68379,-66.6666666666667,4,2,1,80,0,0
68710,-500,4,2,1,80,0,0
68765,-500,4,2,1,30,0,0
70475,-83.3333333333333,4,2,1,55,0,0
70916,-66.6666666666667,4,2,1,80,0,0
71247,-142.857142857143,4,2,1,80,0,0
71577,-66.6666666666667,4,2,1,80,0,0
71908,-142.857142857143,4,2,1,80,0,0
73122,-142.857142857143,4,2,1,60,0,0
74445,-142.857142857143,4,3,1,70,0,0
76210,-142.857142857143,4,3,1,70,0,0
77533,-58.8235294117647,4,2,1,70,0,0
77975,-100,4,3,1,80,0,0
79298,-66.6666666666667,4,3,1,80,0,0
79739,-100,4,3,1,80,0,0
81283,-66.6666666666667,4,3,1,80,0,0
81504,-66.6666666666667,4,3,1,80,0,0
81945,-100,4,3,1,80,0,0
83710,-90.9090909090909,4,3,1,80,0,0
84151,-66.6666666666667,4,3,1,80,0,0
84592,-100,4,3,1,80,0,0
86357,-66.6666666666667,4,3,1,80,0,0
86798,-100,4,3,1,80,0,0
88342,-66.6666666666667,4,3,1,80,0,0
88563,-66.6666666666667,4,3,1,80,0,0
89004,-100,4,3,1,80,0,0
90107,-66.6666666666667,4,3,1,80,0,0
90327,-100,4,3,1,80,0,0
90769,-90.9090909090909,4,3,1,80,0,0
91210,-66.6666666666667,4,3,1,80,0,0
91651,-66.6666666666667,4,2,1,70,0,0
92092,-86.9565217391304,4,3,1,80,0,0
92533,-100,4,3,1,80,0,0
93416,-66.6666666666667,4,3,1,80,0,0
93857,-100,4,3,1,80,0,0
95842,-100,4,3,10,70,0,0
95870,-100,4,3,1,80,0,0
96283,-100,4,3,10,70,0,0
96311,-100,4,3,1,80,0,0
96725,-100,4,3,10,70,0,0
96752,-100,4,3,1,80,0,0
97166,-100,4,3,10,70,0,0
97193,-100,4,3,1,80,0,0
97607,-100,4,3,10,70,0,0
97634,-100,4,3,1,80,0,0
98048,-100,4,3,10,70,0,0
98076,-100,4,3,1,80,0,0
98489,-100,4,3,10,70,0,0
98517,-100,4,3,1,80,0,0
98930,-100,4,3,10,70,0,0
98958,-100,4,3,1,80,0,0
100475,-66.6666666666667,4,3,1,80,0,0
100916,-100,4,3,1,80,0,0
104445,-133.333333333333,4,3,1,80,0,0
104886,-66.6666666666667,4,3,1,80,0,0
106210,-55.5555555555556,4,3,1,90,0,1
106651,-83.3333333333333,4,3,1,90,0,1
116798,-66.6666666666667,4,3,1,90,0,1
118563,-83.3333333333333,4,3,1,90,0,1
120327,-83.3333333333333,4,3,1,90,0,0
120769,-83.3333333333333,4,3,1,90,0,1
124739,-71.4285714285714,4,3,1,90,0,1
125622,-83.3333333333333,4,3,1,90,0,1
131798,-66.6666666666667,4,3,1,90,0,1
132680,-83.3333333333333,4,3,1,90,0,1
133563,-71.4285714285714,4,3,1,90,0,1
134445,-100,4,3,1,80,0,0
134666,-100,4,3,10,70,0,0
134693,-100,4,3,1,80,0,0
135107,-100,4,3,10,70,0,0
135134,-100,4,3,1,80,0,0
135548,-100,4,3,10,70,0,0
135576,-100,4,3,1,80,0,0
135989,-100,4,3,10,70,0,0
136017,-100,4,3,1,80,0,0
136430,-100,4,3,10,70,0,0
136458,-100,4,3,1,80,0,0
136872,-100,4,3,10,70,0,0
136899,-100,4,3,1,80,0,0
137313,-100,4,3,10,70,0,0
137340,-100,4,3,1,80,0,0
137754,-100,4,3,10,70,0,0
137782,-100,4,3,1,80,0,0
138195,-100,4,3,10,70,0,0
138223,-100,4,3,1,80,0,0
138636,-100,4,3,10,70,0,0
138664,-100,4,3,1,80,0,0
139519,-100,4,3,10,70,0,0
139546,-100,4,3,1,80,0,0
139960,-100,4,3,10,70,0,0
139987,-100,4,3,1,80,0,0
140401,-100,4,3,10,70,0,0
140429,-100,4,3,1,80,0,0
140842,-100,4,3,10,70,0,0
140870,-100,4,3,1,80,0,0
141283,-100,4,3,10,70,0,0
141311,-100,4,3,1,80,0,0
141725,-100,4,3,10,70,0,0
141752,-100,4,3,1,80,0,0
142166,-100,4,3,10,70,0,0
142193,-100,4,3,1,80,0,0
142607,-100,4,3,10,70,0,0
142634,-100,4,3,1,80,0,0
143048,-100,4,3,10,70,0,0
143076,-100,4,3,1,80,0,0
143489,-100,4,3,10,70,0,0
143517,-100,4,3,1,80,0,0
143930,-100,4,3,10,70,0,0
143958,-100,4,3,1,80,0,0
144372,-100,4,3,10,70,0,0
144399,-100,4,3,1,80,0,0
144813,-100,4,3,10,70,0,0
144840,-100,4,3,1,80,0,0
145254,-100,4,3,10,70,0,0
145282,-100,4,3,1,80,0,0
145695,-100,4,3,10,70,0,0
145723,-100,4,3,1,80,0,0
146577,-100,4,3,10,70,0,0
146605,-100,4,3,1,80,0,0
147019,-100,4,3,10,70,0,0
147046,-100,4,3,1,80,0,0
147460,-100,4,3,10,70,0,0
147487,-100,4,3,1,80,0,0
147901,-100,4,3,10,70,0,0
147929,-100,4,3,1,80,0,0
148342,-100,4,3,10,70,0,0
148370,-100,4,3,1,80,0,0
148783,-100,4,3,10,70,0,0
148811,-100,4,3,1,80,0,0
149225,-100,4,3,10,70,0,0
149252,-100,4,3,1,80,0,0
150107,-100,4,3,10,70,0,0
150134,-100,4,3,1,80,0,0
150548,-100,4,3,10,70,0,0
150576,-100,4,3,1,80,0,0
150989,-100,4,3,10,70,0,0
151017,-100,4,3,1,80,0,0
151430,-100,4,3,10,70,0,0
151458,-100,4,3,1,80,0,0
151872,-100,4,3,10,70,0,0
151899,-100,4,3,1,80,0,0
152313,-100,4,3,10,70,0,0
152340,-100,4,3,1,80,0,0
152754,-100,4,3,10,70,0,0
152782,-100,4,3,1,80,0,0
153636,-100,4,3,10,70,0,0
153664,-100,4,3,1,80,0,0
154077,-100,4,3,10,70,0,0
154105,-100,4,3,1,80,0,0
154519,-100,4,3,10,70,0,0
154546,-100,4,3,1,80,0,0
154960,-100,4,3,10,70,0,0
154987,-100,4,3,1,80,0,0
155401,-100,4,3,10,70,0,0
155429,-100,4,3,1,80,0,0
155622,-66.6666666666667,4,3,1,80,0,0
155952,-142.857142857143,4,3,1,80,0,0
156283,-66.6666666666667,4,3,1,80,0,0
156614,-142.857142857143,4,3,1,80,0,0
156945,-100,4,3,1,80,0,0
157276,-100,4,3,1,20,0,0
157386,-200,4,2,1,60,0,0
158158,-200,4,2,1,20,0,0
158269,-200,4,2,1,60,0,0
158600,-200,4,2,1,20,0,0
158710,-200,4,2,1,60,0,0
159041,-200,4,2,1,20,0,0
159151,-200,4,3,1,60,0,0
160916,-125,4,3,1,60,0,0
161577,-125,4,3,1,70,0,0
162239,-58.8235294117647,4,2,1,70,0,0
162680,-100,4,3,1,80,0,0
165989,-66.6666666666667,4,3,1,80,0,0
166210,-100,4,3,1,80,0,0
167754,-66.6666666666667,4,3,1,80,0,0
167975,-100,4,3,1,80,0,0
168636,-60.6060606060606,4,3,1,80,0,0
168802,-60.6060606060606,4,3,1,5,0,0
168857,-100,4,3,1,80,0,0
173048,-60.6060606060606,4,3,1,80,0,0
173214,-60.6060606060606,4,3,1,5,0,0
173269,-100,4,3,1,80,0,0
173710,-76.9230769230769,4,3,1,80,0,0
174151,-100,4,3,1,80,0,0
175033,-76.9230769230769,4,3,1,80,0,0
175475,-100,4,3,1,80,0,0
175916,-76.9230769230769,4,3,1,80,0,0
176357,-76.9230769230769,4,2,1,70,0,0
176798,-100,4,3,1,80,0,0
177460,-66.6666666666667,4,3,1,80,0,0
178122,-62.5,4,3,1,80,0,0
178563,-100,4,3,1,80,0,0
179004,-76.9230769230769,4,3,1,80,0,0
179445,-66.6666666666667,4,3,1,80,0,0
180327,-100,4,3,1,80,0,0
180548,-100,4,3,10,70,0,0
180576,-100,4,3,1,80,0,0
180769,-125,4,3,1,80,0,0
180989,-125,4,3,10,70,0,0
181017,-125,4,3,1,70,0,0
181210,-166.666666666667,4,3,1,80,0,0
181430,-166.666666666667,4,3,10,70,0,0
181458,-166.666666666667,4,3,1,80,0,0
181651,-62.5,4,3,1,80,0,0
181872,-55.5555555555556,4,3,1,80,0,0
182092,-66.6666666666667,4,3,1,80,0,0
182313,-66.6666666666667,4,3,10,70,0,0
182340,-66.6666666666667,4,3,1,80,0,0
182754,-133.333333333333,4,3,10,70,0,0
182782,-133.333333333333,4,3,1,80,0,0
182975,-74.074074074074,4,3,1,80,0,0
183636,-74.074074074074,4,3,10,70,0,0
183664,-74.074074074074,4,3,1,80,0,0
183857,-83.3333333333333,4,3,1,80,0,0
184519,-62.5,4,3,1,80,0,0
185401,-55.5555555555556,4,3,1,80,0,0
185622,-76.9230769230769,4,3,1,80,0,0
186063,-66.6666666666667,4,3,1,80,0,0
189151,-133.333333333333,4,3,1,80,0,0
190033,-66.6666666666667,4,3,1,80,0,0
190916,-125,4,2,1,70,0,0
206357,-200,4,2,1,70,0,0
208894,-125,4,2,1,70,0,0
209886,-200,4,2,1,70,0,0
211872,-125,4,2,1,70,0,0
213416,-200,4,2,1,70,0,0
214739,-125,4,2,1,70,0,0
219151,-66.6666666666667,4,2,1,80,0,0
220475,-9999.66666666667,4,2,1,80,0,0
223011,-66.6666666666667,4,2,1,80,0,0
224004,-9999.66666666667,4,2,1,80,0,0
226210,-66.6666666666667,4,2,1,80,0,0
227533,-9999.66666666667,4,2,1,80,0,0
230070,-66.6666666666667,4,2,1,80,0,0
231063,-9999.66666666667,4,2,1,80,0,0
233158,-111.111111111111,4,2,1,80,0,0
233269,-66.6666666666667,4,2,1,80,0,0
233600,-76.9230769230769,4,2,1,80,0,0
233930,-100,4,2,1,80,0,0
234261,-133.333333333333,4,2,1,80,0,0
237460,-100,4,2,1,80,0,0
237791,-76.9230769230769,4,2,1,80,0,0
238122,-66.6666666666667,4,2,1,80,0,0
240658,-76.9230769230769,4,2,1,80,0,0
240989,-100,4,2,1,80,0,0
241320,-133.333333333333,4,2,1,80,0,0
242533,-133.333333333333,4,2,1,60,0,0
243857,-83.3333333333333,4,3,1,70,0,0
246945,-125,4,2,1,70,0,0
247386,-55.5555555555556,4,3,1,80,0,1
247827,-83.3333333333333,4,3,1,80,0,1
250916,-55.5555555555556,4,3,1,80,0,1
251357,-83.3333333333333,4,3,1,90,0,1
254445,-55.5555555555556,4,3,1,90,0,1
254886,-83.3333333333333,4,3,1,90,0,1
257975,-55.5555555555556,4,3,1,90,0,1
258416,-83.3333333333333,4,3,1,90,0,1
261504,-200,4,3,1,90,0,0
261945,-83.3333333333333,4,3,1,90,0,1
265033,-133.333333333333,4,3,1,90,0,1
265916,-83.3333333333333,4,3,1,90,0,1
268122,-100,4,3,1,90,0,1
268563,-133.333333333333,4,3,1,90,0,1
269004,-100,4,3,1,90,0,1
272092,-133.333333333333,4,3,1,90,0,1
272975,-83.3333333333333,4,3,1,90,0,1
273857,-83.3333333333333,4,3,1,90,0,1
274298,-83.3333333333333,4,3,1,90,0,1
274739,-133.333333333333,4,3,1,90,0,1
275180,-83.3333333333333,4,3,1,90,0,1
275622,-83.3333333333333,4,3,1,80,0,0
289739,-100,4,3,1,80,0,1
289850,-100,4,3,1,80,0,0
303416,-100,4,3,1,50,0,0
303636,-100,4,3,1,30,0,0
303857,-100,4,2,1,10,0,0

[Colours]
Combo1 : 128,128,255
Combo2 : 230,50,40
Combo3 : 180,156,63
Combo4 : 129,129,129
Combo5 : 71,52,177
Combo6 : 62,172,141
Combo7 : 207,61,197
Combo8 : 128,0,128
SliderBorder : 228,22,198
SliderTrackOverride : 77,150,185

[HitObjects]
41,213,328,6,0,P|124:231|179:214,1,143.999992847443,4|2,1:0|0:2,0:0:0:0:
218,197,769,2,0,L|209:282,1,76.7999961853028,10|2,1:0|0:2,0:0:0:0:
361,313,1210,2,0,L|352:228,1,76.7999961853028,4|2,0:0|0:1,0:0:0:0:
311,56,1651,2,0,P|267:43|204:54,1,95.9999952316285,8|2,1:0|0:1,0:0:0:0:
95,174,2092,5,6,0:0:0:0:
91,207,2202,1,2,0:0:0:0:
87,240,2313,1,2,0:0:0:0:
31,43,2533,1,8,1:0:0:0:
183,186,2754,1,2,0:0:0:0:
286,120,2975,2,0,L|280:84,3,31.9999984105428,6|2|2|2,0:0|0:0|0:0|0:0,0:0:0:0:
324,302,3416,2,0,P|374:291|407:243,1,95.9999952316285,8|0,1:0|0:0,0:0:0:0:
217,248,3857,6,0,P|170:244|123:253,1,95.9999952316285,4|0,0:0|0:0,0:0:0:0:
300,216,4298,2,0,P|310:159|282:91,1,115.199990762329,10|0,1:0|0:0,0:0:0:0:
109,142,4739,2,0,P|103:199|123:253,1,115.199990762329,2|0,0:1|0:0,0:0:0:0:
145,285,5070,1,2,0:1:0:0:
171,315,5180,2,0,P|231:302|297:314,1,115.199990762329,8|2,1:0|0:0,0:0:0:0:
460,362,5622,6,0,L|454:252,1,95.9999952316285,4|2,0:0|0:1,0:0:0:0:
384,90,6063,2,0,L|379:200,1,95.9999952316285,8|2,1:0|0:1,0:0:0:0:
366,216,6394,1,2,0:1:0:0:
342,240,6504,2,0,L|277:242,1,47.9999976158143,4|0,0:0|0:0,0:0:0:0:
210,173,6725,2,0,L|257:174,1,47.9999976158143,2|0,0:1|0:0,0:0:0:0:
189,253,6945,2,0,L|180:318,1,47.9999976158143,8|0,1:0|0:0,0:0:0:0:
128,192,7166,2,0,L|119:127,1,47.9999976158143,2|0,0:1|0:0,0:0:0:0:
214,31,7386,6,0,B|314:13|286:59|390:39,1,172.799986143494,4|2,1:0|0:2,0:0:0:0:
457,29,7827,1,10,1:0:0:0:
323,124,8048,1,2,0:2:0:0:
425,332,8269,2,0,P|437:271|402:210,1,115.199990762329,4|2,0:0|0:1,0:0:0:0:
381,202,8600,1,2,0:2:0:0:
340,201,8710,2,0,P|294:213|220:197,1,115.199990762329,8|2,1:0|0:1,0:0:0:0:
94,156,9151,6,0,L|100:92,2,57.5999953811647,6|2|2,0:0|0:0|0:0,0:0:0:0:
81,372,9592,1,8,1:0:0:0:
0,199,9813,1,2,0:0:0:0:
174,161,10033,1,6,0:0:0:0:
193,155,10107,1,0,0:0:0:0:
212,148,10180,1,2,0:0:0:0:
231,142,10254,1,2,0:0:0:0:
438,23,10475,2,0,P|446:72|434:145,1,115.199990762329,8|0,1:0|0:0,0:0:0:0:
303,239,10916,6,0,B|382:212|360:273|440:254,1,143.999992847443,4|0,0:0|0:0,0:0:0:0:
462,245,11357,1,10,1:0:0:0:
339,71,11577,1,0,0:0:0:0:
343,79,11688,1,0,0:0:0:0:
347,87,11798,2,0,P|299:65|245:87,1,95.9999952316285,2|0,0:1|0:0,0:0:0:0:
235,0,12129,2,0,P|191:30|184:88,1,95.9999952316285,2|0,0:1|0:0,0:0:0:0:
297,144,12460,1,2,0:1:0:0:
102,90,12680,6,0,P|147:143|216:141,1,143.999992847443,4|0,0:0|0:0,0:0:0:0:
297,144,13122,2,0,L|278:244,1,95.9999952316285,8|2,1:0|0:1,0:0:0:0:
274,256,13452,1,0,0:0:0:0:
270,274,13563,5,4,0:0:0:0:
400,215,13783,1,2,0:1:0:0:
73,248,14004,1,8,1:0:0:0:
203,189,14224,1,2,0:1:0:0:
363,304,14445,6,0,P|331:355|235:366,1,143.999992847443,4|2,0:0|0:2,0:0:0:0:
270,274,14886,2,0,L|280:227,1,47.9999976158143,8|0,1:0|0:0,0:0:0:0:
297,144,15107,1,2,0:2:0:0:
329,3,15327,2,0,L|297:144,1,143.999992847443,4|2,0:0|0:2,0:0:0:0:
270,274,15769,1,8,1:0:0:0:
164,191,15989,1,2,0:0:0:0:
119,318,16210,5,6,0:0:0:0:
119,318,16320,1,2,0:0:0:0:
119,318,16430,1,2,0:0:0:0:
154,157,16651,1,8,1:0:0:0:
270,274,16872,1,2,0:0:0:0:
101,342,17092,6,0,L|76:371,4,38.3999969207765,4|0|2|2|0,0:0|0:0|0:0|0:0|0:0,0:0:0:0:
297,289,17533,2,0,L|327:311,4,38.3999969207765,8|0|0|2|0,1:0|0:0|0:0|0:0|0:0,0:0:0:0:
101,197,17975,6,0,B|69:156|76:96|132:68|200:61|215:134|227:154|227:154|246:142|281:85|362:105|410:179|392:269|329:279|286:280|225:260|196:278|178:315|169:383|169:383,1,671.999966621399,4|2,0:0|0:0,0:0:0:0:
179,344,19739,6,0,B|291:371|257:280|369:313,1,201.599983834077,4|0,1:0|0:0,0:0:0:0:
446,307,20180,2,0,L|433:369,1,47.9999976158143,2|2,0:0|0:0,0:0:0:0:
478,179,20401,2,0,L|465:241,1,47.9999976158143,2|2,0:0|0:0,0:0:0:0:
468,226,20622,1,2,0:0:0:0:
400,164,20732,6,0,P|440:108|505:104,1,134.399989222718,4|0,1:0|0:0,0:0:0:0:
254,104,21063,6,0,P|224:140|186:148,1,76.7999961853028,4|0,1:0|0:0,0:0:0:0:
203,239,21283,2,0,P|165:237|134:214,1,76.7999961853028,4|0,1:0|0:0,0:0:0:0:
80,44,21504,6,2,B|120:44|120:44|156:44|186:74,1,115.199990762329,4|0,1:0|0:0,0:0:0:0:
114,140,21835,1,0,0:0:0:0:
114,140,21945,2,0,L|56:140,1,57.5999953811647,8|0,1:1|0:0,0:0:0:0:
198,192,22166,2,0,L|256:192,1,57.5999953811647,4|4,0:2|0:2,0:0:0:0:
114,244,22386,6,0,P|97:298|114:352,1,115.199990762329,4|0,0:0|0:0,0:0:0:0:
198,300,22717,2,0,P|215:246|198:192,1,115.199990762329,4|0,0:2|0:0,0:0:0:0:
114,244,23048,2,0,B|84:244|84:244|64:264,1,57.5999953811647
198,300,23269,6,0,L|320:284,1,115.199990762329,6|2,0:0|0:0,0:0:0:0:
410,285,23600,1,4,0:2:0:0:
410,285,23710,2,0,L|394:341,1,57.5999953811647,8|0,1:0|0:0,0:0:0:0:
350,213,23930,6,0,L|330:174,2,38.3999969207765,2|2|2,0:0|0:0|0:0,0:0:0:0:
392,128,24151,6,0,B|420:121|420:121|448:128,1,57.5999953811647,4|0,0:0|0:0,0:0:0:0:
253,191,24372,2,0,B|225:198|225:198|197:191,1,57.5999953811647,4|4,0:2|0:2,0:0:0:0:
296,112,24592,2,0,L|350:213,1,115.199990762329,8|0,1:0|0:0,0:0:0:0:
410,285,24923,1,0,0:0:0:0:
410,285,25033,6,2,P|334:285|368:348,1,172.799986143494,4|0,0:0|0:0,0:0:0:0:
492,316,25475,2,0,P|498:288|492:260,1,57.5999953811647,8|4,1:0|0:2,0:0:0:0:
408,100,25695,6,0,P|402:128|408:156,1,57.5999953811647,4|0,0:2|0:0,0:0:0:0:
450,28,25916,6,0,B|406:4|366:28|366:28|340:28,1,115.199990762329,4|4,0:0|0:2,0:0:0:0:
160,148,26247,2,0,B|204:172|244:148|244:148|271:148,1,115.199990762329,4|0,0:2|0:0,0:0:0:0:
180,20,26577,2,0,L|197:76,1,57.5999953811647,4|4,0:2|0:2,0:0:0:0:
143,343,26798,6,0,L|108:234,1,115.199990762329,4|4,0:0|0:2,0:0:0:0:
52,152,27129,1,4,0:2:0:0:
52,152,27239,1,8,1:0:0:0:
208,272,27350,2,0,B|236:279|236:279|264:272,1,57.5999953811647,0|4,0:0|0:2,0:0:0:0:
336,204,27570,6,0,B|304:268|336:332|336:332|368:300,1,172.799986143494,0|4,0:0|0:2,0:0:0:0:
460,284,28011,1,4,0:2:0:0:
261,135,28122,2,0,P|246:159|239:187,1,57.5999953811647,8|0,1:0|0:0,0:0:0:0:
432,187,28342,2,0,P|425:159|410:134,1,57.5999953811647
336,68,28563,5,4,0:0:0:0:
312,52,28673,1,4,0:2:0:0:
224,52,28783,5,0,0:0:0:0:
200,36,28894,1,4,0:2:0:0:
112,36,29004,6,0,P|58:19|4:36,1,115.199990762329,8|0,1:0|0:0,0:0:0:0:
56,120,29335,1,0,0:0:0:0:
56,120,29445,2,0,B|72:152|72:152|88:192|72:232,1,115.199990762329,4|0,0:0|0:0,0:0:0:0:
160,383,29776,2,0,P|143:329|160:275,1,115.199990762329
252,179,30107,2,0,P|257:207|252:236,1,57.5999953811647,4|4,0:2|0:2,0:0:0:0:
199,112,30327,6,0,L|313:123,1,115.199990762329,6|2,0:0|0:0,0:0:0:0:
160,192,30658,1,4,0:2:0:0:
160,192,30769,2,0,B|102:186,1,57.5999953811647,8|0,1:0|0:0,0:0:0:0:
257,266,30989,6,0,L|295:268,2,38.3999969207765,2|2|2,0:0|0:0|0:0,0:0:0:0:
224,292,31210,6,0,L|338:301,1,115.199990762329,4|4,0:0|0:2,0:0:0:0:
436,276,31541,1,4,0:2:0:0:
436,276,31651,2,0,B|443:304|443:304|436:332,1,57.5999953811647,8|0,1:0|0:0,0:0:0:0:
368,128,31872,2,0,B|361:100|361:100|368:72,1,57.5999953811647
452,180,32092,6,2,B|279:167,1,172.799986143494,4|0,0:0|0:0,0:0:0:0:
84,262,32533,2,0,L|141:253,1,57.5999953811647,8|0,1:0|0:0,0:0:0:0:
284,342,32754,6,0,L|321:349,2,38.3999969207765,4|4|4,0:2|0:2|0:2,0:0:0:0:
224,292,32975,6,0,L|281:283,1,57.5999953811647,4|0,0:0|0:0,0:0:0:0:
408,270,33195,6,0,L|436:276,3,28.7999976905824,4|0|4|0,0:2|0:0|0:2|0:0,0:0:0:0:
348,220,33416,6,0,L|405:211,1,57.5999953811647,8|0,1:0|0:0,0:0:0:0:
512,240,33636,1,4,0:2:0:0:
368,128,33747,1,4,0:2:0:0:
368,128,33857,6,2,P|351:74|368:20,1,115.199990762329,4|4,0:0|0:2,0:0:0:0:
256,155,34188,1,4,0:2:0:0:
256,155,34298,2,0,P|264:192|256:229,1,76.799993841553,8|0,1:0|0:0,0:0:0:0:
208,280,34519,6,2,L|194:224,2,57.5999953811647,0|0|0,0:0|0:0|0:0,0:0:0:0:
100,352,34850,2,2,L|114:296,2,57.5999953811647,0|0|0,0:0|0:0|0:0,0:0:0:0:
56,192,35180,5,8,1:0:0:0:
258,32,35401,1,0,0:0:0:0:
318,93,35511,1,0,0:0:0:0:
256,155,35622,6,0,B|290:189|346:189|380:155|380:155|408:183,1,172.799986143494,4|0,1:0|0:0,0:0:0:0:
464,255,36063,6,2,B|420:236|405:181|405:181|425:279|334:337,1,259.199979215241,12|0,1:0|0:0,0:0:0:0:
242,350,36504,6,0,L|95:339,1,134.399989222718,4|4,0:0|0:2,0:0:0:0:
26,282,36835,1,4,0:2:0:0:
112,236,36945,2,0,L|197:242,1,67.1999946113589,8|4,1:0|0:2,0:0:0:0:
242,350,37166,6,0,L|323:344,1,76.7999961853028,4|0,0:2|0:0,0:0:0:0:
448,296,37386,6,0,B|460:236|460:236|444:168,1,124.799988088227,6|2,0:0|0:0,0:0:0:0:
372,104,37717,1,4,0:2:0:0:
292,164,37827,2,0,L|273:238,1,62.3999940441135,8|0,1:0|0:0,0:0:0:0:
184,112,38048,6,0,L|173:70,2,41.599996029409,4|4|4,0:2|0:2|0:2,0:0:0:0:
116,160,38269,2,0,P|84:161|54:154,1,62.3999940441135,4|0,0:0|0:0,0:0:0:0:
148,272,38489,6,0,L|158:312,2,41.599996029409,4|4|4,0:2|0:2|0:2,0:0:0:0:
215,218,38710,2,2,P|246:216|276:223,1,62.3999940441135,8|0,1:0|0:0,0:0:0:0:
392,288,38930,2,0,P|427:289|463:283,1,71.9999991703034,4|4,0:2|0:2,0:0:0:0:
276,223,39151,6,2,L|264:372,1,143.999992847443,4|0,0:0|0:0,0:0:0:0:
392,288,39592,6,0,L|400:185,2,95.9999988937378,8|8|8,0:0|0:0|0:0,0:0:0:0:
264,366,40033,6,0,B|224:340|224:340|128:348,1,134.399989222718,4|4,0:0|0:2,0:0:0:0:
11,328,40364,2,2,B|51:354|51:354|147:346,1,134.399989222718,4|0,0:2|0:0,0:0:0:0:
316,308,40695,2,0,L|252:268,1,67.1999946113589
96,140,40916,6,0,B|70:180|70:180|78:276,1,134.399989222718,4|4,0:0|0:2,0:0:0:0:
180,176,41247,1,4,0:2:0:0:
176,80,41357,2,2,L|172:8,2,67.1999946113589,8|4|4,1:0|0:2|0:2,0:0:0:0:
188,272,41688,6,0,B|228:298|228:298|324:290,1,134.399989222718,0|4,0:0|0:2,0:0:0:0:
148,352,42019,6,0,L|96:356,2,44.7999964075726,2|2|2,0:0|0:0|0:0,0:0:0:0:
232,384,42239,2,0,L|298:378,1,67.1999946113589,8|0,1:0|0:0,0:0:0:0:
320,208,42460,2,2,L|254:214,1,67.1999946113589,0|0,0:0|0:0,0:0:0:0:
396,256,42680,6,2,B|428:180|368:160|396:88,1,172.799986143494,4|0,0:0|0:0,0:0:0:0:
320,208,43122,2,0,L|254:214,1,67.1999946113589,8|0,1:0|0:0,0:0:0:0:
396,88,43342,2,0,L|462:82,1,67.1999946113589,4|4,0:2|0:2,0:0:0:0:
253,214,43563,6,0,B|244:284|257:358,1,134.399989222718,4|4,0:0|0:2,0:0:0:0:
436,328,43894,1,4,0:2:0:0:
462,249,44004,2,0,L|396:255,1,67.1999946113589,8|0,1:0|0:0,0:0:0:0:
176,207,44225,6,0,L|257:214,1,76.7999961853028,4|4,0:2|0:2,0:0:0:0:
336,138,44445,6,2,L|313:324,1,187.19998213234,6|0,0:0|0:0,0:0:0:0:
156,372,44886,2,0,L|167:279,1,62.3999940441135,8|0,1:0|0:0,0:0:0:0:
183,145,45107,5,4,0:2:0:0:
183,145,45217,1,4,0:2:0:0:
183,145,45327,2,0,L|172:238,1,62.3999940441135,4|0,0:0|0:0,0:0:0:0:
320,316,45548,6,0,L|315:357,2,41.599996029409,4|4|4,0:2|0:2|0:2,0:0:0:0:
329,239,45768,2,0,L|340:146,1,62.3999940441135,8|0,1:0|0:0,0:0:0:0:
183,145,45989,2,0,L|172:238,1,62.3999940441135
246,284,46210,6,2,L|267:98,1,187.19998213234,4|0,0:0|0:0,0:0:0:0:
324,28,46651,1,8,0:0:0:0:
408,104,46798,1,8,0:0:0:0:
504,40,46945,1,8,0:0:0:0:
396,120,47092,6,0,L|409:244,1,124.799988088227,4|4,0:0|0:2,0:0:0:0:
328,372,47423,1,8,0:0:0:0:
328,372,47533,2,2,L|335:300,1,71.9999991703034,8|4,1:0|0:2,0:0:0:0:
488,132,47754,6,0,L|505:286,1,153.599992370606,4|0,1:0|0:0,0:0:0:0:
396,120,48416,5,4,0:0:0:0:
395,120,48526,2,0,L|404:194,1,47.9999976158143,4|4,0:0|0:0,0:0:0:0:
335,300,48747,6,0,L|342:234,1,62.3999940441135,4|4,0:0|1:0,0:0:0:0:
248,112,48967,2,0,L|255:177,1,62.3999940441135,4|4,0:0|0:0,0:0:0:0:
172,296,49188,5,4,0:0:0:0:
172,296,49298,2,0,P|132:304|72:296,1,76.7999961853028,4|4,1:0|0:0,0:0:0:0:
254,174,49519,2,0,P|292:172|329:180,1,76.7999961853028,4|4,0:0|0:0,0:0:0:0:
456,284,49739,5,4,1:0:0:0:
132,167,50070,1,2,0:0:0:0:
440,64,50401,1,2,0:0:0:0:
300,332,50732,1,2,0:0:0:0:
192,104,51063,6,0,P|97:78|40:159,1,211.199989509583,2|0,0:0|0:0,0:0:0:0:
63,231,53600,6,0,P|114:238|166:228,1,95.9999952316285,2|0,0:0|0:0,0:0:0:0:
227,193,53930,2,0,P|273:185|331:195,1,95.9999952316285,2|0,0:0|0:0,0:0:0:0:
385,232,54261,2,0,L|391:343,1,95.9999952316285,2|0,0:0|0:0,0:0:0:0:
319,359,54592,6,0,B|221:330|240:383|137:354,1,182.399990940094,2|0,0:0|0:0,0:0:0:0:
65,333,56798,6,0,P|52:279|67:211,1,115.199990762329,2|0,0:0|0:0,0:0:0:0:
110,164,57129,2,0,B|162:175|162:175|233:158,1,115.199990762329,2|0,0:0|0:0,0:0:0:0:
292,134,57460,2,0,P|377:125|447:187,1,172.799986143494,2|2,0:0|0:0,0:0:0:0:
191,242,58122,6,0,B|171:163|193:88|193:88|161:80|136:86,1,211.199989509583,2|0,0:0|0:0,0:0:0:0:
71,117,60658,6,0,L|74:262,1,124.799988088227,2|0,0:0|0:0,0:0:0:0:
151,318,60989,2,0,L|156:191,1,124.799988088227,2|0,0:0|0:0,0:0:0:0:
169,108,61320,2,0,P|105:84|48:107,1,124.799988088227,2|0,0:0|0:0,0:0:0:0:
28,168,61651,6,0,L|42:343,1,172.799991416931,2|0,0:0|0:0,0:0:0:0:
44,347,63857,6,0,P|89:289|163:267,1,143.999998340607,4|0,1:0|0:0,0:0:0:0:
229,229,64188,6,0,L|248:294,1,67.1999946113589,4|0,1:0|0:0,0:0:0:0:
376,159,64519,102,0,P|305:168|237:146,1,143.999998340607,4|0,1:0|0:0,0:0:0:0:
156,170,64850,6,0,L|137:105,1,67.1999946113589,4|0,1:0|0:0,0:0:0:0:
84,12,65180,6,0,P|137:99|95:191,1,211.199989509583,4|0,1:0|0:0,0:0:0:0:
153,91,67717,86,0,P|231:136|298:123,1,143.999998340607,4|0,1:0|0:0,0:0:0:0:
362,99,68048,6,0,L|424:61,1,67.1999946113589,4|0,1:0|0:0,0:0:0:0:
330,200,68379,102,0,L|476:243,1,143.999998340607,4|0,1:0|0:0,0:0:0:0:
407,345,68710,22,0,P|368:377|274:367,1,143.999992847443,4|4,1:0|3:0,0:0:0:0:
205,324,70475,6,0,P|184:333|150:342,2,57.5999953811647,4|4|4,3:0|3:0|3:0,0:0:0:0:
425,235,70916,70,0,P|390:172|330:134,1,143.999998340607,4|0,1:0|0:0,0:0:0:0:
292,61,71247,6,0,L|222:50,1,67.1999946113589,4|0,1:0|0:0,0:0:0:0:
463,116,71577,102,0,P|399:147|330:134,1,143.999998340607,4|0,1:0|0:0,0:0:0:0:
219,34,71908,6,0,L|151:45,1,67.1999946113589,4|0,1:0|0:0,0:0:0:0:
131,172,72239,6,0,L|0:145,1,134.399989222718,4|0,1:0|0:0,0:0:0:0:
0,145,73122,1,2,0:0:0:0:
0,145,73563,1,2,0:0:0:0:
0,145,74004,1,2,0:0:0:0:
0,145,74445,5,6,0:0:0:0:
153,147,74666,1,6,0:0:0:0:
76,173,74886,1,6,0:0:0:0:
197,75,75107,1,6,0:0:0:0:
440,224,75327,1,6,0:0:0:0:
277,233,75547,1,6,0:0:0:0:
360,259,75768,1,6,0:0:0:0:
240,153,75989,1,6,0:0:0:0:
311,7,76210,5,6,0:0:0:0:
311,7,76320,2,0,L|322:55,2,33.5999973056794,6|6|6,0:0|0:0|0:0,0:0:0:0:
153,147,76651,1,6,0:0:0:0:
153,147,76761,2,0,L|141:184,2,33.5999973056794,6|6|6,0:0|0:0|0:0,0:0:0:0:
360,259,77092,1,6,0:0:0:0:
360,259,77202,2,0,L|371:307,2,33.5999973056794,6|6|6,0:0|0:0|0:0,0:0:0:0:
139,365,77533,6,0,P|224:368|307:329,1,163.199995006561,2|2,0:0|0:0,0:0:0:0:
440,130,77975,6,0,L|345:122,1,95.9999952316285,4|4,1:0|0:2,0:0:0:0:
89,143,78305,1,0,0:0:0:0:
68,155,78416,2,0,P|116:148|162:165,1,95.9999952316285,8|4,1:0|0:2,0:0:0:0:
234,265,78857,5,4,0:0:0:0:
234,265,79077,2,0,L|230:210,1,47.9999976158143,4|4,0:2|0:2,0:0:0:0:
401,89,79298,6,2,L|411:240,1,143.999998340607,8|4,1:0|0:2,0:0:0:0:
488,286,79739,6,0,B|476:246|493:208|493:208|510:225,1,95.9999952316285,4|4,0:0|0:2,0:0:0:0:
330,275,80180,2,0,B|342:315|325:353|325:353|308:336,1,95.9999952316285,8|4,1:0|0:2,0:0:0:0:
250,293,80511,1,4,0:2:0:0:
178,373,80622,5,4,0:0:0:0:
175,349,80732,2,0,L|168:284,1,47.9999976158143
135,93,80952,1,4,0:2:0:0:
132,116,81062,2,0,L|126:163,1,47.9999976158143,8|0,1:0|0:0,0:0:0:0:
48,215,81283,6,0,L|51:250,2,35.9999995851517,2|2|2,0:0|0:0|0:0,0:0:0:0:
0,70,81504,6,2,P|103:86|210:40,1,215.99999751091,4|0,0:0|0:0,0:0:0:0:
483,175,81945,6,0,P|418:146|346:145,1,143.999992847443,8|4,1:0|0:2,0:0:0:0:
259,186,82386,6,0,L|253:132,1,47.9999976158143,4|4,0:0|0:2,0:0:0:0:
407,61,82607,1,0,0:0:0:0:
407,61,82717,1,4,0:2:0:0:
306,9,82827,2,0,L|315:90,1,47.9999976158143,8|2,1:0|0:0,0:0:0:0:
392,263,83048,2,0,L|401:182,1,47.9999976158143,4|4,0:2|0:2,0:0:0:0:
475,296,83269,6,2,B|435:275|398:286|398:286|403:314,1,95.9999952316285,4|4,0:0|0:2,0:0:0:0:
406,325,83600,1,4,0:2:0:0:
305,250,83710,6,0,B|261:273|220:261|220:261|225:230,1,105.599997977448,8|4,1:0|0:2,0:0:0:0:
228,217,84041,1,0,0:0:0:0:
146,174,84151,6,2,B|91:145|41:160|41:160|48:198,1,143.999998340607,4|0,0:0|0:0,0:0:0:0:
53,215,84482,1,4,0:2:0:0:
95,107,84592,6,0,L|102:37,1,47.9999976158143,8|0,1:0|0:0,0:0:0:0:
132,248,84813,2,0,L|136:278,2,23.9999988079071,2|2|2,0:0|0:0|0:0,0:0:0:0:
42,304,85033,6,2,P|89:300|135:317,1,95.9999952316285,4|4,0:0|0:2,0:0:0:0:
305,321,85365,1,4,0:2:0:0:
321,303,85475,2,0,P|273:306|228:290,1,95.9999952316285,8|4,1:0|0:2,0:0:0:0:
148,185,85916,5,4,0:0:0:0:
148,185,86136,2,0,L|152:240,1,47.9999976158143,4|4,0:2|0:2,0:0:0:0:
338,295,86357,6,2,L|330:143,1,143.999998340607,8|4,1:0|0:2,0:0:0:0:
409,59,86798,6,2,B|391:93|418:132|418:132|429:119,1,95.9999952316285,4|4,0:0|0:2,0:0:0:0:
241,168,87129,2,2,B|258:133|231:94|231:94|220:107,1,95.9999952316285,0|0,0:0|0:0,0:0:0:0:
148,185,87460,1,4,0:2:0:0:
148,185,87570,1,4,0:2:0:0:
54,137,87680,5,4,0:0:0:0:
58,113,87791,2,0,L|66:52,1,47.9999976158143
148,185,88011,1,4,0:2:0:0:
144,209,88122,2,0,L|136:270,1,47.9999976158143,8|0,1:0|0:0,0:0:0:0:
37,302,88342,6,0,L|46:256,2,35.9999995851517,2|2|2,0:0|0:0|0:0,0:0:0:0:
179,363,88563,6,2,P|258:294|375:288,1,215.99999751091,4|0,0:0|0:0,0:0:0:0:
512,151,89004,6,2,P|442:162|377:135,1,143.999992847443,8|4,1:0|0:2,0:0:0:0:
282,70,89445,6,0,L|286:117,1,47.9999976158143,4|0,0:0|0:0,0:0:0:0:
144,209,89666,1,4,0:2:0:0:
144,209,89776,1,4,0:2:0:0:
233,245,89886,2,0,L|230:192,1,47.9999976158143,8|0,1:0|0:0,0:0:0:0:
360,316,90107,6,0,L|355:351,2,35.9999995851517
440,202,90327,6,2,B|422:241|436:280|436:280|456:274,1,95.9999952316285,4|4,0:0|0:2,0:0:0:0:
469,269,90658,1,4,0:2:0:0:
272,372,90769,6,0,B|291:329|276:286|276:286|254:292,1,105.599997977448,8|4,1:0|0:2,0:0:0:0:
240,298,91100,1,0,0:0:0:0:
63,112,91210,6,0,P|60:186|139:132,1,215.99999751091,0|4,0:0|0:2,0:0:0:0:
126,30,91651,6,0,L|121:48,1,17.9999997925758,2|0,0:0|0:0,0:0:0:0:
307,182,91872,2,0,L|312:164,1,17.9999997925758,2|0,0:0|0:0,0:0:0:0:
401,121,92092,6,2,B|386:202|386:202|312:164,1,165.599994933128,4|0,1:0|0:0,0:0:0:0:
328,80,92533,1,8,1:0:0:0:
467,216,92754,2,2,P|419:281|340:267,1,143.999992847443,4|0,0:2|0:0,0:0:0:0:
362,281,93195,2,0,L|352:348,1,47.9999976158143,4|4,0:2|0:2,0:0:0:0:
256,348,93416,6,2,B|240:360|240:360|222:344|222:344|201:357|201:357|180:352|180:352|157:356|157:356|128:340|128:340|107:352|107:352|80:336|56:352,1,215.99999751091,8|0,1:0|0:0,0:0:0:0:
64,347,93857,6,2,P|88:299|56:235,1,95.9999952316285,4|4,0:0|0:2,0:0:0:0:
92,48,94298,2,0,P|84:94|107:135,1,95.9999952316285,8|4,1:0|0:2,0:0:0:0:
100,142,94629,1,4,0:2:0:0:
93,148,94739,5,4,0:0:0:0:
86,154,94850,2,0,L|187:143,1,95.9999952316285,0|4,0:0|0:2,0:0:0:0:
312,96,95180,2,0,L|413:85,1,95.9999952316285,8|2,1:0|0:0,0:0:0:0:
492,192,95622,5,4,0:0:0:0:
192,324,95842,6,0,L|132:320,1,47.9999976158143,2|4,0:0|0:2,0:0:0:0:
256,384,96063,1,8,1:0:0:0:
320,324,96283,6,0,L|380:320,1,47.9999976158143,2|4,0:0|0:2,0:0:0:0:
256,384,96504,1,4,0:0:0:0:
156,236,96725,6,0,L|96:232,1,47.9999976158143,2|4,0:0|0:2,0:0:0:0:
256,384,96945,1,8,1:0:0:0:
356,236,97166,6,0,L|416:232,1,47.9999976158143,2|4,0:0|0:2,0:0:0:0:
256,384,97386,1,4,0:0:0:0:
128,148,97607,6,0,L|80:145,1,47.9999976158143,2|4,0:0|0:2,0:0:0:0:
256,384,97827,1,8,1:0:0:0:
384,148,98048,6,2,L|432:145,1,47.9999976158143,2|4,0:0|0:2,0:0:0:0:
256,384,98268,1,4,0:0:0:0:
92,64,98489,6,0,L|44:61,1,47.9999976158143,2|4,0:0|0:2,0:0:0:0:
256,384,98710,1,8,1:0:0:0:
420,64,98930,6,2,L|468:61,1,47.9999976158143,2|4,0:0|0:2,0:0:0:0:
242,289,99151,6,0,L|256:384,1,95.9999952316285,4|0,0:0|0:0,0:0:0:0:
77,291,99482,2,0,L|64:196,1,95.9999952316285
28,348,99813,2,0,P|72:368|104:364,1,47.9999976158143,4|4,0:2|0:2,0:0:0:0:
208,300,100033,2,0,L|268:304,1,47.9999976158143,4|4,0:0|0:2,0:0:0:0:
280,312,100254,2,0,L|340:308,1,47.9999976158143,4|0,0:2|0:0,0:0:0:0:
392,340,100475,6,2,B|412:296|380:256|380:256|392:248|392:248|384:212|384:212|416:212|436:180|436:180|443:184|440:196,1,215.99999751091,8|0,1:0|0:0,0:0:0:0:
376,136,100916,6,2,P|336:84|340:36,1,95.9999952316285,4|4,0:0|0:2,0:0:0:0:
334,55,101247,2,0,P|303:91|258:103,1,95.9999952316285
176,140,101577,2,0,P|144:136|112:120,1,47.9999976158143,4|4,0:2|0:2,0:0:0:0:
112,108,101798,1,4,0:0:0:0:
140,328,102019,5,4,0:2:0:0:
288,280,102239,1,8,1:0:0:0:
426,350,102460,1,4,0:2:0:0:
464,192,102680,5,4,0:0:0:0:
456,112,102827,1,4,0:0:0:0:
448,32,102975,1,4,0:0:0:0:
364,68,103122,5,4,0:0:0:0:
356,148,103269,1,4,0:0:0:0:
348,228,103416,1,4,0:0:0:0:
240,296,103563,5,4,0:0:0:0:
232,216,103710,1,4,0:0:0:0:
224,136,103857,1,4,0:0:0:0:
80,184,104004,5,4,0:0:0:0:
72,264,104151,1,4,0:0:0:0:
64,344,104298,1,4,0:0:0:0:
352,356,104445,6,0,B|368:348|368:348|396:346|396:346|416:332|416:332|432:344|452:344,1,107.999998755455,4|0,1:0|0:0,0:0:0:0:
456,272,104886,6,0,P|424:204|380:180,1,71.9999991703034,2|2,0:0|0:0,0:0:0:0:
288,132,105107,2,0,P|268:160|260:195,1,71.9999991703034,2|2,0:0|0:0,0:0:0:0:
270,206,105327,1,2,0:0:0:0:
280,216,105438,6,0,L|88:232,1,143.999998340607,4|0,1:0|0:0,0:0:0:0:
64,344,105769,2,0,L|256:328,1,143.999998340607,4|4,1:0|1:0,0:0:0:0:
64,55,106210,6,2,P|13:122|33:203,1,172.799986143494,4|0,1:0|0:0,0:0:0:0:
87,279,106541,1,0,0:0:0:0:
87,279,106651,2,0,L|29:283,1,57.5999953811647,8|0,1:0|0:0,0:0:0:0:
116,199,106872,2,0,L|173:203,1,57.5999953811647,4|4,0:2|0:2,0:0:0:0:
269,334,107092,6,2,L|143:323,1,115.199990762329,4|4,0:0|0:2,0:0:0:0:
297,253,107423,1,4,0:2:0:0:
297,253,107533,2,0,P|322:268|340:291,1,57.5999953811647,8|0,1:0|0:0,0:0:0:0:
420,364,107754,2,0,P|420:335|431:309,1,57.5999953811647,4|4,0:2|0:2,0:0:0:0:
454,203,107975,6,0,P|429:217|400:221,1,57.5999953811647,6|0,0:0|0:0,0:0:0:0:
343,120,108195,2,0,P|368:135|397:139,1,57.5999953811647,2|4,0:0|0:2,0:0:0:0:
452,36,108416,2,0,P|427:50|398:54,1,57.5999953811647,8|0,1:0|0:0,0:0:0:0:
246,75,108636,5,2,0:0:0:0:
254,79,108710,1,2,0:0:0:0:
261,85,108783,1,2,0:0:0:0:
267,93,108857,6,0,L|263:195,1,57.5999953811647,4|0,0:0|0:0,0:0:0:0:
281,236,109077,2,0,L|179:232,1,57.5999953811647,4|4,0:2|0:2,0:0:0:0:
124,107,109298,2,0,L|226:111,1,57.5999953811647,8|0,1:0|0:0,0:0:0:0:
138,250,109519,2,0,L|142:148,1,57.5999953811647,2|0,0:0|0:0,0:0:0:0:
267,93,109739,6,2,B|306:85|306:85|393:100,1,115.199990762329,4|4,0:0|0:2,0:0:0:0:
462,54,110070,1,0,0:0:0:0:
462,54,110180,2,0,P|427:127|449:190,1,115.199990762329,8|4,1:0|0:2,0:0:0:0:
456,247,110511,1,4,0:2:0:0:
456,247,110622,6,0,B|321:225,1,115.199990762329,4|4,0:0|0:2,0:0:0:0:
267,93,110952,2,0,B|315:220,1,115.199990762329,4|0,0:2|0:0,0:0:0:0:
228,333,111283,2,0,B|288:259,1,57.5999953811647,4|4,0:2|0:2,0:0:0:0:
406,115,111504,5,4,0:0:0:0:
178,201,111725,1,4,0:2:0:0:
366,355,111945,1,8,1:0:0:0:
366,355,112055,2,0,B|332:265,1,57.5999953811647,4|4,0:2|0:2,0:0:0:0:
289,197,112276,1,0,0:0:0:0:
289,197,112386,6,0,B|268:250,1,57.5999953811647,4|0,0:0|0:0,0:0:0:0:
170,335,112607,2,0,B|228:333,1,57.5999953811647,4|4,0:2|0:2,0:0:0:0:
399,192,112827,2,0,B|336:195,1,57.5999953811647,8|0,1:0|0:0,0:0:0:0:
178,201,113048,2,2,B|235:198,1,57.5999953811647
294,307,113269,6,2,B|291:244,1,57.5999953811647,4|0,0:0|0:0,0:0:0:0:
285,86,113489,2,2,B|288:143,1,57.5999953811647,4|4,0:2|0:2,0:0:0:0:
219,277,113710,1,8,1:0:0:0:
360,116,113930,1,4,0:2:0:0:
137,124,114151,6,0,P|98:166|93:222,1,115.199990762329,4|4,0:0|0:2,0:0:0:0:
70,312,114482,1,4,0:2:0:0:
70,312,114592,2,0,L|160:293,1,57.5999953811647,8|0,1:0|0:0,0:0:0:0:
234,212,114813,2,0,L|144:193,1,57.5999953811647,4|4,0:2|0:2,0:0:0:0:
70,312,115033,6,0,L|186:336,1,115.199990762329,6|2,0:0|0:0,0:0:0:0:
274,351,115364,1,4,0:2:0:0:
274,351,115475,2,0,L|251:280,1,57.5999953811647,8|0,1:0|0:0,0:0:0:0:
211,116,115695,1,4,0:2:0:0:
205,144,115805,1,4,0:2:0:0:
199,172,115916,6,0,L|144:189,1,57.5999953811647,4|0,0:0|0:0,0:0:0:0:
149,54,116136,2,0,L|134:121,1,57.5999953811647,4|4,0:2|0:2,0:0:0:0:
120,274,116357,2,0,L|65:291,1,57.5999953811647,8|0,1:0|0:0,0:0:0:0:
70,156,116577,2,2,L|55:223,1,57.5999953811647,4|4,0:2|0:2,0:0:0:0:
37,381,116798,6,2,L|236:315,1,143.999998340607,4|0,0:0|0:0,0:0:0:0:
210,217,117129,1,4,0:2:0:0:
210,217,117239,2,0,P|161:267|173:335,1,143.999998340607,8|4,1:0|0:2,0:0:0:0:
346,261,117570,1,4,0:2:0:0:
346,261,117680,2,0,L|210:217,1,143.999998340607,4|4,0:0|0:2,0:0:0:0:
311,340,118011,1,4,0:2:0:0:
311,340,118122,2,0,P|380:340|428:289,1,143.999998340607,8|4,1:0|0:2,0:0:0:0:
421,142,118452,1,0,0:0:0:0:
421,142,118563,6,0,L|424:213,1,57.5999953811647,4|0,0:0|0:0,0:0:0:0:
340,111,118783,2,2,L|343:182,1,57.5999953811647,4|4,0:2|0:2,0:0:0:0:
452,61,119004,2,0,L|456:162,1,57.5999953811647,8|0,1:0|0:0,0:0:0:0:
371,30,119225,1,4,0:2:0:0:
371,30,119335,6,0,L|299:33,1,57.5999953811647,0|4,0:0|0:0,0:0:0:0:
222,21,119555,1,0,0:0:0:0:
222,21,119666,2,2,L|225:92,1,57.5999953811647,4|4,0:2|0:2,0:0:0:0:
362,179,119886,2,0,L|358:107,1,57.5999953811647,8|4,1:0|0:2,0:0:0:0:
213,170,120107,2,0,L|284:166,1,57.5999953811647,0|4,0:0|0:2,0:0:0:0:
371,30,120327,6,0,P|296:62|214:5,1,172.799986143494,4|0,1:0|0:0,0:0:0:0:
108,162,120769,6,2,P|125:189|131:228,1,57.5999953811647,12|4,1:0|0:2,0:0:0:0:
238,146,120989,2,2,P|245:118|260:94,1,57.5999953811647,0|0,0:0|0:0,0:0:0:0:
356,267,121210,2,0,P|283:272|243:253,1,115.199990762329,4|0,0:0|0:0,0:0:0:0:
383,155,121541,1,4,0:2:0:0:
478,232,121651,2,0,L|487:294,1,57.5999953811647,8|0,1:0|0:0,0:0:0:0:
383,155,121872,2,0,L|391:97,1,57.5999953811647,4|4,0:2|0:2,0:0:0:0:
480,62,122092,5,6,0:0:0:0:
183,233,122313,1,2,0:0:0:0:
183,233,122424,1,4,0:2:0:0:
125,160,122534,2,2,L|3:147,1,115.199990762329,8|4,1:0|0:2,0:0:0:0:
92,243,122864,1,4,0:2:0:0:
218,149,122975,6,0,P|228:115|229:84,1,57.5999953811647,4|4,0:0|0:2,0:0:0:0:
140,61,123195,1,0,0:0:0:0:
113,55,123305,1,4,0:2:0:0:
298,31,123416,2,0,L|379:41,1,57.5999953811647,8|4,1:0|0:2,0:0:0:0:
488,110,123636,2,2,L|407:120,1,57.5999953811647,4|4,0:2|0:2,0:0:0:0:
317,251,123857,6,2,L|328:134,1,115.199990762329,4|0,0:0|0:0,0:0:0:0:
424,212,124188,1,0,0:0:0:0:
225,223,124298,2,0,P|187:217|158:203,1,57.5999953811647,8|4,1:0|0:2,0:0:0:0:
99,144,124519,1,4,0:2:0:0:
91,116,124629,1,4,0:2:0:0:
0,184,124739,6,2,P|-5:266|21:316,1,134.399989222718,4|4,0:0|0:2,0:0:0:0:
261,349,125070,2,0,B|200:322|200:322|128:322,1,134.399989222718,4|0,0:2|0:0,0:0:0:0:
139,177,125401,2,0,P|127:197|92:228,1,67.1999946113589,0|4,0:0|0:2,0:0:0:0:
52,84,125622,5,4,0:0:0:0:
361,54,125842,1,0,0:2:0:0:
361,54,125952,1,4,0:2:0:0:
439,114,126063,2,0,L|446:180,2,57.5999953811647,8|4|4,1:0|0:2|0:2,0:0:0:0:
344,260,126394,6,0,L|352:130,1,115.199990762329,4|4,0:2|0:2,0:0:0:0:
254,35,126725,2,0,L|260:101,1,57.5999953811647,4|0,0:2|0:0,0:0:0:0:
185,248,126945,2,0,L|191:182,1,57.5999953811647,8|0,1:0|0:0,0:0:0:0:
89,10,127166,2,2,L|95:76,1,57.5999953811647,4|4,0:2|0:2,0:0:0:0:
10,233,127386,5,4,0:0:0:0:
264,290,127607,1,4,0:2:0:0:
293,287,127717,1,4,0:2:0:0:
185,248,127827,2,2,P|175:184|194:127,1,115.199990762329,8|4,1:0|0:2,0:0:0:0:
260,79,128158,1,0,0:0:0:0:
113,91,128269,6,0,L|41:80,2,57.5999953811647,4|4|0,0:0|0:2|0:0,0:0:0:0:
274,166,128600,2,0,L|346:155,1,57.5999953811647,4|8,0:2|1:0,0:0:0:0:
403,208,128820,1,0,0:0:0:0:
482,160,128930,2,2,P|486:134|482:97,1,57.5999953811647,4|4,0:2|0:2,0:0:0:0:
424,45,129151,5,6,0:0:0:0:
224,243,129372,2,0,L|234:313,1,57.5999953811647,2|0,0:0|0:0,0:0:0:0:
173,355,129592,1,8,1:0:0:0:
105,302,129702,1,0,0:0:0:0:
143,224,129813,2,0,P|133:203|118:186,2,38.3999969207765,4|4|4,0:2|0:2|0:2,0:0:0:0:
154,162,130033,6,2,P|152:119|158:91,1,57.5999953811647,4|4,0:0|0:2,0:0:0:0:
300,53,130254,2,0,L|342:57,2,38.3999969207765,4|4|4,0:2|0:2|0:2,0:0:0:0:
273,22,130475,2,0,L|210:28,1,57.5999953811647,8|0,1:0|0:0,0:0:0:0:
364,128,130695,2,0,L|427:122,1,57.5999953811647,4|4,0:2|0:2,0:0:0:0:
510,240,130916,6,2,P|441:220|390:230,1,115.199990762329,4|4,0:0|0:2,0:0:0:0:
335,296,131247,1,0,0:0:0:0:
253,175,131357,2,0,L|260:232,1,57.5999953811647,8|4,1:0|0:2,0:0:0:0:
163,93,131577,2,0,L|156:150,1,57.5999953811647,4|0,0:2|0:0,0:0:0:0:
361,59,131798,6,0,B|316:36|267:48|267:48|297:98,1,143.999998340607,8|4,0:0|0:2,0:0:0:0:
430,104,132129,2,0,B|472:76|486:28|486:28|428:29,1,143.999998340607,8|0,0:0|0:0,0:0:0:0:
354,137,132460,2,0,B|356:187|391:223|391:223|419:172,1,143.999998340607,4|4,1:0|0:0,0:0:0:0:
491,227,132791,5,4,0:0:0:0:
491,227,132901,2,0,P|496:258|495:300,1,57.5999953811647,4|4,0:0|0:0,0:0:0:0:
326,315,133122,2,0,L|260:306,1,57.5999953811647,4|4,0:0|0:0,0:0:0:0:
415,326,133342,1,4,0:0:0:0:
245,201,133563,6,0,B|205:210|183:241|183:241|169:199|133:174|85:175,1,201.599983834077,4|2,1:0|0:0,0:0:0:0:
87,336,134004,2,0,L|93:260,1,67.1999946113589,4|2,1:0|0:0,0:0:0:0:
196,62,134225,2,0,L|201:128,1,67.1999946113589,2|2,0:0|0:0,0:0:0:0:
350,225,134445,5,4,1:0:0:0:
464,60,134666,2,0,L|416:64,1,47.9999976158143,2|0,0:0|0:0,0:0:0:0:
336,124,134886,2,0,P|288:112|236:108,1,95.9999952316285,8|2,1:0|0:0,0:0:0:0:
24,192,135327,2,0,P|72:180|124:176,1,95.9999952316285,4|2,0:0|0:0,0:0:0:0:
252,8,135769,2,0,P|204:22|158:45,1,95.9999952316285,8|2,1:0|0:0,0:0:0:0:
280,272,136210,5,4,0:0:0:0:
336,124,136430,1,2,0:0:0:0:
224,336,136651,5,8,1:0:0:0:
256,156,136871,1,2,0:0:0:0:
360,296,137092,5,4,0:0:0:0:
416,92,137312,1,2,0:0:0:0:
280,272,137533,5,8,1:0:0:0:
492,64,137754,1,2,0:0:0:0:
440,320,137975,5,4,0:0:0:0:
324,128,138195,2,0,L|332:176,1,47.9999976158143,2|0,0:0|0:0,0:0:0:0:
232,296,138416,2,0,P|240:248|236:200,1,95.9999952316285,8|2,1:0|0:0,0:0:0:0:
72,96,138857,1,4,0:0:0:0:
72,96,138967,2,0,L|168:88,1,95.9999952316285
244,40,139298,2,0,L|340:48,1,95.9999952316285,8|2,1:0|0:0,0:0:0:0:
472,164,139739,5,4,0:0:0:0:
296,212,139960,1,2,0:0:0:0:
480,140,140180,5,8,1:0:0:0:
336,292,140401,1,2,0:0:0:0:
488,112,140622,5,4,0:0:0:0:
212,244,140842,1,2,0:0:0:0:
496,92,141063,5,8,1:0:0:0:
252,320,141283,1,2,0:0:0:0:
108,136,141504,6,0,P|108:188|104:232,1,95.9999952316285,4|2,0:0|0:0,0:0:0:0:
152,348,141835,2,0,L|148:296,1,47.9999976158143,0|8,0:0|1:0,0:0:0:0:
248,160,142166,1,2,0:0:0:0:
12,328,142386,2,0,P|20:280|24:232,1,95.9999952316285,4|2,0:0|0:0,0:0:0:0:
248,160,142827,2,0,P|243:112|236:64,1,95.9999952316285,8|2,1:0|0:0,0:0:0:0:
24,132,143269,5,4,0:0:0:0:
184,216,143489,1,2,0:0:0:0:
408,76,143710,5,8,1:0:0:0:
248,160,143930,1,2,0:0:0:0:
72,236,144151,5,4,0:0:0:0:
249,328,144371,1,2,0:0:0:0:
508,80,144592,5,8,1:0:0:0:
331,173,144812,1,2,0:0:0:0:
456,340,145033,5,4,0:0:0:0:
508,80,145254,2,0,L|504:132,1,47.9999976158143,2|0,0:0|0:0,0:0:0:0:
456,264,145475,2,0,P|439:218|428:172,1,95.9999952316285,8|2,1:0|0:0,0:0:0:0:
256,36,145916,1,4,0:0:0:0:
256,36,146026,2,0,P|244:82|228:127,1,95.9999952316285
124,283,146357,2,0,P|135:237|152:192,1,95.9999952316285,8|2,1:0|0:0,0:0:0:0:
344,120,146798,5,4,0:0:0:0:
256,280,147019,1,2,0:0:0:0:
136,96,147239,5,8,1:0:0:0:
256,300,147460,1,2,0:0:0:0:
388,40,147680,5,4,0:0:0:0:
256,320,147901,1,2,0:0:0:0:
88,24,148122,5,8,1:0:0:0:
256,340,148342,1,2,0:0:0:0:
343,120,148563,6,0,P|297:133|250:138,1,95.9999952316285,4|2,1:0|0:0,0:0:0:0:
177,184,148894,1,0,0:0:0:0:
337,304,149114,1,0,0:0:0:0:
337,304,149225,2,0,P|327:252|309:204,1,95.9999952316285,2|0,0:0|0:0,0:0:0:0:
250,138,149555,2,0,P|256:71|276:23,1,95.9999952316285
345,0,149886,1,8,1:0:0:0:
177,184,150107,2,0,P|149:198|120:208,1,47.9999976158143,2|0,0:0|0:0,0:0:0:0:
337,304,150327,6,0,L|217:289,1,95.9999952316285,4|2,0:0|0:0,0:0:0:0:
72,274,150769,1,8,1:0:0:0:
153,352,150989,1,2,0:0:0:0:
177,184,151210,1,4,0:0:0:0:
363,303,151430,1,2,0:0:0:0:
170,265,151651,2,0,L|240:278,1,47.9999976158143,8|0,1:0|0:0,0:0:0:0:
322,381,151872,2,0,P|270:388|230:370,1,95.9999952316285,2|4,0:0|0:0,0:0:0:0:
126,183,152313,5,2,0:0:0:0:
126,183,152423,2,0,P|159:221|168:283,1,95.9999952316285
153,352,152754,1,2,0:0:0:0:
38,141,152975,1,4,0:0:0:0:
52,119,153085,1,0,0:0:0:0:
170,264,153305,1,0,0:0:0:0:
140,273,153416,2,0,P|93:290|38:297,1,95.9999952316285,8|2,1:0|0:0,0:0:0:0:
249,191,153857,5,4,0:0:0:0:
289,340,154077,2,0,L|275:287,1,47.9999976158143,2|0,0:0|0:0,0:0:0:0:
232,188,154298,5,8,1:0:0:0:
407,325,154519,2,0,L|357:297,1,47.9999976158143,2|0,0:0|0:0,0:0:0:0:
216,187,154739,5,4,0:0:0:0:
480,237,154960,6,0,L|403:247,1,47.9999976158143,2|0,0:0|0:0,0:0:0:0:
198,186,155180,6,0,P|144:178|100:167,1,95.9999952316285,8|2,1:0|0:0,0:0:0:0:
324,44,155622,6,0,P|256:82|183:95,1,143.999998340607,4|0,1:0|0:0,0:0:0:0:
97,262,155952,6,0,L|29:241,1,67.1999946113589,4|0,1:0|0:0,0:0:0:0:
118,249,156283,6,0,P|189:265|266:294,1,143.999998340607,4|0,1:0|0:0,0:0:0:0:
427,157,156614,6,0,P|445:129|449:95,1,67.1999946113589,4|0,1:0|0:0,0:0:0:0:
485,230,156945,6,0,P|485:171|438:85,1,143.999992847443,4|0,1:0|0:0,0:0:0:0:
405,26,157386,1,2,0:2:0:0:
405,26,157827,6,0,L|331:41,1,71.9999964237214,2|0,0:2|0:0,0:0:0:0:
268,337,158269,2,0,L|338:351,1,71.9999964237214,2|0,0:2|0:0,0:0:0:0:
282,107,158710,2,0,L|208:122,1,71.9999964237214,2|0,0:2|0:0,0:0:0:0:
404,292,159151,5,6,0:0:0:0:
492,263,159372,1,6,0:0:0:0:
254,192,159592,5,6,0:0:0:0:
341,205,159813,1,6,0:0:0:0:
99,321,160033,5,6,0:0:0:0:
187,292,160254,1,6,0:0:0:0:
0,234,160475,5,6,0:0:0:0:
0,234,160695,1,6,0:0:0:0:
0,234,160916,6,0,L|52:248,1,38.3999980926514,6|6,0:0|0:0,0:0:0:0:
284,310,161136,2,0,L|265:264,1,38.3999980926514,6|6,0:0|0:0,0:0:0:0:
200,27,161357,2,0,L|165:57,1,38.3999980926514,6|6,0:0|0:0,0:0:0:0:
61,237,161577,6,0,L|115:252,1,38.3999980926514,6|6,0:0|0:0,0:0:0:0:
247,266,161798,2,0,L|232:229,1,38.3999980926514,6|6,0:0|0:0,0:0:0:0:
169,82,162019,2,0,L|136:115,1,38.3999980926514,6|6,0:0|0:0,0:0:0:0:
155,193,162239,6,0,L|331:137,1,163.199995006561,2|2,0:0|0:0,0:0:0:0:
505,296,162680,6,2,P|412:276|357:295,1,143.999992847443,4|0,1:0|0:0,0:0:0:0:
299,244,163122,2,0,P|236:247|196:235,1,95.9999952316285,4|4,0:0|0:2,0:0:0:0:
328,34,163563,1,4,0:0:0:0:
477,153,163783,5,4,0:2:0:0:
474,188,163894,1,4,0:2:0:0:
396,215,164004,2,0,L|402:268,1,47.9999976158143,4|0,0:0|0:0,0:0:0:0:
332,124,164225,2,2,L|326:177,1,47.9999976158143,4|0,0:2|0:0,0:0:0:0:
198,184,164445,6,2,P|179:143|247:152,1,143.999992847443,4|0,0:0|0:0,0:0:0:0:
266,244,164886,2,0,P|265:285|252:331,2,63.9999968210857,4|4|4,0:0|0:2|0:2,0:0:0:0:
132,272,165327,6,0,L|189:267,1,47.9999976158143,4|0,0:0|0:0,0:0:0:0:
138,50,165658,1,0,0:0:0:0:
138,50,165769,2,0,L|144:106,1,47.9999976158143,4|0,0:0|0:0,0:0:0:0:
78,181,165989,2,2,L|-8:171,1,71.9999991703034,4|4,0:2|0:2,0:0:0:0:
183,185,166210,6,2,P|253:171|322:198,1,143.999992847443,4|0,0:0|0:0,0:0:0:0:
392,141,166651,2,2,P|359:204|362:290,1,143.999992847443,4|4,0:0|0:2,0:0:0:0:
430,327,167092,6,0,L|486:325,1,47.9999976158143,4|4,0:0|0:2,0:0:0:0:
307,347,167313,1,0,0:0:0:0:
269,343,167423,1,4,0:2:0:0:
214,275,167533,2,0,L|161:282,1,47.9999976158143,4|4,0:0|0:2,0:0:0:0:
61,189,167754,2,0,L|138:199,1,71.9999991703034,4|4,0:2|0:2,0:0:0:0:
237,167,167975,5,4,0:0:0:0:
162,50,168195,1,0,0:0:0:0:
162,50,168305,1,4,0:2:0:0:
162,50,168416,2,0,L|152:124,1,47.9999976158143,4|0,0:0|0:0,0:0:0:0:
314,138,168636,2,2,P|242:117|243:77,1,118.799995232105,4|0,0:2|0:0,0:0:0:0:
267,50,168857,6,0,L|371:43,1,95.9999952316285,4|4,0:0|0:2,0:0:0:0:
436,68,169188,1,4,0:2:0:0:
469,138,169298,2,2,B|475:234|475:234|432:194,1,143.999992847443,4|0,0:0|0:0,0:0:0:0:
271,164,169739,6,0,P|316:150|364:155,1,95.9999952316285,4|4,0:0|0:2,0:0:0:0:
254,253,170070,1,4,0:2:0:0:
227,251,170180,2,2,L|113:240,1,95.9999952316285,4|0,0:0|0:0,0:0:0:0:
330,330,170622,6,0,L|387:323,1,47.9999976158143,4|4,0:0|0:2,0:0:0:0:
466,258,170842,1,4,0:2:0:0:
433,252,170952,1,4,0:2:0:0:
344,190,171063,2,0,L|352:249,1,47.9999976158143,4|0,0:0|0:0,0:0:0:0:
430,158,171283,2,2,L|436:110,1,47.9999976158143,4|4,0:2|0:2,0:0:0:0:
324,28,171504,6,2,P|364:43|407:43,2,63.9999968210857,4|4|4,0:0|0:2|0:2,0:0:0:0:
227,119,171945,2,2,P|258:114|287:102,2,63.9999968210857,4|4|4,0:0|0:2|0:2,0:0:0:0:
126,112,172386,2,0,L|69:106,1,47.9999976158143,4|2,0:0|0:0,0:0:0:0:
161,295,172717,5,2,0:0:0:0:
161,295,172827,2,0,L|164:238,1,47.9999976158143,4|0,0:0|0:0,0:0:0:0:
257,203,173048,2,2,B|302:242|302:242|251:278,1,118.799995232105,4|0,0:2|0:0,0:0:0:0:
267,315,173269,6,2,P|326:333|409:309,1,143.999992847443,4|0,0:0|0:0,0:0:0:0:
512,255,173710,2,2,P|451:271|330:213,1,187.19998213234,4|4,0:0|0:2,0:0:0:0:
324,134,174151,6,0,L|323:78,1,47.9999976158143,4|0,0:0|0:0,0:0:0:0:
420,33,174372,1,4,0:2:0:0:
414,72,174482,1,4,0:2:0:0:
489,118,174592,2,0,L|495:165,1,47.9999976158143,4|0,0:0|0:0,0:0:0:0:
388,236,174813,2,0,L|435:229,1,47.9999976158143,4|4,0:2|0:2,0:0:0:0:
316,298,175033,6,0,B|266:302|266:302|183:279|183:279|129:283,1,187.19998213234,4|4,0:0|0:2,0:0:0:0:
64,187,175475,2,0,P|61:211|64:245,1,47.9999976158143,4|0,0:0|0:0,0:0:0:0:
55,368,175695,2,2,P|58:344|55:310,1,47.9999976158143,4|4,0:2|0:2,0:0:0:0:
10,90,175916,6,0,P|43:187|107:107,1,249.599976176454,4|2,1:0|0:0,0:0:0:0:
107,107,176577,1,2,0:0:0:0:
107,107,176798,6,0,L|207:99,1,95.9999952316285,4|0,1:0|0:0,0:0:0:0:
300,92,177129,1,0,0:0:0:0:
296,116,177239,2,0,L|288:176,1,47.9999976158143,8|0,1:0|0:0,0:0:0:0:
128,372,177460,6,2,L|115:228,1,143.999998340607,4|4,0:2|0:0,0:0:0:0:
107,107,177791,1,4,0:2:0:0:
131,111,177901,2,0,L|207:121,1,71.9999991703034,4|4,0:2|0:2,0:0:0:0:
352,236,178122,6,2,B|280:280|216:228|216:228|256:256|272:296,1,230.399988555908,8|0,1:0|0:0,0:0:0:0:
289,163,178563,6,4,P|317:147|389:147,1,95.9999952316285,4|4,0:0|0:2,0:0:0:0:
300,376,179004,6,0,P|252:377|209:356,1,93.5999910661702,8|4,1:0|0:2,0:0:0:0:
148,292,179225,2,0,L|152:244,1,31.1999970220567
136,304,179335,2,0,L|140:256,1,31.1999970220567,4|4,0:2|0:2,0:0:0:0:
48,200,179445,6,0,L|43:271,1,71.9999991703034,4|0,0:0|0:0,0:0:0:0:
232,212,179666,2,0,L|236:140,1,71.9999991703034,0|4,0:0|0:2,0:0:0:0:
76,88,179886,2,2,P|159:94|102:32,1,215.99999751091,8|4,1:0|0:2,0:0:0:0:
48,200,180327,6,2,L|40:303,1,95.9999952316285,4|2,0:0|0:0,0:0:0:0:
60,208,180769,6,2,L|53:292,1,76.7999961853028,8|2,1:0|0:0,0:0:0:0:
72,216,181210,6,2,L|67:274,1,57.5999953811647,4|2,0:0|0:0,0:0:0:0:
208,384,181651,6,0,L|202:307,1,76.7999961853028,8|4,1:0|0:2,0:0:0:0:
84,228,181872,2,2,L|73:357,1,129.599989607621,4|0,0:0|0:0,0:0:0:0:
202,307,182092,5,4,0:0:0:0:
90,156,182313,2,0,L|84:227,1,71.9999991703034,2|4,0:0|0:2,0:0:0:0:
280,176,182533,2,0,L|286:105,1,71.9999991703034,8|4,1:0|0:2,0:0:0:0:
160,44,182754,6,2,L|156:104,1,53.9999993777275,2|0,0:0|0:0,0:0:0:0:
202,307,182975,6,0,L|208:236,1,64.7999970285416,4|0,0:0|0:0,0:0:0:0:
286,104,183195,1,4,0:0:0:0:
116,200,183416,1,8,1:0:0:0:
296,292,183636,1,2,0:0:0:0:
156,97,183857,6,2,P|104:92|40:120,1,115.199990762329,4|4,0:0|0:2,0:0:0:0:
107,280,184188,1,4,0:2:0:0:
109,257,184298,2,0,L|116:200,1,57.5999953811647,8|0,1:0|0:0,0:0:0:0:
216,32,184519,6,2,B|244:64|244:104|244:104|228:204,1,153.599992370606,0|4,0:0|0:0,0:0:0:0:
118,379,184850,1,0,0:0:0:0:
116,356,184960,2,0,L|107:280,1,76.7999961853028,4|4,0:2|0:2,0:0:0:0:
320,144,185180,6,0,L|329:220,1,76.7999961853028,8|0,1:0|0:0,0:0:0:0:
228,384,185401,6,2,B|222:340|222:340|232:299|232:299|226:256,1,129.599989607621,4|0,0:0|0:0,0:0:0:0:
216,112,185622,6,0,L|92:104,1,124.799988088227,4|4,0:0|0:2,0:0:0:0:
226,256,186063,2,0,L|154:260,1,71.9999991703034,8|0,1:0|0:0,0:0:0:0:
64,224,186283,6,0,L|28:222,1,35.9999995851517,4|0,0:2|0:0,0:0:0:0:
52,212,186394,2,0,L|16:210,1,35.9999995851517,4|0,0:2|0:0,0:0:0:0:
154,260,186504,6,0,P|165:293|167:329,1,71.9999991703034,4|0,0:0|0:0,0:0:0:0:
36,368,186725,2,0,P|15:338|5:304,1,71.9999991703034,4|4,0:2|0:2,0:0:0:0:
42,155,186945,6,0,L|63:223,1,71.9999991703034,8|4,1:0|0:2,0:0:0:0:
120,80,187166,2,0,L|128:32,2,47.9999994468689,4|4|4,0:2|0:2|0:2,0:0:0:0:
184,128,187386,6,0,L|279:117,2,95.9999988937378,4|4|4,0:0|0:0|0:0,0:0:0:0:
63,223,187827,2,0,L|158:234,2,95.9999988937378,4|4|4,0:0|0:0|0:0,0:0:0:0:
253,245,188269,6,0,L|158:234,2,95.9999988937378,4|4|4,0:0|0:0|0:0,0:0:0:0:
374,339,188710,2,0,L|279:350,2,95.9999988937378,4|4|4,0:0|0:0|0:0,0:0:0:0:
472,240,189151,6,0,B|484:188|484:188|464:124,1,107.999998755455,4|0,1:0|0:0,0:0:0:0:
400,80,189592,5,2,0:0:0:0:
404,64,189702,1,2,0:0:0:0:
324,40,189813,5,2,0:0:0:0:
320,56,189923,1,2,0:0:0:0:
232,84,190033,5,2,0:0:0:0:
232,84,190144,2,0,B|164:112|156:76|88:92,1,143.999998340607,4|0,1:0|0:0,0:0:0:0:
0,100,190475,6,0,L|16:28,1,71.9999991703034,4|0,1:0|0:0,0:0:0:0:
40,244,190695,2,0,L|56:172,1,71.9999991703034,4|0,1:0|0:0,0:0:0:0:
122,268,190916,6,0,L|144:367,1,76.7999961853028,4|0,1:0|0:0,0:0:0:0:
196,248,191247,2,0,L|218:347,1,76.7999961853028,2|0,0:0|0:0,0:0:0:0:
390,268,191577,2,0,L|368:367,1,76.7999961853028,2|0,0:0|0:0,0:0:0:0:
316,248,191908,2,0,L|294:347,1,76.7999961853028,2|0,0:0|0:0,0:0:0:0:
196,248,192239,6,0,B|208:190|138:172|138:172|96:228|122:267|122:267|161:325|241:279|241:279|306:240|389:268|389:268|439:215|439:215|354:162|263:189|263:189|254:164|239:138|208:123,1,844.799958038331,2|0,0:0|0:0,0:0:0:0:
208,123,194776,6,0,P|166:104|122:99,1,76.7999961853028,2|0,0:0|0:0,0:0:0:0:
305,122,195107,2,0,P|339:105|377:98,1,76.7999961853028,2|0,0:0|0:0,0:0:0:0:
256,235,195438,2,0,L|256:311,1,76.7999961853028,2|0,0:0|0:0,0:0:0:0:
46,216,195769,6,0,B|93:134|286:50|217:306|396:263|506:224|520:125|483:58|420:17|420:17|381:97,1,729.599963760377,2|0,0:0|0:0,0:0:0:0:
381,97,197975,6,0,L|346:165,1,76.7999961853028,2|0,0:0|0:0,0:0:0:0:
346,165,198305,2,0,L|381:233,1,76.7999961853028,2|0,0:0|0:0,0:0:0:0:
131,97,198636,2,0,L|166:165,1,76.7999961853028,2|0,0:0|0:0,0:0:0:0:
166,165,198967,2,0,L|131:233,1,76.7999961853028,2|0,0:0|0:0,0:0:0:0:
198,262,199298,6,0,B|164:317|122:316|92:312|52:291|32:238|39:192|74:161|115:146|156:158|176:178|176:178|221:168|257:199|257:199|303:158|293:80|293:80|303:158|384:192|431:160|465:131|474:85|460:46,1,844.799958038331,2|0,0:0|0:0,0:0:0:0:
380,73,201835,6,0,P|369:35|341:6,1,76.7999961853028,2|0,0:0|0:0,0:0:0:0:
167,8,202166,2,0,P|141:36|132:73,1,76.7999961853028,2|0,0:0|0:0,0:0:0:0:
256,155,202497,2,0,L|256:79,1,76.7999961853028,2|0,0:0|0:0,0:0:0:0:
189,251,202827,6,0,B|205:190|248:167|314:170|363:227|365:279|316:355|250:352|214:329|190:283|190:283|122:350|85:336|39:308|-2:296|-8:216|8:176|44:152,1,729.599963760377,2|0,0:0|0:0,0:0:0:0:
120,166,205033,6,0,B|160:166|160:166|188:194,1,76.7999961853028,2|0,0:0|0:0,0:0:0:0:
304,93,205364,2,0,P|316:57|304:21,1,76.7999961853028,2|0,0:0|0:0,0:0:0:0:
207,21,205695,2,0,P|196:57|208:93,1,76.7999961853028,2|0,0:0|0:0,0:0:0:0:
325,192,206026,2,0,B|352:166|352:166|392:166,1,76.7999961853028,2|0,0:0|0:0,0:0:0:0:
476,224,206357,6,0,P|256:348|36:224,1,527.999973773957,2|0,0:0|0:0,0:0:0:0:
120,166,208894,6,0,L|174:111,1,76.7999961853028,2|0,0:0|0:0,0:0:0:0:
256,148,209225,2,0,L|256:71,1,76.7999961853028,2|0,0:0|0:0,0:0:0:0:
392,166,209555,2,0,L|337:111,1,76.7999961853028,2|0,0:0|0:0,0:0:0:0:
204,224,209886,6,0,P|256:380|308:224,1,431.999978542328,2|0,0:0|0:0,0:0:0:0:
256,292,212092,5,2,0:0:0:0:
336,64,212423,1,2,0:0:0:0:
136,200,212754,1,2,0:0:0:0:
376,200,213085,1,2,0:0:0:0:
176,64,213416,6,0,B|224:76|256:148|256:148|288:76|336:64,1,239.999988079071,2|0,0:0|0:0,0:0:0:0:
336,64,214739,5,2,0:0:0:0:
256,360,215180,1,2,0:0:0:0:
175,63,215622,2,0,P|106:63|106:133,1,153.599992370606,2|2,0:0|0:0,0:0:0:0:
337,63,216504,2,0,P|406:63|406:133,1,153.599992370606,2|2,0:0|0:0,0:0:0:0:
176,256,217386,6,0,L|148:283,2,38.3999980926514,2|0|0,0:0|0:0|0:0,0:0:0:0:
256,320,217717,2,0,L|256:360,2,38.3999980926514,2|0|0,0:0|0:0|0:0,0:0:0:0:
336,256,218048,2,0,L|363:283,2,38.3999980926514,2|0|0,0:0|0:0|0:0,0:0:0:0:
256,192,218379,2,0,L|256:152,2,38.3999980926514,2|0|0,0:0|0:0|0:0,0:0:0:0:
176,256,218710,5,2,0:0:0:0:
176,256,218820,1,2,0:0:0:0:
176,256,218930,1,2,0:0:0:0:
176,256,219041,1,2,0:0:0:0:
176,256,219151,6,0,P|88:280|16:264,1,143.999998340607,4|0,1:0|0:0,0:0:0:0:
155,171,219482,2,0,P|80:119|46:54,1,143.999998340607,4|0,1:0|0:0,0:0:0:0:
336,256,219813,2,0,P|403:278|474:272,1,143.999998340607,4|0,1:0|0:0,0:0:0:0:
356,171,220144,2,0,P|417:134|458:75,1,143.999998340607,4|0,1:0|0:0,0:0:0:0:
255,44,220475,6,0,P|251:96|255:149,1,105.599994754791,4|0,1:0|0:0,0:0:0:0:
180,192,223011,6,0,B|64:210|64:210|108:226,1,143.999998340607,4|0,1:0|0:0,0:0:0:0:
332,192,223342,2,0,B|447:210|447:210|403:226,1,143.999998340607,4|0,1:0|0:0,0:0:0:0:
192,328,223673,2,0,P|253:360|314:328,1,143.999998340607,4|0,1:0|0:0,0:0:0:0:
255,149,224004,6,0,P|252:102|255:56,1,91.1999954700471,4|0,1:0|0:0,0:0:0:0:
232,223,226210,6,0,P|301:216|333:155,1,143.999998340607,4|0,1:0|0:0,0:0:0:0:
255,58,226541,2,0,L|91:70,1,143.999998340607,4|0,1:0|0:0,0:0:0:0:
111,315,226872,6,0,L|255:326,1,143.999998340607,4|0,1:0|0:0,0:0:0:0:
333,228,227203,2,0,P|301:167|232:160,1,143.999998340607,4|0,1:0|0:0,0:0:0:0:
401,315,227533,6,0,P|440:280|475:240,1,105.599994754791,4|0,1:0|0:0,0:0:0:0:
405,138,230070,6,0,B|387:106|387:106|437:49|437:49|459:84,1,143.999998340607,4|0,1:0|0:0,0:0:0:0:
328,192,230401,2,0,L|180:192,1,143.999998340607,4|0,1:0|0:0,0:0:0:0:
107,138,230732,2,0,B|125:106|125:106|75:49|75:49|53:84,1,143.999998340607,4|0,1:0|0:0,0:0:0:0:
36,240,231063,6,0,P|65:273|98:302,1,86.3999957084657,4|0,1:0|0:0,0:0:0:0:
77,103,233158,6,0,L|79:132,1,21.5999982679368,2|2,0:0|0:0,0:0:0:0:
77,103,233269,6,0,B|94:178|61:187|85:262,1,143.999998340607,4|0,1:0|0:0,0:0:0:0:
145,291,233600,6,0,P|84:286|4:298,1,124.799988088227,4|0,1:0|0:0,0:0:0:0:
183,217,233930,6,0,B|232:223|232:223|293:214,1,95.9999952316285,4|0,1:0|0:0,0:0:0:0:
368,166,234261,6,0,L|371:247,1,71.9999991703034,4|0,1:0|0:0,0:0:0:0:
434,278,234592,5,4,1:0:0:0:
441,270,237129,6,0,L|363:273,1,71.9999991703034,4|0,1:0|0:0,0:0:0:0:
294,317,237460,6,0,P|285:272|299:214,1,95.9999952316285,4|0,1:0|0:0,0:0:0:0:
201,190,237791,6,0,P|210:126|195:55,1,124.799988088227,4|0,1:0|0:0,0:0:0:0:
45,52,238122,5,4,1:0:0:0:
46,27,240327,6,0,B|39:91|39:91|54:113|54:113|50:171,1,143.999998340607,4|0,1:0|0:0,0:0:0:0:
148,146,240658,6,0,P|148:218|156:278,1,124.799988088227,4|0,1:0|0:0,0:0:0:0:
261,286,240989,6,0,B|309:281|309:281|376:287,1,95.9999952316285,4|0,1:0|0:0,0:0:0:0:
425,222,241320,6,0,L|419:146,1,71.9999991703034,4|0,1:0|0:0,0:0:0:0:
476,95,241651,5,4,1:0:0:0:
476,95,242533,1,2,0:0:0:0:
476,95,242975,1,2,0:0:0:0:
476,95,243416,1,2,0:0:0:0:
476,95,243857,5,6,0:0:0:0:
475,63,244077,1,6,0:0:0:0:
405,86,244298,1,6,0:0:0:0:
403,53,244519,1,6,0:0:0:0:
326,28,244739,1,6,0:0:0:0:
325,60,244959,1,6,0:0:0:0:
255,37,245180,1,6,0:0:0:0:
253,70,245401,1,6,0:0:0:0:
255,194,245622,5,6,0:0:0:0:
255,178,245732,1,6,0:0:0:0:
265,187,245842,1,6,0:0:0:0:
245,188,245952,1,6,0:0:0:0:
263,176,246063,1,6,0:0:0:0:
264,198,246173,1,6,0:0:0:0:
245,198,246283,1,6,0:0:0:0:
246,177,246394,1,6,0:0:0:0:
276,187,246504,1,6,0:0:0:0:
254,209,246614,1,6,0:0:0:0:
234,189,246725,1,6,0:0:0:0:
254,163,246835,1,6,0:0:0:0:
255,194,246945,6,0,B|248:222|256:256|256:256|264:244,1,76.7999961853028,2|2,0:0|0:0,0:0:0:0:
106,221,247386,6,2,B|222:172|223:307|348:256,1,259.199979215241,4|0,1:0|0:0,0:0:0:0:
466,244,247827,5,8,1:0:0:0:
446,231,247938,1,0,0:0:0:0:
426,219,248048,2,0,P|433:253|430:284,1,57.5999953811647,4|4,0:2|0:2,0:0:0:0:
283,316,248269,6,0,P|261:260|272:203,1,115.199990762329,4|4,0:0|0:2,0:0:0:0:
373,64,248600,1,4,0:2:0:0:
353,52,248710,2,0,P|360:86|357:118,1,57.5999953811647,8|0,1:0|0:0,0:0:0:0:
186,151,248930,2,0,P|179:117|182:86,1,57.5999953811647,4|0,0:2|0:0,0:0:0:0:
11,222,249151,6,0,P|67:214|122:237,1,115.199990762329,6|2,0:0|0:0,0:0:0:0:
402,204,249592,2,2,P|345:211|290:188,1,115.199990762329,8|4,1:0|0:2,0:0:0:0:
263,165,249886,2,0,L|256:233,1,38.3999969207765,4|4,0:2|0:2,0:0:0:0:
145,227,250033,6,0,B|136:189|136:189|156:148,1,76.799993841553,8|8,0:0|0:0,0:0:0:0:
224,276,250327,1,8,0:0:0:0:
336,140,250475,2,0,B|345:197|345:197|319:252,1,115.199990762329,8|4,0:0|0:2,0:0:0:0:
206,303,250916,6,2,P|335:287|447:342,1,259.199979215241,4|0,0:0|0:0,0:0:0:0:
510,186,251357,6,0,L|396:196,1,115.199990762329,8|4,1:0|0:2,0:0:0:0:
372,200,251688,1,4,0:2:0:0:
125,120,251798,6,0,L|238:109,1,115.199990762329,4|4,0:0|0:2,0:0:0:0:
262,107,252129,1,4,0:2:0:0:
44,73,252239,6,0,P|34:100|33:129,1,57.5999953811647,8|0,1:0|0:0,0:0:0:0:
204,167,252460,2,2,P|214:140|216:112,1,57.5999953811647,4|4,0:2|0:2,0:0:0:0:
107,201,252680,1,8,0:0:0:0:
107,201,252901,5,0,0:0:0:0:
183,276,253122,1,8,1:0:0:0:
186,264,253232,1,4,0:2:0:0:
266,331,253452,1,4,0:2:0:0:
264,341,253563,6,0,P|319:311|373:312,1,115.199990762329,4|4,0:0|0:2,0:0:0:0:
391,319,253894,1,4,0:2:0:0:
505,212,254004,2,0,L|445:220,1,57.5999953811647,8|0,1:0|0:0,0:0:0:0:
308,166,254225,2,2,L|365:157,1,57.5999953811647,4|4,0:2|0:2,0:0:0:0:
507,94,254445,6,2,B|487:109|487:109|426:97|426:97|430:50|430:50|366:37|366:37|340:58|340:58|312:53,1,259.199979215241,4|0,0:0|0:0,0:0:0:0:
198,47,254886,5,8,1:0:0:0:
218,34,254997,1,0,0:0:0:0:
238,22,255107,2,2,P|231:56|234:87,1,57.5999953811647,4|4,0:2|0:2,0:0:0:0:
380,117,255327,2,0,P|401:64|393:3,1,115.199990762329,4|4,0:0|0:2,0:0:0:0:
117,141,255658,1,4,0:2:0:0:
137,129,255769,2,0,P|130:163|133:194,1,57.5999953811647,8|0,1:0|0:0,0:0:0:0:
290,203,255989,2,2,P|297:169|294:138,1,57.5999953811647,4|4,0:2|0:2,0:0:0:0:
28,237,256210,6,0,P|71:273|130:281,1,115.199990762329,6|2,0:0|0:0,0:0:0:0:
386,372,256651,2,0,P|343:336|284:328,1,115.199990762329,8|4,1:0|0:2,0:0:0:0:
267,334,256945,2,0,L|259:285,1,38.3999969207765,4|4,0:2|0:2,0:0:0:0:
355,181,257092,6,0,B|368:216|368:216|361:254,1,76.799993841553,8|8,0:0|0:0,0:0:0:0:
255,122,257386,1,8,0:0:0:0:
166,278,257533,2,0,B|138:226|138:226|151:169,1,115.199990762329,8|4,1:0|0:2,0:0:0:0:
359,86,257975,6,2,P|227:77|130:0,1,259.199979215241,4|0,0:0|0:0,0:0:0:0:
0,205,258416,6,0,P|49:179|119:174,1,115.199990762329,8|4,1:0|0:2,0:0:0:0:
130,178,258747,1,4,0:2:0:0:
356,298,258857,6,0,B|351:299|301:317|243:283,1,115.199990762329,4|4,0:0|0:2,0:0:0:0:
226,269,259188,1,4,0:2:0:0:
22,326,259298,6,0,L|13:269,1,57.5999953811647,8|0,1:0|0:0,0:0:0:0:
107,333,259519,2,2,L|123:277,1,57.5999953811647,4|4,0:2|0:2,0:0:0:0:
179,377,259739,5,4,0:0:0:0:
230,109,259960,6,2,L|238:176,1,57.5999953811647,4|4,0:2|0:2,0:0:0:0:
293,54,260180,1,8,1:0:0:0:
305,75,260291,2,0,L|335:124,1,57.5999953811647,4|4,0:2|0:2,0:0:0:0:
328,293,260511,6,0,L|319:236,1,57.5999953811647,0|4,0:0|0:0,0:0:0:0:
408,323,260732,1,4,0:2:0:0:
414,301,260842,2,0,L|430:245,1,57.5999953811647,4|0,0:2|0:0,0:0:0:0:
458,80,261063,6,0,L|464:139,1,57.5999953811647,12|0,1:0|0:0,0:0:0:0:
219,345,261283,2,0,L|213:281,1,57.5999953811647,4|0,1:0|0:0,0:0:0:0:
78,101,261504,6,0,P|80:138|75:189,1,71.9999964237214,4|0,1:0|0:0,0:0:0:0:
16,37,261945,6,2,P|93:95|197:86,1,172.799986143494,12|0,1:0|0:0,0:0:0:0:
233,188,262386,2,0,B|237:307,1,115.199990762329,4|4,0:0|0:2,0:0:0:0:
329,264,262717,1,0,0:0:0:0:
336,340,262827,2,0,P|367:339|416:350,1,57.5999953811647,8|4,1:0|0:2,0:0:0:0:
449,288,263048,2,0,L|452:225,1,57.5999953811647,4|0,0:2|0:0,0:0:0:0:
485,101,263269,6,0,P|397:102|368:189,1,172.799986143494,6|0,0:0|0:0,0:0:0:0:
291,157,263710,2,0,P|292:193|285:243,1,57.5999953811647,8|4,1:0|0:2,0:0:0:0:
223,253,263930,1,4,0:2:0:0:
231,337,264041,1,4,0:2:0:0:
198,271,264151,2,0,L|129:277,1,57.5999953811647,4|0,0:0|0:0,0:0:0:0:
46,180,264372,2,0,L|7:172,3,28.7999976905824,4|0|4|0,0:2|0:0|0:2|0:0,0:0:0:0:
63,208,264592,2,0,B|59:239|59:239|64:270,1,57.5999953811647,8|0,1:0|0:0,0:0:0:0:
299,236,264813,2,2,B|303:209|303:209|299:178,1,57.5999953811647,4|0,0:2|0:0,0:0:0:0:
335,40,265033,6,2,P|281:80|183:79,1,143.999998340607,4|8,0:0|1:0,0:0:0:0:
85,38,265622,1,8,0:0:0:0:
120,131,265769,1,8,0:0:0:0:
96,228,265916,6,0,B|113:284|113:284|106:355,1,115.199990762329,4|4,0:0|0:2,0:0:0:0:
205,272,266247,2,0,L|332:260,1,115.199990762329
246,140,266577,2,0,L|253:207,1,57.5999953811647,4|4,0:2|0:2,0:0:0:0:
354,343,266798,6,2,L|341:163,1,172.799986143494,4|0,0:0|0:0,0:0:0:0:
495,180,267239,2,0,L|412:190,1,57.5999953811647,8|0,1:0|0:0,0:0:0:0:
307,53,267460,1,4,0:2:0:0:
390,47,267570,1,0,0:0:0:0:
323,75,267680,2,0,L|181:87,1,115.199990762329,4|4,0:0|0:2,0:0:0:0:
111,151,268011,5,4,0:2:0:0:
24,171,268122,2,0,L|147:180,1,95.9999952316285,8|4,1:0|0:2,0:0:0:0:
229,193,268452,5,4,0:2:0:0:
300,165,268563,2,2,P|316:239|305:296,1,107.999998755455,4|0,0:0|0:0,0:0:0:0:
407,278,269004,6,0,P|407:305|411:349,1,47.9999976158143,8|0,1:0|0:0,0:0:0:0:
221,329,269225,2,0,P|223:305|223:281,1,47.9999976158143,4|0,0:2|0:0,0:0:0:0:
399,256,269445,2,0,P|396:317|404:367,1,95.9999952316285,4|4,0:0|0:2,0:0:0:0:
325,355,269776,1,0,0:0:0:0:
313,283,269886,2,0,L|323:208,1,47.9999976158143,8|4,1:0|0:2,0:0:0:0:
374,158,270107,2,0,L|367:93,1,47.9999976158143,4|0,0:2|0:0,0:0:0:0:
296,18,270327,6,0,P|290:78|204:120,1,143.999992847443,6|4,0:0|0:2,0:0:0:0:
163,167,270769,2,0,L|107:163,1,47.9999976158143,8|0,1:0|0:0,0:0:0:0:
11,224,270989,1,4,0:2:0:0:
102,238,271100,1,4,0:2:0:0:
29,234,271210,2,0,L|37:289,1,47.9999976158143,4|0,0:0|0:0,0:0:0:0:
157,304,271430,2,0,L|189:279,3,23.9999988079071,4|0|4|0,0:2|0:0|0:2|0:0,0:0:0:0:
132,318,271651,2,0,L|137:369,1,47.9999976158143,8|0,1:0|0:0,0:0:0:0:
317,320,271872,2,0,L|312:371,1,47.9999976158143,4|0,0:2|0:0,0:0:0:0:
225,218,272092,6,2,P|279:240|369:240,1,143.999998340607,4|8,0:0|1:0,0:0:0:0:
457,196,272680,1,8,0:0:0:0:
412,104,272827,1,8,0:0:0:0:
491,23,272975,6,0,B|511:80|511:80|495:160,1,115.199990762329,8|0,0:0|0:0,0:0:0:0:
302,131,273305,1,8,0:0:0:0:
263,55,273416,2,0,L|348:48,1,57.5999953811647,4|0,1:0|0:0,0:0:0:0:
324,221,273636,2,0,L|239:214,1,57.5999953811647,4|0,1:0|0:0,0:0:0:0:
154,95,273857,6,0,L|156:62,7,28.7999976905824,0|0|0|0|0|0|0|0,1:0|1:0|1:0|1:0|1:0|1:0|1:0|1:0,0:0:0:0:
167,130,274298,5,0,1:0:0:0:
185,206,274408,5,0,1:0:0:0:
151,288,274519,5,0,1:0:0:0:
68,322,274629,5,0,1:0:0:0:
30,180,274739,6,2,P|32:106|30:61,1,107.999998755455,4|0,1:0|0:0,0:0:0:0:
214,28,275180,6,0,L|275:33,1,57.5999953811647,4|0,1:0|0:0,0:0:0:0:
333,141,275401,2,0,L|325:215,1,57.5999953811647
234,298,275622,6,0,P|231:233|211:126,1,172.799986143494,4|4,1:0|0:2,0:0:0:0:
93,51,276063,6,0,P|109:74|133:89,1,57.5999953811647,8|0,1:0|0:0,0:0:0:0:
83,159,276283,2,2,P|108:171|137:171,1,57.5999953811647,4|4,0:2|0:2,0:0:0:0:
130,255,276504,2,0,P|158:252|226:155,1,115.199990762329,4|4,0:0|0:2,0:0:0:0:
273,121,276835,1,4,0:2:0:0:
273,121,276945,2,0,L|313:203,1,57.5999953811647,8|0,1:0|0:0,0:0:0:0:
312,308,277166,2,2,L|337:256,1,57.5999953811647,4|0,0:2|0:0,0:0:0:0:
405,132,277386,5,6,0:0:0:0:
392,157,277496,1,2,0:0:0:0:
379,183,277606,1,2,0:0:0:0:
472,8,277827,2,0,L|446:59,1,57.5999953811647,8|0,1:0|0:0,0:0:0:0:
296,71,278048,2,0,L|353:66,1,57.5999953811647,4|4,0:2|0:2,0:0:0:0:
462,136,278269,5,6,0:0:0:0:
442,134,278342,1,2,0:0:0:0:
423,133,278416,1,2,0:0:0:0:
404,131,278489,6,0,L|378:182,1,57.5999953811647,4|4,0:2|0:2,0:0:0:0:
417,322,278710,2,0,L|384:274,1,57.5999953811647,8|0,1:0|0:0,0:0:0:0:
269,186,278930,2,0,L|301:233,1,57.5999953811647,4|4,0:2|0:2,0:0:0:0:
283,378,279151,6,0,L|308:326,1,57.5999953811647,4|0,0:0|0:0,0:0:0:0:
197,239,279372,2,2,L|230:287,1,57.5999953811647,0|0,0:0|0:0,0:0:0:0:
65,297,279592,2,0,L|122:292,1,57.5999953811647,8|4,1:0|0:2,0:0:0:0:
189,152,279813,1,4,0:2:0:0:
189,152,279923,6,0,L|131:156,1,57.5999953811647,0|4,0:0|0:0,0:0:0:0:
66,214,280144,1,4,0:2:0:0:
66,214,280254,2,0,L|8:218,1,57.5999953811647,4|4,0:2|0:2,0:0:0:0:
43,75,280475,2,0,L|47:132,1,57.5999953811647,8|4,1:0|0:2,0:0:0:0:
154,295,280695,2,0,L|149:237,1,57.5999953811647,4|0,0:2|0:0,0:0:0:0:
227,65,280916,6,2,P|171:61|121:89,1,115.199990762329,4|4,0:0|0:2,0:0:0:0:
219,180,281247,1,4,0:2:0:0:
219,180,281357,2,0,L|229:25,1,115.199990762329,8|4,1:0|0:2,0:0:0:0:
322,129,281688,1,4,0:2:0:0:
322,129,281798,2,0,L|182:197,1,115.199990762329,4|4,0:0|0:2,0:0:0:0:
138,212,282129,1,4,0:2:0:0:
138,212,282239,2,0,P|150:237|171:257,1,57.5999953811647,8|4,1:0|0:2,0:0:0:0:
250,289,282460,2,0,P|237:314|216:334,1,57.5999953811647,4|0,0:2|0:0,0:0:0:0:
114,371,282680,6,2,P|159:337|216:333,1,115.199990762329,4|4,0:0|0:2,0:0:0:0:
294,370,283011,1,0,0:0:0:0:
294,370,283122,2,0,L|360:359,1,57.5999953811647,8|0,1:0|0:0,0:0:0:0:
420,308,283342,2,2,L|486:297,1,57.5999953811647,0|0,0:0|0:0,0:0:0:0:
294,370,283563,6,0,P|333:326|339:271,1,115.199990762329,4|4,0:0|0:2,0:0:0:0:
240,232,283894,1,4,0:2:0:0:
240,232,284004,2,0,L|251:298,1,57.5999953811647,8|0,1:0|0:0,0:0:0:0:
322,138,284225,2,2,L|311:204,1,57.5999953811647,4|4,0:2|0:2,0:0:0:0:
167,269,284445,5,6,0:0:0:0:
171,297,284555,1,2,0:0:0:0:
176,325,284665,1,2,0:0:0:0:
395,175,284886,2,0,L|406:109,1,57.5999953811647,8|0,1:0|0:0,0:0:0:0:
458,268,285107,2,2,L|468:211,1,57.5999953811647,4|4,0:2|0:2,0:0:0:0:
367,355,285327,5,6,0:0:0:0:
370,336,285401,1,2,0:0:0:0:
373,317,285475,1,2,0:0:0:0:
376,299,285548,6,0,P|348:298|321:289,1,57.5999953811647,4|4,0:2|0:2,0:0:0:0:
270,219,285769,2,0,P|298:218|325:209,1,57.5999953811647,8|0,1:0|0:0,0:0:0:0:
376,138,285989,2,0,P|347:137|320:128,1,57.5999953811647,4|4,0:2|0:2,0:0:0:0:
216,43,286210,6,2,P|270:60|325:47,1,115.199990762329,4|4,0:0|0:2,0:0:0:0:
424,7,286541,1,0,0:0:0:0:
424,7,286651,2,0,L|411:64,1,57.5999953811647,8|4,1:0|0:2,0:0:0:0:
376,138,286872,6,2,P|421:105|479:112,2,115.199990762329,0|4|4,0:0|0:0|0:2,0:0:0:0:
289,142,287423,1,4,0:2:0:0:
289,142,287533,2,0,L|302:198,1,57.5999953811647,8|0,1:0|0:0,0:0:0:0:
286,340,287754,2,2,L|300:284,1,57.5999953811647,4|4,0:2|0:2,0:0:0:0:
188,196,287975,6,0,B|231:192|231:192|257:200|257:200|301:197,1,115.199990762329,4|4,0:0|0:2,0:0:0:0:
413,285,288305,1,0,0:0:0:0:
413,285,288416,2,0,B|369:288|369:288|343:279|343:279|299:283,1,115.199990762329,8|4,1:0|0:2,0:0:0:0:
212,284,288747,1,4,0:2:0:0:
212,284,288857,6,0,L|233:353,1,57.5999953811647,4|0,0:0|0:0,0:0:0:0:
389,197,289077,2,2,L|368:128,1,57.5999953811647,4|0,0:2|0:0,0:0:0:0:
188,196,289298,1,8,1:0:0:0:
413,285,289519,1,8,1:0:0:0:
265,98,289739,5,4,1:0:0:0:
176,320,289960,1,2,0:1:0:0:
92,200,290180,2,0,L|96:248,1,47.9999976158143,10|2,1:0|0:2,0:0:0:0:
12,168,290401,1,0,0:0:0:0:
176,320,290622,2,0,L|192:176,1,143.999992847443,4|2,0:0|0:2,0:0:0:0:
204,84,291063,1,8,1:0:0:0:
92,200,291283,1,2,0:1:0:0:
272,288,291504,5,6,0:0:0:0:
276,260,291614,1,2,0:0:0:0:
280,232,291725,1,2,0:0:0:0:
400,64,291945,2,0,L|415:158,1,95.9999952316285,8|2,1:0|0:0,0:0:0:0:
210,52,292386,2,0,L|202:88,3,31.9999984105428,6|2|2|2,0:0|0:0|0:0|0:0,0:0:0:0:
304,88,292827,1,8,1:0:0:0:
108,40,293048,1,0,0:0:0:0:
240,192,293269,6,0,L|336:176,1,95.9999952316285,4|2,0:0|0:0,0:0:0:0:
120,140,293710,2,0,B|60:132|60:132|24:144,1,95.9999952316285,10|0,1:0|0:0,0:0:0:0:
8,304,294151,1,6,0:0:0:0:
172,264,294372,2,0,L|160:216,1,47.9999976158143,0|2,0:0|0:1,0:0:0:0:
247,97,294592,2,0,P|251:145|240:192,1,95.9999952316285,8|2,1:0|0:1,0:0:0:0:
100,324,295033,5,4,0:0:0:0:
60,196,295254,1,2,0:1:0:0:
244,312,295475,2,0,L|308:304,2,63.9999968210857,10|2|2,1:0|0:1|0:1,0:0:0:0:
136,240,295916,2,0,L|40:232,1,95.9999952316285,4|2,0:0|0:0,0:0:0:0:
184,160,296357,2,0,L|220:152,5,31.9999984105428,8|4|4|4|4|4,1:0|0:0|0:0|0:0|0:0|0:0,0:0:0:0:
244,140,296798,6,0,L|144:132,1,95.9999952316285,4|2,0:0|0:0,0:0:0:0:
312,212,297239,2,0,L|360:204,1,47.9999976158143,10|2,1:0|0:2,0:0:0:0:
244,140,297460,1,2,0:0:0:0:
228,332,297680,2,0,P|284:332|356:284,1,143.999992847443,4|2,0:0|0:2,0:0:0:0:
312,212,298122,1,8,1:0:0:0:
452,344,298342,2,0,L|444:292,1,47.9999976158143,6|4,0:0|0:0,0:0:0:0:
480,224,298563,5,6,0:0:0:0:
484,196,298673,1,6,0:0:0:0:
488,168,298784,1,6,0:0:0:0:
392,44,299004,2,0,P|380:92|384:140,1,95.9999952316285,8|6,1:0|0:0,0:0:0:0:
211,207,299445,2,0,L|218:176,3,31.9999984105428,6|6|6|6,0:0|0:0|0:0|0:0,0:0:0:0:
312,212,299886,1,8,1:0:0:0:
116,164,300107,1,4,0:0:0:0:
340,292,300327,5,4,0:0:0:0:
367,286,300438,1,4,0:0:0:0:
394,281,300548,1,4,0:0:0:0:
422,275,300658,1,4,0:0:0:0:
449,270,300769,2,0,L|440:236,5,31.9999984105428,8|4|4|4|4|4,1:0|0:0|0:0|0:0|0:0|0:0,0:0:0:0:
424,160,301210,5,4,0:0:0:0:
430,133,301321,1,4,0:0:0:0:
435,106,301431,1,4,0:0:0:0:
441,78,301541,1,4,0:0:0:0:
446,51,301651,2,0,L|412:40,5,31.9999984105428,8|4|4|4|4|4,1:0|0:0|0:0|0:0|0:0|0:0,0:0:0:0:
332,20,302092,5,4,0:0:0:0:
305,26,302203,1,4,0:0:0:0:
278,31,302313,1,4,0:0:0:0:
250,37,302423,1,4,0:0:0:0:
223,42,302533,2,0,L|212:76,5,31.9999984105428,8|4|4|4|4|4,1:0|0:0|0:0|0:0|0:0|0:0,0:0:0:0:
184,160,302975,6,2,P|140:172|92:156,1,95.9999952316285,4|4,0:0|0:0,0:0:0:0:
276,140,303416,6,2,B|308:200|292:284|292:284|316:248,1,191.999990463257,8|0,1:0|0:0,0:0:0:0:
