osu file format v14

[General]
AudioFilename: Reol Danshi .mp3
AudioLeadIn: 1000
PreviewTime: 56913
Countdown: 0
SampleSet: Soft
StackLeniency: 0.5
Mode: 0
LetterboxInBreaks: 0
WidescreenStoryboard: 0

[Editor]
Bookmarks: 420,10738,46738,54738,112905,153405,168238,168905,190738,213572
DistanceSpacing: 1
BeatDivisor: 2
GridSize: 8
TimelineZoom: 0.7999998

[Metadata]
Title:Plus Danshi ver Reol
TitleUnicode:+♂ ver れをる
Artist:Reol
ArtistUnicode:れをる
Creator:jonathanlfj
Version:Normal
Source:
Tags:apaffy ギガ △○□× giga p giga-p Okiku 鏡音レン kagamine len vocaloid cover +Danshi boy
BeatmapID:667686
BeatmapSetID:295225

[Difficulty]
HPDrainRate:3
CircleSize:3
OverallDifficulty:3
ApproachRate:3.6
SliderMultiplier:0.9
SliderTickRate:1

[Events]
//Background and Video events
0,0,"lol.jpg",0,0
Video,0,"danshi.avi"
//Break Periods
2,48279,53378
2,166946,168045
//Storyboard Layer 0 (Background)
//Storyboard Layer 1 (Fail)
//Storyboard Layer 2 (Pass)
//Storyboard Layer 3 (Foreground)
//Storyboard Sound Samples

[TimingPoints]
747,333.333333333333,4,2,1,50,1,0
747,-111.111111111111,4,2,1,50,0,0
10080,-111.111111111111,4,2,1,50,0,0
13413,-100,4,1,1,60,0,0
14747,333.333333333333,4,1,1,75,1,1
14830,-100,4,1,1,75,0,0
24913,-100,4,3,1,70,0,0
25413,-100,4,1,1,70,0,0
46746,-100,4,1,1,60,0,0
54746,-100,4,2,1,50,0,0
57413,-100,4,1,1,80,0,1
67413,-100,4,1,1,80,0,0
68080,-100,4,1,1,80,0,1
78746,-111.111111111111,4,1,1,70,0,0
81413,-100,4,1,1,70,0,0
102772,333.333333333333,4,2,1,60,1,0
102772,-111.111111111111,4,2,1,60,0,0
112080,333.333333333333,4,2,1,60,1,0
112913,-100,4,2,1,70,0,0
113413,-100,4,1,1,80,0,1
123413,-100,4,1,1,80,0,0
124079,-100,4,1,1,80,0,1
134746,-111.111111111111,4,2,1,70,0,0
145079,-100,4,2,1,70,0,0
145413,-100,4,1,1,70,0,0
169413,-100,4,1,1,80,0,1
179413,-100,4,1,1,80,0,0
180079,-100,4,1,1,80,0,1
190746,-100,4,1,1,80,0,0
213413,-100,4,2,1,50,0,0
214413,-100,4,2,1,30,0,0

[Colours]
Combo1 : 254,107,251
Combo2 : 255,210,32
Combo3 : 255,96,55
Combo4 : 43,186,255

[HitObjects]
69,238,747,54,0,P|144:209|227:213,1,161.999995056153
352,316,2080,2,0,P|387:258|384:157,1,161.999995056153,0|0,0:0|0:0,0:0:0:0:
256,68,3413,5,0,0:0:0:0:
136,180,4080,1,0,0:0:0:0:
256,288,4746,1,0,0:0:0:0:
376,180,5413,1,0,0:0:0:0:
256,68,6080,6,0,L|83:82,1,161.999995056153,2|2,0:0|0:0,0:0:0:0:
32,232,7413,2,0,L|192:218,1,161.999995056153,2|2,0:0|0:0,0:0:0:0:
352,184,8746,6,0,P|348:259|294:338,2,161.999995056153,2|2|2,0:0|0:0|0:0,0:0:0:0:
256,52,10746,1,2,0:0:0:0:
256,192,11746,12,8,13413,0:0:0:0:
130,238,14747,6,0,L|112:328,2,90,6|8|2,0:0|0:0|0:0,0:0:0:0:
208,196,15746,1,8,0:0:0:0:
260,268,16080,2,0,P|313:293|411:224,1,180,2|2,0:0|0:0,0:0:0:0:
324,204,17080,1,8,0:0:0:0:
268,132,17413,6,2,P|256:72|264:34,1,90,2|10,0:0|0:0,0:0:0:0:
344,80,18080,2,0,B|392:88|440:76|440:76|468:112,1,135,2|2,0:0|0:0,0:0:0:0:
448,148,18746,2,2,P|448:205|458:248,1,90,2|8,0:0|0:0,0:0:0:0:
396,304,19413,2,0,L|403:354,2,45,2|0|8,0:0|0:0|0:0,0:0:0:0:
324,248,20080,5,2,0:0:0:0:
256,308,20413,1,8,0:0:0:0:
172,276,20746,2,0,P|146:225|139:168,1,90,2|8,0:0|0:0,0:0:0:0:
180,112,21413,2,0,P|115:144|28:86,1,180,2|2,0:0|0:0,0:0:0:0:
112,56,22413,1,8,0:0:0:0:
196,24,22746,6,2,L|289:34,1,90,2|8,0:0|0:0,0:0:0:0:
356,92,23413,1,0,0:0:0:0:
292,156,23746,2,0,L|284:209,2,45,0|0|8,3:0|3:0|3:0,0:0:0:0:
80,232,24913,2,0,L|87:278,2,45,10|0|0,0:3|0:0|0:0,0:0:0:0:
79,188,25413,6,0,B|86:145|86:145|122:105,1,90,4|0,3:1|3:0,0:0:0:0:
168,188,26080,2,0,B|207:166|207:166|257:162,1,90,0|0,3:0|3:0,0:0:0:0:
316,228,26746,2,0,P|341:174|312:94,1,135,0|2,3:0|2:0,0:0:0:0:
284,76,27413,2,0,L|190:79,1,90,0|8,3:0|3:1,0:0:0:0:
128,140,28080,5,0,3:0:0:0:
180,212,28413,1,0,3:0:0:0:
108,264,28746,2,0,P|100:311|115:358,1,90,0|0,3:0|3:0,0:0:0:0:
188,304,29413,2,0,B|227:301|227:301|259:321|259:321|303:300|360:304,1,180,0|0,3:0|3:0,0:0:0:0:
444,332,30413,1,8,3:1:0:0:
428,244,30746,6,0,P|424:197|428:139,2,90,0|0|0,3:0|3:0|3:0,0:0:0:0:
359,303,31746,1,0,3:0:0:0:
280,264,32080,2,0,P|254:224|233:170,1,90,0|0,3:0|3:0,0:0:0:0:
156,144,32746,2,0,P|141:205|138:241,1,90,0|8,3:0|3:1,0:0:0:0:
148,320,33413,5,0,3:0:0:0:
236,344,33746,1,0,3:0:0:0:
280,264,34080,2,0,P|326:249|377:246,1,90,0|0,3:0|3:0,0:0:0:0:
452,272,34746,2,0,B|462:232|462:232|444:77,1,180,0|0,3:0|3:0,0:0:0:0:
376,40,35746,1,8,3:1:0:0:
308,100,36080,6,0,P|239:117|200:117,2,90,4|0|0,3:2|3:0|3:0,0:0:0:0:
396,128,37080,1,0,3:0:0:0:
352,208,37413,2,0,P|269:240|233:243,1,90,0|0,3:0|3:0,0:0:0:0:
180,236,38080,2,0,L|169:336,1,90,0|8,3:0|3:1,0:0:0:0:
84,308,38746,6,0,B|51:282|44:228|44:228|76:146,1,180,0|0,3:0|3:0,0:0:0:0:
112,64,39746,1,0,3:0:0:0:
168,136,40080,2,0,P|220:148|276:148,1,90,0|0,3:0|3:0,0:0:0:0:
336,108,40746,2,0,B|346:143|346:143|340:176|340:176|352:212|340:252,1,135,0|2,3:0|0:2,0:0:0:0:
308,268,41413,6,0,P|236:250|156:314,1,180,0|0,3:0|3:0,0:0:0:0:
48,168,42746,2,0,P|119:185|199:121,1,180,0|0,3:0|3:0,0:0:0:0:
308,268,44080,6,0,L|322:368,2,90,0|0|0,3:0|3:0|3:0,0:0:0:0:
256,192,45080,1,0,3:0:0:0:
173,230,45413,2,0,P|170:165|272:104,1,180,0|0,3:0|3:0,0:0:0:0:
340,140,46413,1,8,3:1:0:0:
338,231,46746,6,0,B|360:276|340:316|340:316|296:336|256:301|256:301|216:336|172:316|172:316|148:276|173:231,1,360,4|2,3:2|0:0,0:0:0:0:
200,168,54746,6,0,B|192:96|216:32|216:32|256:12|296:32|296:32|320:96|312:168,1,360,0|4,0:0|3:0,0:0:0:0:
124,316,57413,6,2,L|226:305,1,90,4|8,0:0|0:0,0:0:0:0:
292,260,58080,2,2,L|385:270,1,90,0|8,0:0|0:0,0:0:0:0:
456,220,58746,1,0,0:0:0:0:
400,152,59080,1,8,0:0:0:0:
456,80,59413,2,0,P|405:65|362:69,1,90,0|8,0:0|0:0,0:0:0:0:
312,136,60080,6,2,P|254:136|211:125,1,90,0|8,0:0|0:0,0:0:0:0:
148,80,60746,2,0,B|136:120|136:120|144:172,1,90,0|8,0:0|0:0,0:0:0:0:
160,208,61246,2,2,B|163:258|138:297|138:297|98:279,1,135,0|8,0:0|0:0,0:0:0:0:
40,216,62080,2,0,P|36:162|43:118,1,90,0|8,0:0|0:0,0:0:0:0:
112,72,62746,5,0,0:0:0:0:
180,132,63080,1,8,0:0:0:0:
256,80,63413,2,0,L|353:90,1,90,0|8,0:0|0:0,0:0:0:0:
432,64,64080,2,0,P|428:120|400:160,1,90,0|8,0:0|0:0,0:0:0:0:
376,176,64580,2,0,P|358:229|390:301,1,135,0|8,0:0|0:0,0:0:0:0:
464,348,65413,6,0,B|404:368|344:340|344:340|320:360|288:364,1,180
204,356,66413,2,0,B|152:364|152:364|56:336,2,135,8|0|0,0:0|2:0|3:0,0:0:0:0:
256,284,67746,1,12,0:2:0:0:
204,208,68080,6,2,P|136:196|92:204,1,90,6|8,0:0|0:0,0:0:0:0:
72,212,68580,2,2,P|92:156|92:68,1,135,0|8,0:0|0:0,0:0:0:0:
184,64,69413,2,2,P|232:72|288:68,1,90,2|8,0:0|0:0,0:0:0:0:
316,56,69913,2,2,P|392:44|460:72,1,135,0|8,0:0|0:0,0:0:0:0:
496,136,70746,6,2,L|488:232,1,90,2|8,0:0|0:0,0:0:0:0:
464,264,71246,2,2,B|416:250|416:250|384:280|334:280,1,135,0|8,0:0|0:0,0:0:0:0:
248,280,72080,1,0,3:0:0:0:
176,224,72413,1,8,0:0:0:0:
172,136,72746,2,0,L|168:76,2,45,0|2|8,3:0|0:0|0:0,0:0:0:0:
96,184,73413,6,2,L|84:280,1,90,4|8,0:0|0:0,0:0:0:0:
164,313,74080,2,2,L|176:224,1,90,0|8,0:0|0:0,0:0:0:0:
252,176,74746,2,2,B|292:152|292:152|340:160|368:192,1,135,0|0,0:0|0:0,0:0:0:0:
392,232,75413,2,0,L|380:321,1,90,0|8,0:0|0:0,0:0:0:0:
300,360,76080,6,0,P|256:368|200:356,2,90,0|8|0,0:0|0:0|0:0,0:0:0:0:
256,280,77080,1,8,0:0:0:0:
208,204,77413,2,2,P|208:128|212:104,1,90,0|0,3:0|3:0,0:0:0:0:
301,114,78080,2,2,P|306:159|304:204,1,90,0|0,3:0|3:0,0:0:0:0:
256,280,78746,6,0,B|204:296|204:296|152:280|152:280|100:296,1,161.999995056153,10|8,3:2|0:0,0:0:0:0:
20,292,79746,1,12,0:2:0:0:
64,224,80080,1,8,0:0:0:0:
256,280,80913,2,0,L|264:336,2,40.4999987640381,10|0|0,3:0|3:0|3:0,0:0:0:0:
264,236,81413,6,0,B|304:216|304:216|360:220,1,90,4|0,3:1|3:0,0:0:0:0:
416,280,82080,2,0,P|432:244|432:184,1,90,0|0,3:0|3:0,0:0:0:0:
404,108,82746,1,0,3:0:0:0:
320,136,83080,1,0,3:0:0:0:
248,84,83413,2,0,P|236:116|240:176,1,90,0|8,3:0|3:1,0:0:0:0:
312,224,84080,6,0,P|228:196|128:216,1,180,0|0,3:0|3:0,0:0:0:0:
72,272,85080,1,0,3:0:0:0:
16,200,85413,2,0,P|4:140|4:88,2,90,0|0|0,3:0|3:0|3:0,0:0:0:0:
72,272,86413,1,8,3:1:0:0:
152,232,86746,6,0,L|248:228,1,90,0|0,3:0|3:0,0:0:0:0:
312,284,87413,2,0,L|404:292,1,90,0|0,3:0|3:0,0:0:0:0:
472,236,88080,1,0,3:0:0:0:
412,168,88413,1,0,3:0:0:0:
476,108,88746,2,0,P|488:72|484:8,1,90,0|8,3:0|3:1,0:0:0:0:
404,56,89413,6,0,P|364:69|297:72,1,90,0|0,3:0|0:0,0:0:0:0:
230,47,90080,2,0,P|153:25|99:32,1,135,0|0,3:0|0:0,0:0:0:0:
68,64,90746,2,0,L|60:164,1,90,0|0,3:0|3:0,0:0:0:0:
100,236,91413,1,0,3:0:0:0:
188,252,91746,1,8,3:1:0:0:
264,204,92080,6,0,B|328:200|328:200|380:220|380:220|440:216,1,180,4|0,3:2|3:0,0:0:0:0:
396,136,93080,1,0,3:0:0:0:
308,116,93413,2,0,B|220:124|220:124|152:204,1,180,0|0,3:0|3:0,0:0:0:0:
136,280,94413,1,8,3:1:0:0:
204,340,94746,6,0,P|256:352|312:340,2,90,0|0|0,3:0|3:0|3:0,0:0:0:0:
256,264,95746,1,0,3:0:0:0:
344,276,96080,2,0,L|400:284,2,45,0|2|0,3:0|0:2|3:0,0:0:0:0:
312,192,96746,2,0,L|348:144,2,45,0|0|8,3:0|0:0|3:1,0:0:0:0:
224,180,97413,6,0,P|176:144|152:92,1,90,0|0,3:0|3:0,0:0:0:0:
92,60,98080,2,0,P|76:100|80:160,1,90,0|0,3:0|3:0,0:0:0:0:
132,220,98746,1,0,3:0:0:0:
80,296,99080,1,0,3:0:0:0:
152,352,99413,2,0,L|256:348,1,90,0|8,3:0|3:1,0:0:0:0:
328,372,100080,6,0,B|340:344|340:344|328:316|328:316|336:264|336:264|324:232|324:196,1,180,0|0,3:0|3:0,0:0:0:0:
360,116,101080,1,0,3:0:0:0:
272,128,101413,2,0,L|176:120,1,90,0|0,3:0|3:0,0:0:0:0:
146,203,102080,2,0,L|235:210,1,90,0|0,3:0|3:0,0:0:0:0:
324,198,102772,6,0,P|398:195|448:116,1,161.999995056153,12|2,0:0|0:0,0:0:0:0:
316,36,104105,2,0,P|242:39|192:118,1,161.999995056153,0|2,3:0|0:0,0:0:0:0:
208,268,105438,2,0,B|256:333|256:333|304:268,1,161.999995056153,12|2,0:0|0:0,0:0:0:0:
200,144,106772,2,0,P|140:164|120:180,2,80.9999975280763,2|2|2,3:2|3:2|0:0,0:0:0:0:
280,164,107772,1,2,0:0:0:0:
348,120,108105,6,0,B|384:100|384:100|416:140|404:236,1,161.999995056153,8|2,3:2|0:0,0:0:0:0:
324,356,109438,2,0,P|272:320|188:356,1,161.999995056153,0|2,3:0|0:0,0:0:0:0:
92,224,110771,2,0,B|99:193|99:193|71:165|71:165|65:119|97:82,1,161.999995056153,8|2,3:2|0:0,0:0:0:0:
256,16,112080,5,4,3:0:0:0:
412,108,112746,1,0,3:0:0:0:
256,196,113413,6,2,P|232:208|164:216,1,90,4|8,0:0|0:0,0:0:0:0:
96,164,114080,1,0,0:0:0:0:
88,76,114413,1,8,0:0:0:0:
12,128,114746,2,0,P|8:184|20:220,1,90,0|8,0:0|0:0,0:0:0:0:
84,276,115413,2,0,L|60:376,1,90,0|8,0:0|0:0,0:0:0:0:
152,364,116080,6,2,L|173:276,1,90,0|8,0:0|0:0,0:0:0:0:
256,244,116746,2,0,P|296:268|356:276,1,90,0|8,0:0|0:0,0:0:0:0:
382,268,117246,2,2,B|410:248|410:248|394:140,1,135,0|8,0:0|0:0,0:0:0:0:
348,72,118080,2,0,B|304:64|304:64|240:76,1,90,0|8,0:0|0:0,0:0:0:0:
200,140,118746,5,0,0:0:0:0:
276,184,119080,1,8,0:0:0:0:
220,252,119413,1,0,0:0:0:0:
272,324,119746,2,0,P|216:340|168:328,1,90,8|0,0:0|0:0,0:0:0:0:
148,308,120246,2,0,B|124:316|124:316|108:204,1,135
96,120,121079,1,8,0:0:0:0:
168,68,121413,6,0,B|232:88|304:76|304:76|320:132,1,180
340,204,122413,2,0,P|264:220|200:212,2,135,8|0|0,0:0|2:0|3:0,0:0:0:0:
404,140,123746,1,12,0:2:0:0:
428,228,124079,6,2,B|432:252|432:252|416:280|384:296,1,90,6|8,0:0|0:0,0:0:0:0:
340,300,124579,2,2,P|264:304|208:324,1,135,0|8,0:0|0:0,0:0:0:0:
124,296,125413,2,2,P|128:244|124:196,1,90,2|8,0:0|0:0,0:0:0:0:
104,168,125913,2,2,P|168:184|240:180,1,135,0|8,0:0|0:0,0:0:0:0:
316,136,126746,6,2,B|320:92|320:92|312:40,1,90,2|8,0:0|0:0,0:0:0:0:
280,16,127246,2,2,B|248:40|248:40|206:22|140:32,1,135,0|8,0:0|0:0,0:0:0:0:
72,68,128079,1,0,3:0:0:0:
60,156,128413,1,8,0:0:0:0:
132,212,128746,2,0,L|124:260,2,45,0|2|8,3:0|0:0|0:0,0:0:0:0:
216,180,129413,6,2,P|272:176|324:180,1,90,4|8,0:0|0:0,0:0:0:0:
380,224,130079,1,0,0:0:0:0:
444,164,130413,1,8,0:0:0:0:
404,84,130746,2,2,P|324:60|300:60,1,90,0|8,0:0|0:0,0:0:0:0:
232,88,131413,2,0,P|180:100|136:100,1,90,0|8,0:0|0:0,0:0:0:0:
56,76,132079,6,0,L|44:176,2,90,0|8|0,0:0|0:0|0:0,0:0:0:0:
124,16,133079,1,8,0:0:0:0:
208,48,133413,2,2,B|232:88|232:88|244:140,1,90,0|0,3:0|3:0,0:0:0:0:
264,216,134079,2,2,B|273:258|273:258|297:298,1,90,0|0,3:0|3:0,0:0:0:0:
384,320,134746,6,0,B|424:304|464:312|464:312|480:280|476:232,1,161.999995056153,12|0,3:2|3:0,0:0:0:0:
440,160,135746,1,2,0:0:0:0:
368,124,136079,2,0,L|356:32,2,80.9999975280763,2|0|0,3:2|3:0|3:0,0:0:0:0:
284,264,137413,6,0,P|212:232|124:252,1,161.999995056153,0|0,3:0|3:0,0:0:0:0:
72,304,138413,1,2,0:0:0:0:
56,224,138746,2,0,P|56:176|72:120,1,80.9999975280763,0|0,3:0|3:0,0:0:0:0:
136,104,139413,2,0,P|176:112|216:112,1,80.9999975280763,0|2,3:0|3:2,0:0:0:0:
280,60,140079,6,0,B|248:136|248:136|260:180|252:228,1,161.999995056153,12|0,3:2|3:0,0:0:0:0:
404,276,141413,2,0,P|412:328|424:360,2,80.9999975280763,0|0|0,3:0|3:0|3:0,0:0:0:0:
436,200,142413,1,2,0:0:0:0:
392,132,142746,6,0,B|352:116|312:128|312:128|272:140|232:132,1,161.999995056153,0|0,3:0|3:0,0:0:0:0:
80,76,144079,2,0,P|100:112|104:160,2,80.9999975280763,0|0|0,3:0|3:0|3:0,0:0:0:0:
16,140,145079,1,8,3:1:0:0:
52,224,145413,6,0,P|128:236|192:164,1,180,4|2,0:0|0:0,0:0:0:0:
256,100,146413,1,10,0:0:0:0:
328,152,146746,2,0,P|348:192|356:292,1,135,0|0,0:0|0:0,0:0:0:0:
336,320,147413,2,0,B|292:320|292:320|236:332,1,90,8|8,0:2|0:0,0:0:0:0:
160,312,148079,6,0,B|180:268|180:268|160:200|164:132,1,180,0|2,3:0|0:0,0:0:0:0:
196,52,149079,1,10,0:0:0:0:
280,84,149413,2,0,P|344:84|420:64,1,135,0|0,0:0|0:0,0:0:0:0:
448,40,150079,2,0,B|465:83|465:83|468:132,1,90,8|8,0:2|0:0,0:0:0:0:
420,204,150746,6,0,L|416:256,2,45,0|0|8,3:0|0:0|0:0,0:0:0:0:
352,144,151413,1,2,0:0:0:0:
276,192,151746,1,10,0:0:0:0:
204,136,152079,2,0,B|94:117|94:117|64:136,1,135,0|0,0:0|0:0,0:0:0:0:
36,156,152746,2,0,B|74:260|74:260|106:277,1,135,8|0,0:2|0:0,0:0:0:0:
137,290,153413,6,0,L|207:204,1,90,0|8,3:0|0:0,0:0:0:0:
276,260,154079,2,2,L|344:332,1,90,2|10,3:1|0:0,0:0:0:0:
428,320,154746,1,0,3:0:0:0:
440,232,155079,1,0,3:0:0:0:
456,144,155413,2,2,B|469:67|469:67|456:72,1,90,0|0,3:0|3:0,0:0:0:0:
376,108,156079,6,0,B|356:108|356:108|328:124|328:124|296:104|296:104|248:112|248:112|212:92,1,180,4|2,0:0|0:0,0:0:0:0:
132,52,157079,1,8,0:0:0:0:
60,108,157413,2,0,L|68:200,1,90,0|8,0:0|0:0,0:0:0:0:
136,256,158079,1,0,0:0:0:0:
264,132,158746,6,0,L|276:32,1,90,0|8,3:0|0:0,0:0:0:0:
364,32,159413,2,0,P|404:56|456:68,1,90,2|8,0:0|0:0,0:0:0:0:
488,148,160079,2,0,L|477:237,2,90,0|8|0,0:0|0:0|0:0,0:0:0:0:
396,144,161079,1,6,0:2:0:0:
324,200,161413,6,2,P|316:236|312:304,1,90,8|8,3:2|0:0,0:0:0:0:
224,312,162079,2,2,B|180:300|136:316|136:316|120:268,1,135,2|0,0:0|0:0,0:0:0:0:
108,228,162746,2,0,P|116:180|116:136,1,90,0|8,0:0|0:0,0:0:0:0:
56,72,163413,2,0,L|-4:84,2,45,0|0|8,0:0|0:0|0:0,0:0:0:0:
144,52,164079,5,8,3:2:0:0:
204,120,164413,1,8,0:0:0:0:
168,204,164746,2,0,L|120:208,2,45,0|0|8,0:0|0:0|0:0,0:0:0:0:
224,276,165413,2,2,P|280:276|316:260,1,90,0|0,3:0|3:0,0:0:0:0:
346,180,166079,2,2,P|328:140|290:108,1,90,2|2,3:2|3:2,0:0:0:0:
256,192,166746,5,2,3:2:0:0:
256,192,169413,6,2,P|216:212|156:212,1,90,4|8,0:0|0:0,0:0:0:0:
192,128,170079,2,2,P|144:116|104:80,1,90,0|8,0:0|0:0,0:0:0:0:
188,40,170746,2,0,P|244:24|340:48,1,135,0|0,0:0|0:0,0:0:0:0:
352,68,171413,2,0,P|396:76|452:72,1,90,0|8,0:0|0:0,0:0:0:0:
500,144,172079,5,0,0:0:0:0:
484,232,172413,1,8,0:0:0:0:
404,276,172746,2,0,P|360:268|304:272,1,90,0|8,0:0|0:0,0:0:0:0:
276,288,173246,2,2,B|304:248|304:248|292:144,1,135,0|8,0:0|0:0,0:0:0:0:
224,104,174079,2,0,B|180:100|180:100|116:116,1,90,0|8,0:0|0:0,0:0:0:0:
72,176,174746,5,0,0:0:0:0:
140,236,175079,1,8,0:0:0:0:
80,304,175413,1,0,0:0:0:0:
148,364,175746,1,8,0:0:0:0:
208,296,176079,2,0,P|272:288|312:296,1,90,0|8,0:0|0:0,0:0:0:0:
336,312,176579,2,0,B|396:332|444:312|444:312|452:276,1,135,0|8,0:0|0:0,0:0:0:0:
388,220,177413,6,0,B|396:176|396:176|384:136|384:136|392:88,2,135,0|0|8,0:0|0:0|0:0,0:0:0:0:
304,184,178746,2,0,P|260:200|224:252,2,90,0|0|0,3:0|3:0|3:0,0:0:0:0:
312,272,179746,1,12,0:2:0:0:
236,324,180079,6,2,P|188:312|140:240,1,135,6|0,0:0|0:0,0:0:0:0:
152,156,180913,2,0,L|92:160,2,45,0|8|0,0:0|0:0|0:0,0:0:0:0:
196,172,181413,2,2,P|256:160|304:100,1,135,2|0,0:0|0:0,0:0:0:0:
288,16,182246,2,0,L|340:20,2,45,0|8|0,0:0|0:0|0:0,0:0:0:0:
244,32,182746,6,2,B|192:44|192:44|152:32|108:40,1,135,2|0,0:0|0:0,0:0:0:0:
40,96,183579,2,0,L|20:52,2,45,0|8|0,0:0|0:0|0:0,0:0:0:0:
60,136,184079,2,0,B|68:180|68:180|56:228,1,90,0|8,3:0|0:0,0:0:0:0:
40,312,184746,1,0,3:0:0:0:
120,356,185079,1,8,0:0:0:0:
188,296,185413,6,2,L|288:292,1,90,6|8,0:0|0:0,0:0:0:0:
340,356,186079,2,2,L|436:364,1,90,0|8,0:0|0:0,0:0:0:0:
492,296,186746,2,2,P|476:240|472:160,1,135,2|0,0:0|0:0,0:0:0:0:
488,120,187413,1,0,0:0:0:0:
404,84,187746,1,8,0:0:0:0:
332,140,188079,6,0,P|324:188|324:240,2,90,0|8|0,0:0|0:0|0:0,0:0:0:0:
320,52,189079,1,8,0:0:0:0:
236,24,189413,2,2,P|188:32|144:52,1,90,0|0,3:0|3:0,0:0:0:0:
124,136,190079,2,2,P|184:140|224:156,1,90,0|0,3:0|3:0,0:0:0:0:
288,196,190746,6,0,B|324:173|351:134|351:134|375:174|375:174|415:154|415:154|416:199|435:241,1,270,8|12,3:2|0:2,0:0:0:0:
348,268,192079,6,0,B|355:311|342:350|342:350|317:370|287:359|287:359|261:328|253:284,1,225,8|10,0:2|3:0,0:0:0:0:
280,152,193413,6,0,P|188:108|120:136,1,180,6|2,0:0|0:0,0:0:0:0:
68,208,194413,1,8,0:0:0:0:
124,280,194746,2,0,L|112:376,2,90,2|8|2,0:0|0:0|0:0,0:0:0:0:
192,224,195746,1,8,0:0:0:0:
260,284,196079,6,2,P|320:296|368:292,1,90,2|8,0:0|0:0,0:0:0:0:
428,256,196746,2,0,P|412:212|404:160,1,90,2|0,0:0|0:0,0:0:0:0:
456,96,197413,2,2,B|424:112|424:112|304:124,1,135
280,128,198079,2,0,L|232:132,2,45,2|0|8,0:0|0:0|0:0,0:0:0:0:
292,40,198746,6,0,L|192:48,1,90,2|8,0:0|0:0,0:0:0:0:
148,120,199413,1,2,0:0:0:0:
80,60,199746,1,8,0:0:0:0:
24,132,200079,2,0,P|16:204|36:272,1,135,2|0,0:0|0:0,0:0:0:0:
68,292,200746,2,2,P|116:284|172:288,1,90,2|8,0:0|0:0,0:0:0:0:
232,332,201413,6,0,P|288:340|336:332,1,90,2|10,0:0|0:0,0:0:0:0:
392,280,202079,2,0,L|444:284,2,45,0|2|10,0:0|0:0|0:0,0:0:0:0:
336,212,202746,1,2,3:1:0:0:
396,144,203079,1,0,3:0:0:0:
336,76,203413,2,2,L|244:68,1,90,2|0,3:2|3:0,0:0:0:0:
164,108,204079,6,0,B|148:152|168:196|168:196|144:236|152:284,1,180,6|2,0:0|0:0,0:0:0:0:
204,356,205079,1,8,0:0:0:0:
280,308,205413,2,2,P|296:260|292:212,1,90,0|10,0:0|0:0,0:0:0:0:
248,144,206079,1,0,0:0:0:0:
308,76,206413,1,10,0:0:0:0:
392,108,206746,6,2,B|436:116|480:100|480:100|493:126|492:156,1,135,2|0,0:0|0:0,0:0:0:0:
480,188,207413,2,0,P|480:244|488:288,1,90,2|8,0:0|0:0,0:0:0:0:
404,312,208079,2,2,P|352:288|264:284,1,135,2|0,0:0|0:0,0:0:0:0:
232,300,208746,2,0,L|208:360,2,45,2|2|10,0:0|0:0|0:0,0:0:0:0:
224,212,209413,5,2,0:0:0:0:
140,180,209746,1,8,0:0:0:0:
68,236,210079,2,2,P|52:192|60:132,1,90,2|8,0:0|0:0,0:0:0:0:
124,92,210746,2,0,L|232:84,2,90,0|10|2,0:0|0:0|0:0,0:0:0:0:
140,180,211746,1,8,0:0:0:0:
156,268,212079,6,2,P|196:324|300:320,1,180
244,248,213079,1,8,0:0:0:0:
256,160,213413,6,0,B|283:167|304:184|304:184|338:126|318:62|318:62|297:78|270:76|253:57|256:32,1,270,0|8,3:0|1:2,0:0:0:0:
