osu file format v14

[General]
AudioFilename: No title.mp3
AudioLeadIn: 0
PreviewTime: 50097
Countdown: 0
SampleSet: Soft
StackLeniency: 0.6
Mode: 0
LetterboxInBreaks: 0
WidescreenStoryboard: 1

[Editor]
Bookmarks: 50397
DistanceSpacing: 1.5
BeatDivisor: 4
GridSize: 4
TimelineZoom: 1

[Metadata]
Title:No title
TitleUnicode:No title
Artist:Reol
ArtistUnicode:Reol
Creator:VINXIS
Version:jieusieu's Lemur
Source:
Tags:title- title+ Kamio_Misuzu CelsiusLK deetz byfar Fast jieusieu toybot Hatsune Miku Giga-P dmARTS Anyosupenyosuyaya Lust Irreversible sukiNathan Leader Mishima Yurara
BeatmapID:714001
BeatmapSetID:320118

[Difficulty]
HPDrainRate:6
CircleSize:4
OverallDifficulty:9
ApproachRate:9.6
SliderMultiplier:1.15
SliderTickRate:1

[Events]
//Background and Video events
0,0,"Lemur.jpg",0,0
//Break Periods
//Storyboard Layer 0 (Background)
//Storyboard Layer 1 (Fail)
//Storyboard Layer 2 (Pass)
//Storyboard Layer 3 (Foreground)
Sprite,Foreground,Centre,"Lemur.jpg",320,240 M,0,34,2377,320,240,322,240 S,0,34,69897,0.722529 M,0,2377,2418,327,243,329,243 M,0,2418,2435,332,244,335,244 M,0,2435,2452,339,245,341,245 M,0,2452,2469,344,245,345,245 M,0,2469,2485,347,245 M,0,2761,2778,346,245,343,245 M,0,2778,2793,340,244,337,243 M,0,2793,2811,333,241,328,239 M,0,2811,2827,323,237,318,236 M,0,2827,2844,312,233,306,232 M,0,2844,2862,301,230,298,230 M,0,2862,2877,295,229,294,229 M,0,3267,3284,296,226,300,221 M,0,3284,3302,305,216,311,212 M,0,3302,3318,316,210,322,208 M,0,3318,3335,327,206,332,206 M,0,3335,3352,337,206,341,206 M,0,3352,3368,344,208,347,210 M,0,3368,3385,349,212,351,214 M,0,3385,3402,352,219,354,224 M,0,3402,3418,356,229,357,233 M,0,3418,3435,358,239,358,243 M,0,3435,3452,359,247,360,250 M,0,3452,3469,360,253,360,255 M,0,3502,3518,359,251,358,247 M,0,3518,3535,355,242,354,238 M,0,3535,3552,351,232,349,226 M,0,3552,3568,346,220,345,214 M,0,3568,3586,343,208,342,204 M,0,3586,3602,341,201,341,199 M,0,3602,4012,341,198,340,201 M,0,4012,4027,340,204,339,208 M,0,4027,4044,337,212,334,216 M,0,4044,4061,331,221,327,226 M,0,4061,4077,321,231,317,236 M,0,4077,4094,312,240,308,245 M,0,4094,4111,305,247,304,248 M,0,4152,4169,306,246,310,241 M,0,4169,4186,314,238,319,232 M,0,4186,4202,323,229,329,224 M,0,4202,4218,336,220,343,217 M,0,4218,4235,350,214,356,212 M,0,4235,4253,362,210,366,210 M,0,4253,4268,370,210,371,210 M,0,4268,4285,373,210,374,212 M,0,4285,4303,376,216,378,220 M,0,4303,4318,378,226,380,232 M,0,4318,4335,381,238,382,245 M,0,4335,4353,382,249,382,254 M,0,4353,4368,383,259,384,260 M,0,4368,4618,384,262,384,261 M,0,4618,4636,381,258,378,254 M,0,4636,4652,374,250,370,245 M,0,4652,4669,364,241,358,238 M,0,4669,4685,351,234,344,230 M,0,4685,4702,337,228,331,227 M,0,4702,4719,327,226,323,226 M,0,4719,4735,321,226,320,226 M,0,4735,4753,318,228,318,231 M,0,4753,4769,317,234,316,239 M,0,4769,4786,314,243,313,248 M,0,4786,4802,311,253,310,258 M,0,4802,4819,308,263,307,267 M,0,4819,4836,306,272,304,276 M,0,4836,4852,303,278,302,281 M,0,4852,4868,302,282,301,282 M,0,5186,5202,304,281,309,276 M,0,5202,5219,316,272,324,267 M,0,5219,5236,332,263,342,259 M,0,5236,5252,351,256,358,253 M,0,5252,5269,367,251,374,249 M,0,5269,5286,379,248,383,247 M,0,5286,5512,384,247,384,249 M,0,5512,5527,386,255,388,261 M,0,5527,5543,390,267,390,271 M,0,5543,5561,392,277,392,281 M,0,5561,5577,393,285,394,288 M,0,5577,5594,395,290 M,0,5777,5793,393,288,390,286 M,0,5793,5812,385,284,378,282 M,0,5812,5827,370,278,364,277 M,0,5827,5845,356,275,346,274 M,0,5845,5862,337,273,329,273 M,0,5862,5877,323,273,318,273 M,0,5877,5893,314,274,312,275 M,0,5893,5912,310,275,308,276 M,0,5944,5962,308,278,309,282 M,0,5962,5977,310,286,310,291 M,0,5977,5993,310,296,308,299 M,0,5993,6011,308,302,308,303 M,0,6053,6069,308,300,310,295 M,0,6069,6085,312,290,314,285 M,0,6085,6103,316,279,319,275 M,0,6103,6119,321,269,324,265 M,0,6119,6135,329,261,331,259 M,0,6135,6152,333,257,335,257 M,0,6152,6168,336,256,337,256 M,0,6385,6403,339,256,344,256 M,0,6403,6419,351,257,356,259 M,0,6419,6436,366,261,371,263 M,0,6436,6452,377,265,383,267 M,0,6452,6468,388,269,392,270 M,0,6468,6485,394,272,395,273 M,0,6518,6535,393,271,390,268 M,0,6535,6552,386,266,382,264 M,0,6552,6569,378,262,374,259 M,0,6569,6585,368,256,362,253 M,0,6585,6602,355,248,348,243 M,0,6602,6619,343,239,337,236 M,0,6619,6635,334,234,331,233 M,0,6635,6652,329,233 M,0,6652,6677,328,233,327,233 M,0,6677,6694,326,234,324,236 M,0,6694,6711,322,238,320,241 M,0,6711,6727,317,243,314,248 M,0,6727,6744,312,251,308,255 M,0,6744,6761,304,257,302,260 M,0,6761,6776,298,263,296,265 M,0,6776,6794,293,266,289,268 M,0,6794,6811,285,269,282,271 M,0,6811,6828,279,272,277,273 M,0,6828,6869,276,273,278,272 M,0,6869,6885,283,269,286,265 M,0,6885,6902,293,262,298,259 M,0,6902,6919,304,256,310,253 M,0,6919,6936,318,249,327,247 M,0,6936,6953,333,245,342,242 M,0,6953,6969,349,240,355,240 M,0,6969,6985,358,238,359,238 M,0,7185,7202,362,240,364,243 M,0,7202,7218,366,245,368,249 M,0,7218,7235,370,251,372,253 M,0,7235,7253,374,254,375,254 M,0,7253,7477,375,255,373,255 M,0,7477,7494,370,254,367,253 M,0,7494,7511,362,250,355,247 M,0,7511,7527,347,244,335,240 M,0,7527,7543,325,236,316,234 M,0,7543,7561,309,233,304,232 M,0,7561,7577,300,232,297,232 M,0,7577,7777,296,232,298,233 M,0,7777,7794,303,235,307,238 M,0,7794,7811,312,240,317,241 M,0,7811,7827,321,244,326,247 M,0,7827,7843,329,249,333,250 M,0,7843,7861,335,252,337,253 M,0,7861,8061,337,253,339,253 M,0,8061,8077,343,251,348,247 M,0,8077,8094,354,244,360,241 M,0,8094,8111,366,239,372,237 M,0,8111,8127,378,236,382,236 M,0,8127,8143,385,235,386,234 M,0,8361,8377,384,236,380,240 M,0,8377,8393,377,243,374,245 M,0,8393,8411,370,248,366,250 M,0,8411,8427,362,251,358,253 M,0,8427,8443,355,254,354,255 M,0,8443,8461,353,255,352,255 M,0,8685,8703,349,254,343,251 M,0,8703,8719,337,247,333,245 M,0,8719,8736,327,242,320,240 M,0,8736,8752,317,239,312,238 M,0,8752,8768,310,236,307,236 M,0,8768,8993,306,236,308,236 M,0,8993,9012,312,238,314,240 M,0,9012,9027,317,241,321,242 M,0,9027,9043,323,243,327,244 M,0,9043,9061,331,245,333,246 M,0,9061,9076,336,247,339,248 M,0,9076,9093,339,248,341,248 M,0,9093,9312,341,249,343,247 M,0,9312,9328,345,245,348,244 M,0,9328,9344,351,243,355,241 M,0,9344,9362,357,241,360,240 M,0,9362,9378,363,239,364,238 M,0,9378,9593,365,238,363,240 M,0,9593,9612,360,241,356,243 M,0,9612,9626,353,244,349,245 M,0,9626,9644,345,246,342,247 M,0,9644,9661,340,249,339,249 M,0,9661,9869,338,249,337,249 M,0,9869,9885,335,249,331,245 M,0,9885,9902,327,242,321,239 M,0,9902,9919,316,235,309,232 M,0,9919,9935,306,230,304,229 M,0,9935,10019,303,228,305,228 M,0,10019,10035,308,230,312,232 M,0,10035,10053,318,234,323,236 M,0,10053,10069,328,238,334,239 M,0,10069,10085,338,240,343,241 M,0,10085,10102,345,242,347,243 M,0,10102,10302,348,243,349,243 M,0,10302,10319,351,239,354,236 M,0,10319,10335,358,232,362,228 M,0,10335,10352,366,226,369,224 M,0,10352,10371,372,223,374,222 M,0,10371,10462,376,222 M,0,10462,10477,376,225,376,227 M,0,10477,10494,375,229,374,231 M,0,10494,10512,372,234,368,237 M,0,10512,10527,367,238,364,240 M,0,10527,10544,360,242,356,243 M,0,10544,10562,353,244,348,245 M,0,10562,10576,344,245,339,245 M,0,10576,10593,335,245,329,243 M,0,10593,10611,325,242,321,240 M,0,10611,10627,318,238,314,237 M,0,10627,10643,310,234,308,233 M,0,10643,10661,308,232 M,0,10728,10745,308,233,310,236 M,0,10745,10762,312,240,314,242 M,0,10762,10778,316,244,317,245 M,0,10778,10795,319,246,321,247 M,0,10795,10813,323,247,325,247 M,0,10813,10827,326,247,329,247 M,0,10827,10844,332,247,335,245 M,0,10844,10862,341,243,347,240 M,0,10862,10878,352,237,356,235 M,0,10878,10895,360,232,364,231 M,0,10895,10912,365,230 M,0,10944,10961,362,230,357,230 M,0,10961,10978,350,232,343,234 M,0,10978,10994,332,236,321,238 M,0,10994,11012,311,238,304,240 M,0,11012,11029,298,241,294,241 M,0,11029,11062,294,241,296,241 M,0,11062,11079,305,239,315,237 M,0,11079,11095,325,236,335,234 M,0,11095,11112,343,232,347,232 M,0,11112,11153,349,231,347,231 M,0,11153,11172,343,232,336,234 M,0,11172,11187,330,236,323,238 M,0,11187,11203,314,240,308,241 M,0,11203,11220,298,244,288,247 M,0,11220,11236,281,248,275,250 M,0,11236,11252,271,251,270,251 M,0,11295,11312,271,251,275,251 M,0,11312,11328,278,249,284,247 M,0,11328,11344,290,245,297,243 M,0,11344,11362,306,241,318,237 M,0,11362,11378,328,234,340,231 M,0,11378,11394,348,229,355,227 M,0,11394,11411,359,226,361,226 M,0,11652,11669,358,228,353,233 M,0,11669,11685,345,236,336,240 M,0,11685,11702,324,244,314,247 M,0,11702,11719,302,251,290,253 M,0,11719,11735,279,256,271,258 M,0,11735,11752,263,259,260,259 M,0,11752,11802,258,259,261,256 M,0,11802,11819,266,253,271,249 M,0,11819,11835,278,245,285,241 M,0,11835,11852,291,238,298,235 M,0,11852,11869,305,232,310,231 M,0,11869,11885,314,230,317,230 M,0,11885,11902,321,229,323,229 M,0,11902,11919,324,230,327,232 M,0,11919,11935,329,235,332,239 M,0,11935,11952,335,243,337,247 M,0,11952,11969,341,252,343,257 M,0,11969,11985,345,261,347,265 M,0,11985,12002,349,267,349,268 M,0,12002,12069,349,269,346,265 M,0,12069,12085,341,261,337,257 M,0,12085,12102,331,252,324,248 M,0,12102,12119,314,243,304,240 M,0,12119,12135,296,238,286,237 M,0,12135,12153,280,237,274,238 M,0,12153,12170,269,240,266,241 M,0,12170,12198,260,249,259,251 M,0,12198,12211,259,252,258,254 M,0,12211,12227,257,257,256,261 M,0,12227,12244,255,263,254,266 M,0,12244,12261,254,267,253,268 M,0,12261,12352,253,269,257,268 M,0,12352,12369,262,265,270,260 M,0,12369,12385,280,254,291,249 M,0,12385,12402,300,243,310,237 M,0,12402,12419,323,230,332,226 M,0,12419,12435,341,222,351,218 M,0,12435,12453,357,216,360,214 M,0,12453,12469,363,214,364,213 M,0,12469,12535,364,213,364,216 M,0,12535,12553,364,222,364,229 M,0,12553,12571,364,234,364,241 M,0,12571,12586,364,246,362,254 M,0,12586,12603,361,259,360,265 M,0,12603,12621,360,269,360,271 M,0,12621,12637,359,273 M,0,12853,12869,356,272,353,267 M,0,12869,12886,347,263,339,257 M,0,12886,12902,332,253,326,249 M,0,12902,12919,318,245,312,242 M,0,12919,12935,306,240,304,240 M,0,12935,12952,301,240,300,240 M,0,13002,13019,300,243,301,247 M,0,13019,13035,301,251,301,257 M,0,13035,13052,301,262,301,267 M,0,13052,13069,300,273,300,275 M,0,13069,13152,299,277,301,275 M,0,13152,13170,304,271,310,268 M,0,13170,13185,316,263,322,259 M,0,13185,13203,331,254,339,249 M,0,13203,13219,349,244,356,241 M,0,13219,13235,361,238,368,236 M,0,13235,13252,373,234,374,233 M,0,13252,13320,374,233,375,238 M,0,13320,13336,376,241,376,246 M,0,13336,13353,376,251,376,255 M,0,13353,13369,376,258,375,262 M,0,13369,13386,374,265,373,269 M,0,13386,13402,371,271,370,273 M,0,13402,13419,368,275,366,275 M,0,13419,13435,363,275,360,275 M,0,13435,13452,356,273,351,271 M,0,13452,13471,345,267,339,263 M,0,13471,13486,332,259,326,255 M,0,13486,13503,318,251,310,247 M,0,13503,13519,304,243,298,241 M,0,13519,13537,294,238,292,237 M,0,13585,13603,294,239,298,243 M,0,13603,13619,300,245,304,250 M,0,13619,13635,309,255,314,259 M,0,13635,13652,320,261,325,265 M,0,13652,13669,332,268,337,271 M,0,13669,13685,342,273,346,275 M,0,13685,13702,349,275 M,0,13919,13936,350,275,351,266 M,0,13936,13952,355,257,358,247 M,0,13952,13968,361,239,365,234 M,0,13968,13986,368,228,372,224 M,0,13986,14001,374,221,376,218 M,0,14001,14020,378,217,379,216 M,0,14020,14036,380,216,380,215 M,0,14095,14111,380,218,376,223 M,0,14111,14127,373,228,368,235 M,0,14127,14144,363,240,356,245 M,0,14144,14161,349,249,343,254 M,0,14161,14177,336,259,331,262 M,0,14177,14195,325,265,322,266 M,0,14195,14212,320,266 M,0,14228,14244,319,265,318,259 M,0,14244,14261,316,251,314,244 M,0,14261,14278,311,238,307,232 M,0,14278,14294,304,226,300,222 M,0,14294,14312,298,218,297,216 M,0,14312,14378,296,216,296,217 M,0,14378,14394,296,222,298,228 M,0,14394,14411,300,235,302,241 M,0,14411,14427,304,247,306,254 M,0,14427,14444,308,259,309,264 M,0,14444,14461,310,268,311,271 M,0,14461,14477,312,273 M,0,14520,14536,313,273,314,273 M,0,14536,14553,317,271,322,269 M,0,14553,14569,328,266,335,263 M,0,14569,14586,343,258,352,253 M,0,14586,14603,359,249,366,245 M,0,14603,14621,371,241,377,239 M,0,14621,14637,379,238,380,238 M,0,14670,14686,381,239,382,243 M,0,14686,14703,382,246,382,250 M,0,14703,14719,384,255,384,258 M,0,14719,14735,384,263,385,266 M,0,14735,14753,385,269,385,272 M,0,14753,14794,385,273,384,273 M,0,14794,14811,381,271,377,269 M,0,14811,14826,372,267,365,265 M,0,14826,14844,356,261,347,259 M,0,14844,14861,339,257,329,255 M,0,14861,14877,322,253,314,251 M,0,14877,14893,309,250,304,249 M,0,14893,14912,302,249 M,0,14944,14961,303,249,305,249 M,0,14961,14977,307,252,309,254 M,0,14977,14995,310,257,312,260 M,0,14995,15012,313,263,314,265 M,0,15012,15028,315,265,316,267 M,0,15028,15045,317,269,318,269 M,0,15045,15061,318,269,318,270 M,0,15061,15076,319,270,320,270 M,0,15076,15093,323,269,326,267 M,0,15093,15111,331,263,335,261 M,0,15111,15127,340,257,345,253 M,0,15127,15143,350,251,355,247 M,0,15143,15161,359,245,363,244 M,0,15161,15176,366,243,368,243 M,0,15176,15211,368,243,369,243 M,0,15211,15227,370,245,371,249 M,0,15227,15244,372,253,374,256 M,0,15244,15261,374,261,376,265 M,0,15261,15277,376,268,377,271 M,0,15277,15293,378,273,378,274 M,0,15293,15353,378,275,378,274 M,0,15353,15368,378,271,376,267 M,0,15368,15385,374,263,371,258 M,0,15385,15403,369,254,366,250 M,0,15403,15419,362,246,360,243 M,0,15419,15435,356,241,354,241 M,0,15435,15453,349,240,345,239 M,0,15453,15468,341,239,337,239 M,0,15468,15485,330,240,324,242 M,0,15485,15503,318,245,312,247 M,0,15503,15521,306,249,302,251 M,0,15521,15536,300,253,298,254 M,0,15536,15627,298,254,300,253 M,0,15627,15644,304,250,307,246 M,0,15644,15662,312,241,316,237 M,0,15662,15678,321,233,324,230 M,0,15678,15695,330,228,335,225 M,0,15695,15712,338,224,341,223 M,0,15712,15729,344,222,346,222 M,0,15729,15745,347,222,349,222 M,0,15745,15762,350,222,352,225 M,0,15762,15778,354,229,355,233 M,0,15778,15795,356,237,358,241 M,0,15795,15811,359,246,361,251 M,0,15811,15827,362,255,363,259 M,0,15827,15843,364,263,364,266 M,0,15843,15861,364,269,365,271 M,0,15861,15937,365,271,366,269 M,0,15937,15953,367,265,368,263 M,0,15953,15972,370,258,372,253 M,0,15972,15987,375,249,378,245 M,0,15987,16004,381,241,386,238 M,0,16004,16022,388,235,393,232 M,0,16022,16037,396,230,399,229 M,0,16037,16053,402,228,404,228 M,0,16053,16072,406,228,409,228 M,0,16072,16087,411,228,413,229 M,0,16087,16104,415,231,418,234 M,0,16104,16122,420,236,422,240 M,0,16122,16137,424,244,427,247 M,0,16137,16153,428,251,429,253 M,0,16153,16172,430,256,430,259 M,0,16172,16187,431,261 M,0,16187,16443,432,262,427,260 M,0,16443,16461,421,257,414,254 M,0,16461,16478,404,249,394,245 M,0,16478,16494,384,240,374,236 M,0,16494,16512,361,232,351,229 M,0,16512,16529,342,228,335,228 M,0,16529,16544,329,228,325,228 M,0,16544,16562,323,229,321,230 M,0,16562,16578,321,231,320,233 M,0,16578,16595,320,236,319,239 M,0,16595,16611,318,245,317,248 M,0,16611,16629,316,254,314,259 M,0,16629,16646,313,263,312,266 M,0,16646,16712,312,268,312,266 M,0,16712,16728,312,262,312,260 M,0,16728,16745,314,255,316,251 M,0,16745,16762,318,243,321,238 M,0,16762,16779,326,232,330,227 M,0,16779,16795,335,224,339,220 M,0,16795,16812,343,218,346,218 M,0,16812,16827,349,218,351,217 M,0,16827,16845,353,217,355,218 M,0,16845,16862,356,219,359,221 M,0,16862,16879,361,224,364,229 M,0,16879,16895,366,233,369,238 M,0,16895,16912,370,242,371,248 M,0,16912,16927,372,251,372,255 M,0,16927,16944,372,258,372,259 M,0,16944,16971,372,261 M,0,16971,16986,371,261,370,261 M,0,16986,17004,367,261,362,258 M,0,17004,17022,357,256,350,253 M,0,17022,17037,343,249,335,247 M,0,17037,17053,325,244,317,241 M,0,17053,17072,308,240,301,239 M,0,17072,17087,295,239,291,239 M,0,17087,17104,288,239,286,239 M,0,17104,17122,285,239,285,240 M,0,17137,17154,285,240,285,241 M,0,17154,17172,286,242,286,243 M,0,17172,17187,288,243,290,243 M,0,17187,17204,293,244,296,245 M,0,17204,17222,301,245,307,246 M,0,17222,17237,312,247,318,247 M,0,17237,17254,324,248,330,248 M,0,17254,17272,335,249,341,249 M,0,17272,17287,344,249,345,249 M,0,17320,17336,342,249,337,248 M,0,17336,17353,331,247,323,245 M,0,17353,17369,315,243,306,241 M,0,17369,17385,296,241,288,241 M,0,17385,17403,277,241,270,241 M,0,17403,17419,263,241,259,241 M,0,17419,17435,255,242,254,242 M,0,17435,17679,253,242,256,243 M,0,17679,17695,261,246,269,249 M,0,17695,17712,278,249,287,251 M,0,17712,17728,298,251,306,251 M,0,17728,17746,316,251,322,251 M,0,17746,17762,327,249,329,247 M,0,17762,17779,332,245,333,243 M,0,17779,17795,334,240,334,237 M,0,17795,17812,334,234,334,231 M,0,17812,17829,333,228,333,227 M,0,17878,17894,333,229,333,233 M,0,17894,17912,335,236,335,240 M,0,17912,17928,335,243,336,249 M,0,17928,17944,337,253,337,257 M,0,17944,17961,338,260,338,262 M,0,17961,17977,338,263 M,0,18027,18045,335,259,330,254 M,0,18045,18061,325,249,320,245 M,0,18061,18078,312,239,305,234 M,0,18078,18095,296,228,288,222 M,0,18095,18112,281,218,277,216 M,0,18112,18129,272,214,271,212 M,0,18129,18194,270,212,270,214 M,0,18194,18212,271,219,271,223 M,0,18212,18228,271,228,271,233 M,0,18228,18245,271,240,271,245 M,0,18245,18262,271,251,271,255 M,0,18262,18279,271,260,271,263 M,0,18279,18295,271,267,271,269 M,0,18295,18311,271,269,270,269 M,0,18512,18527,271,266,275,261 M,0,18527,18545,281,253,286,247 M,0,18545,18561,291,241,296,236 M,0,18561,18576,302,229,308,223 M,0,18576,18594,315,219,320,216 M,0,18594,18610,322,216,323,216 M,0,18627,18643,323,216,323,217 M,0,18643,18661,324,220,324,223 M,0,18661,18676,324,225,324,228 M,0,18676,18694,323,231,323,235 M,0,18694,18710,321,240,321,243 M,0,18710,18728,318,249,316,253 M,0,18728,18744,316,257,314,259 M,0,18744,18762,312,261,311,261 M,0,18762,18778,310,261,308,261 M,0,18778,18795,306,258,302,254 M,0,18795,18811,298,251,292,247 M,0,18811,18828,285,243,279,239 M,0,18828,18844,271,234,264,230 M,0,18844,18862,257,226,251,224 M,0,18862,18878,247,221,244,220 M,0,18878,18928,242,220,242,221 M,0,18928,18944,243,224,244,228 M,0,18944,18962,246,233,246,237 M,0,18962,18978,247,241,248,245 M,0,18978,18994,249,249,250,253 M,0,18994,19011,250,259,251,261 M,0,19011,19028,251,265,251,266 M,0,19028,19045,251,267,252,268 M,0,19086,19103,253,268,256,264 M,0,19103,19121,259,260,265,255 M,0,19121,19136,269,251,275,245 M,0,19136,19154,281,241,288,235 M,0,19154,19169,295,229,301,224 M,0,19169,19186,307,220,311,218 M,0,19186,19203,313,217,314,217 M,0,19261,19277,314,222,314,226 M,0,19277,19294,314,232,314,237 M,0,19294,19311,314,242,312,247 M,0,19311,19327,311,251,309,255 M,0,19327,19344,307,258,306,259 M,0,19344,19361,304,260,302,261 M,0,19361,19378,302,261,301,261 M,0,19378,19394,300,261,299,261 M,0,19394,19412,296,258,291,254 M,0,19412,19428,286,249,279,244 M,0,19428,19445,273,239,265,234 M,0,19445,19461,259,230,253,228 M,0,19461,19477,248,225,246,224 M,0,19477,19561,244,223,246,224 M,0,19561,19577,251,228,254,230 M,0,19577,19595,261,232,268,234 M,0,19595,19612,275,236,283,237 M,0,19612,19627,291,237,298,237 M,0,19627,19644,305,237,310,237 M,0,19644,19662,316,238,318,239 M,0,19662,19678,320,240,321,240 M,0,19678,19694,322,242,323,244 M,0,19694,19712,323,247,323,249 M,0,19712,19729,323,252,323,255 M,0,19729,19745,321,257,321,260 M,0,19745,19762,320,263,320,264 M,0,19762,19778,319,265 M,0,19794,19812,318,262,317,257 M,0,19812,19827,315,251,314,245 M,0,19827,19844,312,240,309,234 M,0,19844,19860,306,228,304,224 M,0,19860,19877,301,218,300,214 M,0,19877,19894,298,211,298,210 M,0,19894,19911,298,210,298,209 M,0,19944,19962,298,211,300,216 M,0,19962,19979,304,221,306,226 M,0,19979,19995,308,231,310,236 M,0,19995,20011,313,241,314,245 M,0,20011,20027,316,250,318,253 M,0,20027,20044,319,256,320,258 M,0,20044,20062,320,259,320,261 M,0,20062,20112,320,261,318,260 M,0,20112,20128,314,255,310,251 M,0,20128,20145,304,245,298,239 M,0,20145,20161,293,234,289,230 M,0,20161,20177,285,226,283,223 M,0,20177,20194,281,221,279,220 M,0,20194,20245,279,220,282,221 M,0,20245,20262,286,224,289,228 M,0,20262,20277,292,234,296,237 M,0,20277,20294,299,242,302,245 M,0,20294,20312,304,249,305,253 M,0,20312,20328,306,254,306,256 M,0,20328,20386,306,257,304,255 M,0,20386,20403,301,253,296,249 M,0,20403,20419,291,247,284,242 M,0,20419,20435,277,238,269,234 M,0,20435,20453,262,230,253,227 M,0,20453,20469,249,226,242,224 M,0,20469,20485,238,224,233,224 M,0,20485,20502,231,224,230,224 M,0,20502,20603,228,224,231,224 M,0,20603,20619,234,224,240,222 M,0,20619,20635,247,222,254,222 M,0,20635,20652,263,222,273,225 M,0,20652,20669,280,228,286,230 M,0,20669,20686,292,234,296,237 M,0,20686,20702,298,240,300,242 M,0,20702,20719,301,245,302,246 M,0,20719,20735,302,247 M,0,20794,20811,302,246,302,243 M,0,20811,20827,302,240,302,235 M,0,20827,20844,304,230,306,224 M,0,20844,20861,310,218,312,212 M,0,20861,20876,316,207,320,203 M,0,20876,20894,323,199,327,197 M,0,20894,20912,329,195,330,195 M,0,20927,20944,331,197,333,203 M,0,20944,20960,335,208,336,213 M,0,20960,20977,337,219,339,226 M,0,20977,20994,339,231,340,236 M,0,20994,21011,340,241,340,244 M,0,21011,21086,340,245,338,241 M,0,21086,21103,336,237,333,231 M,0,21103,21119,332,226,329,220 M,0,21119,21135,327,214,324,209 M,0,21135,21153,322,205,320,202 M,0,21153,21169,318,200,316,199 M,0,21169,21194,316,199,315,199 M,0,21194,21210,313,199,310,201 M,0,21210,21228,307,204,304,208 M,0,21228,21244,300,212,296,217 M,0,21244,21262,292,223,288,228 M,0,21262,21278,284,232,282,237 M,0,21278,21294,280,241,278,244 M,0,21294,21312,277,247,277,248 M,0,21312,21502,276,248,276,247 M,0,21502,21519,277,241,278,238 M,0,21519,21535,279,233,280,230 M,0,21535,21552,281,226,282,224 M,0,21552,21569,283,221,284,218 M,0,21569,21586,285,215,288,211 M,0,21586,21603,290,207,294,203 M,0,21603,21619,298,199,300,196 M,0,21619,21635,304,193,307,191 M,0,21635,21702,309,191,311,192 M,0,21702,21719,314,199,316,206 M,0,21719,21735,319,216,321,224 M,0,21735,21752,325,235,326,243 M,0,21752,21769,329,250,330,255 M,0,21769,21811,331,257,331,256 M,0,21811,21827,329,251,327,248 M,0,21827,21845,324,244,321,240 M,0,21845,21861,316,235,312,230 M,0,21861,21876,306,224,302,219 M,0,21876,21894,296,214,292,210 M,0,21894,21911,288,207,285,206 M,0,21911,21926,283,204,282,204 M,0,21961,21978,282,206,282,212 M,0,21978,21994,282,214,281,220 M,0,21994,22011,281,227,279,232 M,0,22011,22027,278,238,275,245 M,0,22027,22044,274,249,273,253 M,0,22044,22061,272,255,271,257 M,0,22127,22144,271,253,269,249 M,0,22144,22161,268,242,267,238 M,0,22161,22178,267,232,267,228 M,0,22178,22194,267,224,267,222 M,0,22194,22211,267,218,267,217 M,0,22211,22235,267,216,267,215 M,0,22253,22269,267,214 M,0,22269,22285,267,212,267,208 M,0,22285,22303,267,206,267,205 M,0,22303,22377,267,204,268,204 M,0,22377,22394,269,206,271,212 M,0,22394,22411,273,218,273,227 M,0,22411,22427,273,234,273,240 M,0,22427,22444,273,247,273,252 M,0,22444,22461,273,255 M,0,22544,22561,273,255,273,253 M,0,22561,22577,273,250,274,247 M,0,22577,22594,275,241,278,237 M,0,22594,22611,281,231,283,228 M,0,22611,22627,286,224,290,222 M,0,22627,22644,293,219,297,217 M,0,22644,22661,300,216,304,214 M,0,22661,22676,308,214,311,214 M,0,22676,22694,314,214,317,215 M,0,22694,22711,321,217,323,222 M,0,22711,22726,326,226,329,232 M,0,22726,22744,331,238,333,242 M,0,22744,22761,334,245,335,247 M,0,22761,22777,335,248,335,249 M,0,22827,22843,335,248,332,245 M,0,22843,22860,329,240,327,236 M,0,22860,22876,322,230,318,223 M,0,22876,22894,312,215,308,210 M,0,22894,22910,302,204,300,201 M,0,22910,22927,296,199,293,197 M,0,22927,22943,291,196,290,195 M,0,22943,22994,289,195,288,200 M,0,22994,23011,286,206,285,212 M,0,23011,23027,283,220,279,227 M,0,23027,23044,277,234,273,241 M,0,23044,23061,271,246,269,250 M,0,23061,23077,269,253,268,253 M,0,23161,23177,268,250,269,245 M,0,23177,23193,271,239,273,234 M,0,23193,23210,275,228,276,223 M,0,23210,23227,278,217,279,212 M,0,23227,23244,281,208,283,204 M,0,23244,23260,284,202,285,201 M,0,23260,23277,286,199,287,199 M,0,23277,23303,288,199 M,0,23303,23320,291,201,293,205 M,0,23320,23336,296,210,298,214 M,0,23336,23353,301,219,304,224 M,0,23353,23370,307,230,310,238 M,0,23370,23386,312,243,314,249 M,0,23386,23402,316,253,317,257 M,0,23402,23419,318,259,318,261 M,0,23469,23485,317,260,316,257 M,0,23485,23502,313,253,310,249 M,0,23502,23520,306,244,302,239 M,0,23520,23537,298,235,292,229 M,0,23537,23554,287,224,281,219 M,0,23554,23569,277,215,271,211 M,0,23569,23586,267,208,263,207 M,0,23586,23611,261,207,259,207 M,0,23611,23627,259,207,257,209 M,0,23627,23644,256,214,255,218 M,0,23644,23660,254,222,253,227 M,0,23660,23676,252,232,251,238 M,0,23676,23693,249,243,249,247 M,0,23693,23710,249,250,248,254 M,0,23710,23726,248,257,248,259 M,0,23726,23953,248,259,248,257 M,0,23953,23969,251,251,256,243 M,0,23969,23985,262,234,270,224 M,0,23985,24002,278,216,286,209 M,0,24002,24019,294,202,300,198 M,0,24019,24035,305,195,308,193 M,0,24035,24053,310,191,312,191 M,0,24210,24227,313,193,317,202 M,0,24227,24243,321,210,325,216 M,0,24243,24262,330,225,335,232 M,0,24262,24278,339,237,343,240 M,0,24278,24294,347,243,349,245 M,0,24302,24752,349,246,348,243 M,0,24752,24769,346,239,343,236 M,0,24769,24785,341,233,337,230 M,0,24785,24802,333,227,329,224 M,0,24802,24819,324,222,319,220 M,0,24819,24835,314,218,308,217 M,0,24835,24852,305,217,301,218 M,0,24852,24869,298,219,296,222 M,0,24869,24885,293,225,291,229 M,0,24885,24902,289,234,286,239 M,0,24902,24919,284,244,283,247 M,0,24919,24935,282,251,281,253 M,0,24935,24952,280,255,280,256 M,0,25003,25020,280,255,280,251 M,0,25020,25036,280,248,281,244 M,0,25036,25053,283,240,284,236 M,0,25053,25069,287,232,289,230 M,0,25069,25086,292,226,295,223 M,0,25086,25103,297,221,301,219 M,0,25103,25119,304,218,306,218 M,0,25119,25136,310,218,313,218 M,0,25136,25152,316,220,320,225 M,0,25152,25169,323,230,328,236 M,0,25169,25186,331,241,335,245 M,0,25186,25202,337,249,340,251 M,0,25202,25219,342,254,343,255 M,0,25219,25303,343,256,343,254 M,0,25303,25319,341,251,339,247 M,0,25319,25335,335,243,331,240 M,0,25335,25353,327,236,321,232 M,0,25353,25369,316,229,310,226 M,0,25369,25385,305,225,302,224 M,0,25385,25403,299,224,296,224 M,0,25403,25419,294,226,292,228 M,0,25419,25436,290,232,288,236 M,0,25436,25453,286,240,283,245 M,0,25453,25469,281,249,280,253 M,0,25469,25486,278,255,277,258 M,0,25486,25503,277,259,276,261 M,0,25503,25594,276,261,277,259 M,0,25594,25611,278,254,280,250 M,0,25611,25627,281,247,284,242 M,0,25627,25644,286,237,288,232 M,0,25644,25661,292,228,296,223 M,0,25661,25677,300,220,304,218 M,0,25677,25694,309,216,312,215 M,0,25694,25711,315,215,317,215 M,0,25711,25727,318,215,320,216 M,0,25727,25744,321,218,323,221 M,0,25744,25761,325,224,326,229 M,0,25761,25777,328,235,330,240 M,0,25777,25794,332,246,333,251 M,0,25794,25812,334,255,335,257 M,0,25812,25878,335,259,335,255 M,0,25878,25894,333,252,331,249 M,0,25894,25911,329,244,326,240 M,0,25911,25927,321,235,318,230 M,0,25927,25944,314,226,311,224 M,0,25944,25961,308,222,306,222 M,0,25961,25977,304,221,302,221 M,0,25986,26002,301,223,299,226 M,0,26002,26019,298,230,296,234 M,0,26019,26036,294,239,292,244 M,0,26036,26052,290,249,288,254 M,0,26052,26069,286,259,284,263 M,0,26069,26086,284,267,283,268 M,0,26127,26144,283,267,284,264 M,0,26144,26162,284,261,286,258 M,0,26162,26177,287,254,289,250 M,0,26177,26193,291,243,294,239 M,0,26193,26212,298,233,301,227 M,0,26212,26227,304,222,308,218 M,0,26227,26244,310,216,314,214 M,0,26244,26261,316,214,316,213 M,0,26261,26278,318,213,318,212 M,0,26287,26312,319,212,320,213 M,0,26312,26327,322,215,323,217 M,0,26327,26344,325,220,327,222 M,0,26344,26361,331,227,333,232 M,0,26361,26378,337,237,341,242 M,0,26378,26395,343,247,346,252 M,0,26395,26412,348,256,349,259 M,0,26412,26477,350,261,348,259 M,0,26477,26494,344,256,340,253 M,0,26494,26512,334,248,329,244 M,0,26512,26528,323,241,317,238 M,0,26528,26545,312,236,306,233 M,0,26545,26562,300,231,293,229 M,0,26562,26577,287,228,281,228 M,0,26577,26594,275,227,270,227 M,0,26594,26612,267,227,264,227 M,0,26612,26627,263,228,261,228 M,0,26627,26644,261,230,260,233 M,0,26644,26661,259,236,257,242 M,0,26661,26678,255,249,251,255 M,0,26678,26694,248,261,245,267 M,0,26694,26711,242,271,239,274 M,0,26711,26727,237,276,236,276 M,0,26827,26844,238,272,240,267 M,0,26844,26862,244,260,249,251 M,0,26862,26877,252,245,256,238 M,0,26877,26893,261,232,265,227 M,0,26893,26911,270,223,275,220 M,0,26911,26929,279,219,282,219 M,0,26929,26945,283,219,284,219 M,0,26945,26962,285,220,286,224 M,0,26962,26979,287,227,288,231 M,0,26979,26995,288,235,288,240 M,0,26995,27012,288,245,288,251 M,0,27012,27028,288,258,287,263 M,0,27028,27043,286,269,286,271 M,0,27043,27061,286,275,286,276 M,0,27094,27111,285,276,283,273 M,0,27111,27128,279,268,275,265 M,0,27128,27144,271,261,267,258 M,0,27144,27161,261,254,256,251 M,0,27161,27177,250,247,246,244 M,0,27177,27193,243,243,242,242 M,0,27227,27244,244,242,248,244 M,0,27244,27262,253,247,259,250 M,0,27262,27277,266,252,273,254 M,0,27277,27294,283,257,288,258 M,0,27294,27312,296,259,300,260 M,0,27312,27327,302,261,303,261 M,0,27369,27386,301,261,297,261 M,0,27386,27402,293,260,288,260 M,0,27402,27419,284,260,279,260 M,0,27419,27436,273,260,269,261 M,0,27436,27452,265,263,262,263 M,0,27452,27469,261,265,259,265 M,0,27511,27528,259,260,260,255 M,0,27528,27545,262,249,263,246 M,0,27545,27562,265,241,267,236 M,0,27562,27577,270,232,273,228 M,0,27577,27594,276,224,280,220 M,0,27594,27611,283,219,285,218 M,0,27611,27627,287,218,288,218 M,0,27627,27644,290,218,291,219 M,0,27644,27662,293,222,296,226 M,0,27662,27678,298,230,300,234 M,0,27678,27695,302,240,304,245 M,0,27695,27712,306,250,308,255 M,0,27712,27727,310,259,312,264 M,0,27727,27743,314,267,315,269 M,0,27743,27802,316,271,314,270 M,0,27802,27819,312,267,308,264 M,0,27819,27836,304,261,298,257 M,0,27836,27852,291,253,284,249 M,0,27852,27869,277,245,268,240 M,0,27869,27886,260,236,255,233 M,0,27886,27902,250,232,248,231 M,0,27902,27944,247,231,247,232 M,0,27944,27961,248,237,249,241 M,0,27961,27977,249,245,249,248 M,0,27977,27993,249,251,249,255 M,0,27993,28011,248,258,248,261 M,0,28011,28068,248,264,251,259 M,0,28068,28085,254,254,257,249 M,0,28085,28102,261,243,265,239 M,0,28102,28118,273,232,277,229 M,0,28118,28135,284,224,289,222 M,0,28135,28152,295,218,298,217 M,0,28152,28168,302,216,304,216 M,0,28168,28243,305,215,306,218 M,0,28243,28261,306,224,306,230 M,0,28261,28277,307,237,308,247 M,0,28277,28294,310,253,311,261 M,0,28294,28312,312,266,312,272 M,0,28312,28327,312,275,313,277 M,0,28327,28385,313,279,311,276 M,0,28385,28402,309,271,306,267 M,0,28402,28418,304,263,301,259 M,0,28418,28435,298,255,295,251 M,0,28435,28452,292,247,290,244 M,0,28452,28469,288,241,287,237 M,0,28469,28485,284,232,283,228 M,0,28485,28502,281,224,281,220 M,0,28502,28518,280,217,280,215 M,0,28518,28635,280,214,280,216 M,0,28635,28652,281,220,281,222 M,0,28652,28669,281,222,282,223 M,0,28669,28685,282,224 M,0,28685,28702,283,224,283,225 M,0,28702,28819,283,226 M,0,28819,28835,286,229,288,231 M,0,28835,28852,294,235,298,238 M,0,28852,28869,304,241,312,246 M,0,28869,28885,319,249,325,253 M,0,28885,28902,332,257,337,261 M,0,28902,28920,341,263,344,266 M,0,28920,28971,345,267,345,263 M,0,28971,28986,343,259,340,252 M,0,28986,29003,337,245,331,240 M,0,29003,29020,325,232,320,226 M,0,29020,29036,314,223,308,220 M,0,29036,29053,306,220,304,220 M,0,29053,29070,304,220,303,220 M,0,29070,29086,302,221,300,226 M,0,29086,29102,299,229,297,234 M,0,29102,29121,295,239,292,245 M,0,29121,29137,288,250,285,255 M,0,29137,29153,282,259,279,261 M,0,29153,29170,277,261,276,262 M,0,29170,29186,275,262,274,262 M,0,29186,29203,273,262,272,261 M,0,29203,29219,271,259,271,257 M,0,29219,29236,269,254,268,252 M,0,29236,29252,267,249,267,246 M,0,29252,29269,267,243,267,238 M,0,29269,29286,267,236,268,232 M,0,29286,29302,269,231,270,230 M,0,29311,29327,271,230,272,230 M,0,29327,29344,273,230,274,230 M,0,29344,29369,275,230 M,0,29369,29386,276,230,277,232 M,0,29386,29403,279,237,281,241 M,0,29403,29418,282,245,283,249 M,0,29418,29435,284,255,286,259 M,0,29435,29452,288,263,290,265 M,0,29452,29511,290,265,291,264 M,0,29511,29528,294,259,298,256 M,0,29528,29545,302,253,307,249 M,0,29545,29562,313,246,319,243 M,0,29562,29578,325,240,331,239 M,0,29578,29594,336,237,339,237 M,0,29594,29612,341,237,342,237 M,0,29612,29629,343,237,344,238 M,0,29629,29645,345,239,345,241 M,0,29645,29662,346,243,347,245 M,0,29662,29678,347,247,347,250 M,0,29678,29694,347,253,347,255 M,0,29694,29712,347,258,347,261 M,0,29712,29727,346,262,345,263 M,0,29744,29761,343,263,339,261 M,0,29761,29778,331,256,324,253 M,0,29778,29795,315,248,306,245 M,0,29795,29812,297,240,288,237 M,0,29812,29827,279,234,274,232 M,0,29827,29844,270,231,269,230 M,0,29877,29893,270,235,272,240 M,0,29893,29911,274,245,276,249 M,0,29911,29928,277,255,279,260 M,0,29928,29944,281,265,281,270 M,0,29944,29962,282,274,283,277 M,0,29962,30027,283,280,283,279 M,0,30027,30043,282,276,281,273 M,0,30043,30061,281,271,281,267 M,0,30061,30077,280,263,280,258 M,0,30077,30093,280,253,280,247 M,0,30093,30111,281,240,283,236 M,0,30111,30127,285,230,287,226 M,0,30127,30144,288,224,291,222 M,0,30144,30161,293,222,295,222 M,0,30161,30177,297,222,300,222 M,0,30177,30194,302,222,305,224 M,0,30194,30211,308,226,312,230 M,0,30211,30227,315,234,319,240 M,0,30227,30243,321,245,325,251 M,0,30243,30261,329,257,331,263 M,0,30261,30278,333,269,335,273 M,0,30278,30294,337,277,338,280 M,0,30294,30312,339,282,339,284 M,0,30354,30370,339,280,337,276 M,0,30370,30386,335,272,333,267 M,0,30386,30403,331,262,330,257 M,0,30403,30421,329,251,327,245 M,0,30421,30436,327,239,327,233 M,0,30436,30453,328,228,329,226 M,0,30453,30470,330,224,331,223 M,0,30503,30520,331,223,335,224 M,0,30520,30535,338,229,343,236 M,0,30535,30553,347,243,351,249 M,0,30553,30571,353,256,356,263 M,0,30571,30586,358,267,360,272 M,0,30586,30603,360,274,360,275 M,0,30653,30670,359,275,355,274 M,0,30670,30685,349,271,342,267 M,0,30685,30703,332,263,321,258 M,0,30703,30721,312,254,299,249 M,0,30721,30736,290,247,281,244 M,0,30736,30753,275,243,270,243 M,0,30753,30803,267,242,268,242 M,0,30803,30820,271,242,274,241 M,0,30820,30835,279,240,284,238 M,0,30835,30853,290,236,298,234 M,0,30853,30871,304,234,313,232 M,0,30871,30887,318,231,325,230 M,0,30887,30903,328,230,333,229 M,0,30903,30921,333,229,334,229 M,0,31135,31152,335,232,337,239 M,0,31152,31169,340,246,341,253 M,0,31169,31185,344,261,346,268 M,0,31185,31202,348,273,349,277 M,0,31202,31235,350,278,350,277 M,0,31235,31252,348,271,345,266 M,0,31252,31271,343,261,341,257 M,0,31271,31286,338,253,335,250 M,0,31286,31303,334,247,333,247 M,0,31370,31385,333,247,332,244 M,0,31385,31403,330,241,327,237 M,0,31403,31421,325,234,322,229 M,0,31421,31436,319,226,316,221 M,0,31436,31453,311,217,308,214 M,0,31453,31471,306,214,305,214 M,0,31471,31486,304,214,302,214 M,0,31486,31504,300,217,299,222 M,0,31504,31521,297,226,295,231 M,0,31521,31537,293,236,292,241 M,0,31537,31554,290,247,289,252 M,0,31554,31570,288,255,287,258 M,0,31570,31628,287,259,287,257 M,0,31628,31645,288,251,291,245 M,0,31645,31662,295,240,299,235 M,0,31662,31679,304,231,311,228 M,0,31679,31695,317,226,323,224 M,0,31695,31712,328,223,333,223 M,0,31712,31729,337,223,341,223 M,0,31729,31745,344,223,346,224 M,0,31745,31762,349,228,351,232 M,0,31762,31779,355,240,358,247 M,0,31779,31795,361,255,364,262 M,0,31795,31813,366,268,368,272 M,0,31813,31828,369,274,370,275 M,0,31877,31894,369,273,368,272 M,0,31894,31911,365,270,362,267 M,0,31911,31928,356,265,349,262 M,0,31928,31945,341,258,330,255 M,0,31945,31962,320,252,310,250 M,0,31962,31979,298,247,289,245 M,0,31979,31995,282,243,275,241 M,0,31995,32013,271,240,269,240 M,0,32061,32078,271,240,274,241 M,0,32078,32094,277,243,281,245 M,0,32094,32112,286,249,292,252 M,0,32112,32128,298,256,302,260 M,0,32128,32145,308,263,314,267 M,0,32145,32161,318,270,321,271 M,0,32161,32177,323,272,325,272 M,0,32177,32194,325,271,326,265 M,0,32194,32211,327,260,327,255 M,0,32211,32228,327,247,327,240 M,0,32228,32245,325,234,324,226 M,0,32245,32262,323,220,322,214 M,0,32262,32279,321,208,321,206 M,0,32494,32511,322,206,325,212 M,0,32511,32528,329,216,331,223 M,0,32528,32545,333,230,336,238 M,0,32545,32562,338,244,339,250 M,0,32562,32577,339,256,339,261 M,0,32577,32594,339,264,339,266 M,0,32612,32627,339,266,337,266 M,0,32627,32643,335,263,332,259 M,0,32643,32661,328,255,324,249 M,0,32661,32678,320,244,314,238 M,0,32678,32695,307,230,301,224 M,0,32695,32712,296,219,292,216 M,0,32712,32729,289,214,288,214 M,0,32770,32785,288,215,288,220 M,0,32785,32803,288,226,290,232 M,0,32803,32821,291,238,292,245 M,0,32821,32836,294,252,295,258 M,0,32836,32853,296,265,296,270 M,0,32853,32871,296,273,297,277 M,0,32871,32887,297,280,297,281 M,0,32921,32937,297,280,298,276 M,0,32937,32954,299,273,301,268 M,0,32954,32972,303,265,305,259 M,0,32972,32987,308,255,311,251 M,0,32987,33004,314,247,316,242 M,0,33004,33020,319,238,321,234 M,0,33020,33036,323,232,324,231 M,0,33036,33053,325,230 M,0,33061,33077,326,230,327,233 M,0,33077,33093,329,237,331,241 M,0,33093,33111,333,246,334,249 M,0,33111,33128,336,254,337,258 M,0,33128,33145,339,263,339,267 M,0,33145,33163,340,269,341,271 M,0,33163,33179,341,272,341,273 M,0,33220,33237,340,268,338,263 M,0,33237,33254,336,258,332,249 M,0,33254,33271,329,245,325,239 M,0,33271,33288,321,232,316,227 M,0,33288,33304,314,224,310,221 M,0,33304,33319,308,218,305,216 M,0,33319,33337,304,215,302,215 M,0,33362,33379,305,221,307,226 M,0,33379,33394,310,232,311,236 M,0,33394,33413,314,242,317,247 M,0,33413,33429,320,250,322,253 M,0,33429,33445,324,255,326,256 M,0,33445,33462,327,256,327,257 M,0,33462,33669,328,257,328,256 M,0,33669,33685,328,249,328,245 M,0,33685,33703,329,241,331,236 M,0,33703,33721,333,230,335,224 M,0,33721,33736,338,220,341,216 M,0,33736,33753,345,214,349,212 M,0,33753,33769,351,211,353,211 M,0,33769,33786,355,211,356,211 M,0,33786,33803,358,212,360,215 M,0,33803,33821,360,217,361,219 M,0,33821,33836,362,222,362,223 M,0,33836,33853,363,225,363,228 M,0,33853,33871,363,230,363,234 M,0,33871,33887,363,236,363,240 M,0,33887,33904,363,244,363,247 M,0,33904,33921,363,250,363,252 M,0,33921,33937,362,254,362,255 M,0,33937,33978,362,256,361,255 M,0,33978,33994,360,251,358,247 M,0,33994,34011,355,241,353,238 M,0,34011,34028,349,233,346,229 M,0,34028,34045,343,224,339,220 M,0,34045,34062,336,217,333,215 M,0,34062,34078,331,214,330,213 M,0,34078,34095,330,212,329,212 M,0,34120,34135,328,216,327,220 M,0,34135,34153,324,226,322,230 M,0,34153,34171,320,235,318,239 M,0,34171,34186,316,241,314,243 M,0,34186,34203,314,244,313,244 M,0,34261,34277,311,241,309,238 M,0,34277,34295,307,236,306,235 M,0,34295,34312,305,233,304,232 M,0,34312,34329,302,229,300,227 M,0,34329,34345,299,224,298,222 M,0,34345,34362,297,220,296,218 M,0,34362,34379,296,217,295,216 M,0,34420,34436,296,218,298,222 M,0,34436,34453,300,228,303,234 M,0,34453,34471,304,240,307,245 M,0,34471,34486,309,249,311,253 M,0,34486,34503,312,255,314,257 M,0,34562,34579,314,257,316,253 M,0,34579,34595,317,249,320,246 M,0,34595,34613,322,243,326,240 M,0,34613,34629,329,237,333,234 M,0,34629,34644,337,232,341,230 M,0,34644,34663,345,228,349,227 M,0,34663,34679,353,226,356,226 M,0,34679,34695,359,226,362,226 M,0,34695,34712,364,229,368,233 M,0,34712,34729,370,238,374,242 M,0,34729,34745,376,247,377,251 M,0,34745,34762,378,257,380,260 M,0,34762,34779,381,263,382,265 M,0,34779,34837,382,266,378,264 M,0,34837,34853,375,262,372,259 M,0,34853,34871,368,257,363,255 M,0,34871,34886,358,252,353,249 M,0,34886,34903,347,245,339,241 M,0,34903,34921,333,238,329,236 M,0,34921,34936,325,233,322,231 M,0,34936,34954,319,229,317,228 M,0,34954,34971,316,228,316,227 M,0,35037,35054,316,228,316,234 M,0,35054,35072,316,239,314,245 M,0,35072,35087,312,251,311,255 M,0,35087,35104,310,260,309,265 M,0,35104,35122,308,268,308,271 M,0,35122,35137,308,273 M,0,35187,35204,308,270,308,265 M,0,35204,35222,308,261,308,255 M,0,35222,35237,309,250,310,243 M,0,35237,35254,312,237,315,230 M,0,35254,35272,317,224,320,218 M,0,35272,35287,323,215,325,213 M,0,35287,35304,327,212,329,212 M,0,35304,35322,332,211,333,211 M,0,35322,35337,335,212,339,214 M,0,35337,35354,341,217,345,221 M,0,35354,35370,348,226,351,232 M,0,35370,35386,356,240,358,247 M,0,35386,35403,362,253,365,260 M,0,35403,35420,366,265,368,269 M,0,35420,35436,368,271,369,273 M,0,35486,35503,366,271,362,267 M,0,35503,35521,358,261,351,255 M,0,35521,35536,344,248,336,240 M,0,35536,35554,328,234,319,226 M,0,35554,35569,312,221,308,218 M,0,35569,35586,304,215,302,213 M,0,35586,35653,300,212,302,216 M,0,35653,35669,302,220,304,225 M,0,35669,35686,304,229,305,232 M,0,35686,35703,305,235,305,238 M,0,35703,35719,305,241,305,245 M,0,35719,35735,304,248,304,252 M,0,35735,35753,303,255,302,258 M,0,35753,35771,302,261,302,263 M,0,35771,35895,302,264,302,261 M,0,35895,35911,304,254,307,245 M,0,35911,35928,310,236,313,227 M,0,35928,35944,316,220,318,214 M,0,35944,35962,322,207,325,204 M,0,35962,35978,327,200,329,198 M,0,35978,35995,331,196,333,195 M,0,35995,36027,334,194,334,193 M,0,36153,36171,335,194,337,201 M,0,36171,36186,339,207,342,215 M,0,36186,36204,344,222,347,229 M,0,36204,36221,350,236,353,243 M,0,36221,36237,355,249,357,255 M,0,36237,36254,359,259,359,263 M,0,36254,36296,360,263,357,257 M,0,36296,36312,353,251,349,247 M,0,36312,36328,344,241,338,234 M,0,36328,36344,333,229,327,224 M,0,36344,36362,320,220,314,216 M,0,36362,36378,309,214,304,213 M,0,36378,36394,302,212,300,212 M,0,36419,36435,300,212,300,218 M,0,36435,36453,301,226,302,233 M,0,36453,36469,303,240,304,245 M,0,36469,36485,304,251,304,257 M,0,36485,36503,304,263,304,267 M,0,36503,36561,304,268,304,265 M,0,36561,36577,302,261,302,256 M,0,36577,36593,301,251,301,246 M,0,36593,36611,301,240,302,234 M,0,36611,36626,304,227,306,222 M,0,36626,36643,308,216,310,211 M,0,36643,36661,313,208,315,207 M,0,36661,36677,317,206,318,206 M,0,36677,36711,318,205 M,0,36711,36728,320,208,322,213 M,0,36728,36745,324,219,326,226 M,0,36745,36762,328,232,329,240 M,0,36762,36779,329,246,329,252 M,0,36779,36794,329,257,329,261 M,0,36794,36812,327,266,325,270 M,0,36812,36829,323,273,321,275 M,0,36829,36879,321,276,321,273 M,0,36879,36896,321,268,321,263 M,0,36896,36912,322,259,323,255 M,0,36912,36929,326,251,328,247 M,0,36929,36946,329,245,333,243 M,0,36946,36962,335,240,338,239 M,0,36962,36979,341,237,343,236 M,0,36979,36996,346,236,347,236 M,0,36996,37012,348,236,349,238 M,0,37012,37029,349,243,348,248 M,0,37029,37045,345,254,342,261 M,0,37045,37062,339,269,335,275 M,0,37062,37079,332,280,330,284 M,0,37079,37096,329,286 M,0,37172,37187,329,286,331,286 M,0,37196,37321,331,286,333,286 M,0,37321,37337,335,282,338,276 M,0,37337,37354,342,269,345,261 M,0,37354,37371,349,253,352,245 M,0,37371,37387,355,236,359,229 M,0,37387,37404,362,222,366,218 M,0,37404,37421,370,215,372,213 M,0,37421,37472,373,212,374,214 M,0,37472,37487,376,220,378,226 M,0,37487,37504,380,234,382,241 M,0,37504,37522,384,248,386,255 M,0,37522,37537,388,262,389,269 M,0,37537,37554,389,273,390,277 M,0,37554,37569,390,280,390,282 M,0,37569,37621,390,283,386,280 M,0,37621,37636,382,275,376,271 M,0,37636,37653,369,265,362,259 M,0,37653,37671,354,253,344,247 M,0,37671,37687,335,241,327,235 M,0,37687,37704,318,230,312,226 M,0,37704,37721,307,224,304,223 M,0,37754,37769,306,227,308,231 M,0,37769,37786,310,236,312,240 M,0,37786,37803,314,245,316,250 M,0,37803,37819,317,255,319,259 M,0,37819,37835,320,263,321,265 M,0,37835,37853,321,266,321,267 M,0,37886,37903,321,267,321,262 M,0,37903,37919,321,259,321,253 M,0,37919,37936,323,249,325,242 M,0,37936,37953,327,234,329,228 M,0,37953,37971,333,222,337,218 M,0,37971,37986,341,213,345,210 M,0,37986,38004,347,208,351,206 M,0,38004,38021,353,206,354,205 M,0,38021,38045,355,204 M,0,38045,38062,357,205,360,210 M,0,38062,38079,362,216,365,222 M,0,38079,38096,368,228,370,234 M,0,38096,38112,372,240,375,245 M,0,38112,38128,377,251,378,257 M,0,38128,38144,380,262,381,266 M,0,38144,38162,382,269,382,270 M,0,38195,38212,381,268,379,263 M,0,38212,38229,375,257,372,251 M,0,38229,38245,366,245,360,238 M,0,38245,38262,353,232,346,226 M,0,38262,38279,337,220,331,214 M,0,38279,38295,324,211,316,208 M,0,38295,38312,312,208,308,208 M,0,38312,38329,303,208,299,211 M,0,38329,38346,296,214,292,216 M,0,38346,38362,289,220,284,224 M,0,38362,38379,281,227,277,231 M,0,38379,38395,274,233,271,236 M,0,38395,38412,269,238,268,240 M,0,38412,38471,268,241,269,240 M,0,38471,38486,275,238,280,235 M,0,38486,38503,287,232,295,230 M,0,38503,38521,303,227,314,224 M,0,38521,38536,324,222,333,219 M,0,38536,38554,341,218,347,216 M,0,38554,38569,350,216,351,216 M,0,38621,38636,349,216,346,218 M,0,38636,38653,341,219,335,221 M,0,38653,38671,329,223,321,226 M,0,38671,38687,316,228,307,232 M,0,38687,38704,301,234,294,238 M,0,38704,38722,290,241,287,243 M,0,38722,38737,286,245,285,245 M,0,38787,38804,286,243,290,240 M,0,38804,38822,294,236,302,229 M,0,38822,38837,308,224,318,217 M,0,38837,38854,329,211,339,205 M,0,38854,38872,348,202,357,198 M,0,38872,38887,364,196,370,193 M,0,38887,38904,374,193,376,192 M,0,38953,38971,376,193,376,201 M,0,38971,38986,376,208,376,216 M,0,38986,39003,374,226,373,234 M,0,39003,39019,372,241,372,247 M,0,39019,39036,372,255,372,259 M,0,39036,39053,372,264,372,267 M,0,39053,39171,373,269,372,264 M,0,39171,39187,370,261,367,258 M,0,39187,39204,364,255,360,251 M,0,39204,39222,356,247,349,243 M,0,39222,39237,343,238,336,234 M,0,39237,39254,327,228,320,223 M,0,39254,39271,313,218,302,212 M,0,39271,39286,296,209,292,208 M,0,39286,39354,290,207,292,208 M,0,39354,39371,295,212,299,218 M,0,39371,39387,303,224,307,231 M,0,39387,39404,312,238,318,247 M,0,39404,39422,323,255,328,262 M,0,39422,39437,333,267,337,270 M,0,39437,39454,341,272,345,272 M,0,39454,39472,347,272,349,271 M,0,39472,39487,351,268,353,263 M,0,39487,39504,355,257,356,251 M,0,39504,39522,358,245,360,238 M,0,39522,39537,363,231,366,225 M,0,39537,39554,369,220,373,214 M,0,39554,39569,374,211,376,208 M,0,39569,39627,378,206,378,208 M,0,39627,39644,378,214,376,218 M,0,39644,39661,374,224,372,230 M,0,39661,39678,368,236,364,241 M,0,39678,39694,360,247,354,253 M,0,39694,39712,347,259,341,264 M,0,39712,39727,335,270,329,275 M,0,39727,39745,325,280,321,282 M,0,39745,39762,320,284 M,0,39769,39785,319,284,317,279 M,0,39785,39803,314,274,311,267 M,0,39803,39821,307,261,302,255 M,0,39821,39836,297,249,292,243 M,0,39836,39853,286,238,281,233 M,0,39853,39869,279,228,275,226 M,0,39869,39886,273,222,271,220 M,0,39886,39903,271,218,271,214 M,0,39903,39919,271,210,271,208 M,0,39919,39935,273,205,273,204 M,0,39935,39953,274,204,276,204 M,0,39953,39971,278,204,281,205 M,0,39971,39986,283,206,285,209 M,0,39986,40003,287,212,290,219 M,0,40003,40021,293,225,296,233 M,0,40021,40037,300,240,303,247 M,0,40037,40053,306,255,309,260 M,0,40053,40071,312,265,316,269 M,0,40071,40087,320,271,322,271 M,0,40087,40103,325,271,329,271 M,0,40103,40122,335,267,339,263 M,0,40122,40137,344,258,348,252 M,0,40137,40153,352,246,355,240 M,0,40153,40172,358,234,361,229 M,0,40172,40187,362,225,364,222 M,0,40244,40261,364,223,364,228 M,0,40261,40278,363,234,362,240 M,0,40278,40294,360,246,356,253 M,0,40294,40312,354,260,349,267 M,0,40312,40327,345,271,340,276 M,0,40327,40344,335,279,330,282 M,0,40344,40361,325,282,323,283 M,0,40361,40452,321,283,326,278 M,0,40452,40471,332,272,339,264 M,0,40471,40486,345,256,351,249 M,0,40486,40503,357,242,364,237 M,0,40503,40519,369,234,372,231 M,0,40519,40536,375,230,376,230 M,0,40577,40594,375,230,372,230 M,0,40594,40612,367,231,360,234 M,0,40612,40627,353,236,345,239 M,0,40627,40644,336,242,329,245 M,0,40644,40661,324,247,321,247 M,0,40661,40919,320,248,321,246 M,0,40919,40935,324,242,330,236 M,0,40935,40952,335,232,340,228 M,0,40952,40969,346,223,352,218 M,0,40969,40985,358,214,364,210 M,0,40985,41003,370,207,373,205 M,0,41003,41068,375,204,375,206 M,0,41068,41084,375,212,375,217 M,0,41084,41101,374,224,373,230 M,0,41101,41118,371,238,370,245 M,0,41118,41135,369,251,368,257 M,0,41135,41153,367,261,366,263 M,0,41185,41203,365,263,362,257 M,0,41203,41218,358,253,353,248 M,0,41218,41235,347,243,339,238 M,0,41235,41251,331,232,323,228 M,0,41251,41268,316,224,310,223 M,0,41268,41285,306,222,302,222 M,0,41285,41303,301,222,300,222 M,0,41343,41361,300,226,300,232 M,0,41361,41376,301,238,302,241 M,0,41376,41393,302,246,302,251 M,0,41393,41411,302,255,302,259 M,0,41411,41426,303,261,303,262 M,0,41469,41485,304,258,306,253 M,0,41485,41502,308,247,310,241 M,0,41502,41519,314,233,318,226 M,0,41519,41535,322,220,326,213 M,0,41535,41553,329,209,332,206 M,0,41553,41619,333,205,333,206 M,0,41619,41635,333,211,331,216 M,0,41635,41653,329,222,325,228 M,0,41653,41669,323,234,319,240 M,0,41669,41685,316,246,310,253 M,0,41685,41703,306,257,302,262 M,0,41703,41719,299,264,297,266 M,0,41719,41777,296,267,298,263 M,0,41777,41793,302,258,307,251 M,0,41793,41811,313,244,320,238 M,0,41811,41827,327,231,335,224 M,0,41827,41843,343,216,350,210 M,0,41843,41861,357,205,362,201 M,0,41861,41877,368,199,370,199 M,0,42068,42085,370,201,372,209 M,0,42085,42103,373,216,374,224 M,0,42103,42119,376,231,376,237 M,0,42119,42135,377,243,378,247 M,0,42135,42153,378,249,378,251 M,0,42159,42217,378,251,378,250 M,0,42217,42234,374,245,370,240 M,0,42234,42252,368,235,364,228 M,0,42252,42267,362,222,358,217 M,0,42267,42284,354,210,352,205 M,0,42284,42302,349,201,347,196 M,0,42302,42318,346,193,345,191 M,0,42318,42385,345,190 M,0,42385,42402,343,193,342,198 M,0,42402,42418,340,203,337,211 M,0,42418,42434,335,217,332,226 M,0,42434,42452,329,234,327,241 M,0,42452,42468,325,247,323,254 M,0,42468,42485,321,259,321,263 M,0,42485,42535,321,264,320,261 M,0,42535,42552,320,257,320,251 M,0,42552,42568,320,247,320,241 M,0,42568,42585,320,236,320,230 M,0,42585,42603,321,224,323,218 M,0,42603,42619,325,212,327,208 M,0,42619,42635,329,204,331,202 M,0,42635,42693,331,201,333,207 M,0,42693,42711,336,216,337,224 M,0,42711,42727,339,232,342,240 M,0,42727,42743,345,249,347,256 M,0,42743,42761,350,264,352,271 M,0,42761,42777,353,276,354,282 M,0,42777,42793,355,284,355,286 M,0,42826,42843,355,284,355,280 M,0,42843,42860,355,276,355,273 M,0,42860,42876,356,269,356,265 M,0,42876,42893,358,260,360,256 M,0,42893,42911,362,250,366,245 M,0,42911,42926,371,240,376,234 M,0,42926,42944,382,230,388,228 M,0,42944,42961,393,226,396,226 M,0,42961,42976,399,226,402,226 M,0,42976,42993,403,228,405,231 M,0,42993,43011,407,236,409,241 M,0,43011,43027,410,247,411,253 M,0,43027,43043,411,258,411,263 M,0,43043,43061,411,267,411,271 M,0,43061,43077,411,273,411,275 M,0,43077,43285,411,275,410,273 M,0,43285,43302,408,268,405,263 M,0,43302,43318,403,258,397,251 M,0,43318,43335,392,244,385,239 M,0,43335,43352,378,234,370,229 M,0,43352,43368,364,226,358,223 M,0,43368,43385,353,220,349,218 M,0,43385,43402,346,217,345,217 M,0,43402,43418,344,217,343,217 M,0,43418,43435,342,220,341,224 M,0,43435,43453,340,230,339,236 M,0,43453,43469,338,241,337,248 M,0,43469,43485,336,255,334,261 M,0,43485,43503,333,267,331,274 M,0,43503,43519,330,278,329,282 M,0,43519,43535,329,284,328,285 M,0,43568,43585,327,284,326,279 M,0,43585,43602,324,273,322,266 M,0,43602,43618,321,259,318,251 M,0,43618,43635,316,242,314,234 M,0,43635,43652,312,228,310,220 M,0,43652,43669,308,211,307,208 M,0,43669,43685,306,204,305,201 M,0,43685,43744,304,199,304,205 M,0,43744,43760,304,210,303,216 M,0,43760,43777,302,224,300,232 M,0,43777,43794,297,241,295,249 M,0,43794,43809,291,259,288,267 M,0,43809,43826,284,274,281,280 M,0,43826,43843,279,284,277,286 M,0,43843,43885,277,287,276,286 M,0,43885,43903,275,282,274,277 M,0,43903,43919,273,271,272,266 M,0,43919,43935,271,259,271,251 M,0,43935,43953,269,244,268,236 M,0,43953,43969,268,229,268,222 M,0,43969,43985,269,217,269,214 M,0,43985,44035,270,213,271,213 M,0,44035,44053,273,216,277,224 M,0,44053,44069,281,231,286,238 M,0,44069,44084,291,247,296,255 M,0,44084,44102,303,264,309,271 M,0,44102,44119,315,277,321,281 M,0,44119,44135,325,284,330,286 M,0,44135,44194,332,286,329,285 M,0,44194,44212,327,283,323,281 M,0,44212,44227,320,280,314,278 M,0,44227,44244,309,277,304,276 M,0,44244,44261,299,276,295,276 M,0,44261,44276,292,276,290,276 M,0,44276,44353,288,276,290,274 M,0,44353,44368,292,271,296,267 M,0,44368,44384,302,263,307,259 M,0,44384,44402,313,256,320,252 M,0,44402,44418,326,249,330,245 M,0,44418,44435,333,243,334,243 M,0,44435,44509,335,242,335,243 M,0,44509,44526,333,247,329,251 M,0,44526,44543,325,257,320,262 M,0,44543,44561,314,267,308,274 M,0,44561,44576,300,280,294,283 M,0,44576,44593,288,288,285,289 M,0,44593,44611,282,290,280,290 M,0,44611,44626,278,290,277,288 M,0,44626,44643,275,284,273,280 M,0,44643,44661,271,275,269,269 M,0,44661,44677,267,265,265,259 M,0,44677,44694,263,251,261,246 M,0,44694,44709,261,241,261,237 M,0,44709,44726,263,234,265,233 M,0,44726,44743,267,233,269,232 M,0,44743,44760,270,233,273,235 M,0,44760,44777,277,238,280,241 M,0,44777,44793,284,247,288,251 M,0,44793,44809,292,257,297,264 M,0,44809,44826,302,271,306,276 M,0,44826,44843,310,282,312,287 M,0,44843,44861,314,290,315,292 M,0,44861,44926,315,292,315,289 M,0,44926,44944,315,285,315,280 M,0,44944,44961,315,275,316,268 M,0,44961,44977,318,261,320,254 M,0,44977,44994,322,247,325,241 M,0,44994,45009,328,234,331,231 M,0,45009,45026,333,228,335,228 M,0,45026,45109,335,227,335,228 M,0,45109,45125,333,233,331,238 M,0,45125,45143,327,245,323,251 M,0,45143,45159,318,258,313,263 M,0,45159,45175,308,268,302,273 M,0,45175,45192,298,277,294,280 M,0,45192,45211,291,282,289,284 M,0,45211,45261,288,284,288,282 M,0,45261,45277,289,276,292,269 M,0,45277,45293,294,264,297,259 M,0,45293,45311,300,253,304,249 M,0,45311,45326,306,245,309,243 M,0,45326,45343,312,241,314,240 M,0,45343,45360,316,240,317,239 M,0,45402,45419,317,240,316,245 M,0,45419,45435,314,249,312,255 M,0,45435,45452,310,259,308,263 M,0,45452,45468,305,267,302,271 M,0,45468,45485,300,274,296,277 M,0,45485,45501,293,280,292,281 M,0,45501,45518,290,282,290,283 M,0,45719,45734,290,282,294,275 M,0,45734,45752,301,265,307,255 M,0,45752,45769,316,243,325,234 M,0,45769,45786,335,226,345,218 M,0,45786,45802,355,212,363,209 M,0,45802,45819,371,207,376,207 M,0,45819,45836,380,207,384,208 M,0,45836,45852,386,210,388,214 M,0,45852,45869,389,218,391,224 M,0,45869,45886,392,230,393,236 M,0,45886,45902,395,242,396,248 M,0,45902,45919,397,255,398,260 M,0,45919,45936,399,265,399,269 M,0,45936,45952,399,271,399,272 M,0,45985,46001,396,271,393,265 M,0,46001,46018,388,259,384,254 M,0,46018,46035,379,247,372,241 M,0,46035,46052,366,235,358,229 M,0,46052,46069,351,222,343,217 M,0,46069,46085,337,214,331,211 M,0,46085,46102,327,210,325,210 M,0,46102,46127,325,210 M,0,46127,46144,324,214,323,218 M,0,46144,46161,323,223,322,228 M,0,46161,46177,320,234,318,241 M,0,46177,46194,316,249,314,256 M,0,46194,46211,312,261,308,267 M,0,46211,46227,306,272,304,275 M,0,46227,46244,303,276,302,276 M,0,46293,46311,302,273,303,265 M,0,46311,46326,304,259,306,252 M,0,46326,46343,308,243,310,237 M,0,46343,46359,312,230,314,224 M,0,46359,46376,316,218,319,212 M,0,46376,46393,320,208,322,205 M,0,46393,46435,323,204,324,206 M,0,46435,46452,325,212,325,219 M,0,46452,46468,325,226,323,234 M,0,46468,46484,321,241,318,249 M,0,46484,46501,316,257,314,262 M,0,46501,46518,311,269,308,274 M,0,46518,46535,306,278,303,281 M,0,46535,46552,302,282,301,282 M,0,46569,46585,301,280,303,271 M,0,46585,46602,306,261,308,252 M,0,46602,46619,309,241,311,232 M,0,46619,46635,313,223,315,214 M,0,46635,46652,318,206,319,201 M,0,46652,46669,321,198,323,197 M,0,46669,46685,323,196,324,196 M,0,46902,46919,323,203,322,210 M,0,46919,46935,319,220,317,229 M,0,46935,46952,314,237,311,245 M,0,46952,46969,308,249,308,251 M,0,47019,47035,306,250,304,244 M,0,47035,47052,302,238,300,233 M,0,47052,47069,297,226,294,220 M,0,47069,47086,290,212,287,206 M,0,47086,47102,284,203,283,201 M,0,47144,47161,283,206,285,212 M,0,47161,47177,288,218,291,224 M,0,47177,47194,296,232,300,238 M,0,47194,47212,305,242,310,247 M,0,47212,47228,316,251,321,255 M,0,47228,47244,326,257,330,258 M,0,47244,47259,333,259 M,0,47259,47503,334,259,331,259 M,0,47503,47519,326,255,320,251 M,0,47519,47535,311,246,301,241 M,0,47535,47553,294,238,284,235 M,0,47553,47569,278,234,273,233 M,0,47569,47585,270,233,267,233 M,0,47585,47603,265,233 M,0,47609,47626,265,234,264,239 M,0,47626,47643,263,243,263,249 M,0,47643,47659,263,255,263,261 M,0,47659,47675,261,268,260,274 M,0,47675,47693,259,280,258,285 M,0,47693,47743,257,287,257,286 M,0,47743,47761,257,282,259,276 M,0,47761,47776,261,271,264,265 M,0,47776,47793,267,256,271,247 M,0,47793,47810,277,239,283,230 M,0,47810,47827,290,224,298,216 M,0,47827,47843,304,212,310,208 M,0,47843,47859,315,206,318,205 M,0,47859,47877,320,204,321,204 M,0,47901,47917,323,204,325,210 M,0,47917,47934,329,216,332,223 M,0,47934,47951,335,229,339,236 M,0,47951,47968,342,244,345,250 M,0,47968,47985,347,255,349,262 M,0,47985,48002,350,265,351,267 M,0,48002,48061,351,269,349,265 M,0,48061,48077,346,261,342,253 M,0,48077,48094,339,249,335,243 M,0,48094,48110,331,238,328,234 M,0,48110,48126,325,230,322,228 M,0,48126,48143,319,226,316,225 M,0,48143,48160,312,224,308,224 M,0,48160,48176,304,224,300,226 M,0,48176,48193,294,228,290,232 M,0,48193,48211,285,234,281,238 M,0,48211,48227,277,241,274,244 M,0,48227,48244,270,249,268,252 M,0,48244,48261,266,256,263,259 M,0,48261,48277,262,262,261,265 M,0,48277,48294,260,266,259,268 M,0,48294,48311,259,270,258,271 M,0,48311,48327,258,271,258,272 M,0,48378,48393,259,269,263,264 M,0,48393,48409,267,257,272,250 M,0,48409,48427,278,241,285,233 M,0,48427,48442,291,228,298,222 M,0,48442,48459,307,216,314,214 M,0,48459,48475,320,211,324,210 M,0,48475,48493,327,209,330,209 M,0,48493,48509,331,209,332,209 M,0,48534,48551,333,210,333,212 M,0,48551,48568,334,215,335,217 M,0,48568,48585,335,219,335,223 M,0,48585,48602,333,228,331,232 M,0,48602,48619,327,238,323,243 M,0,48619,48634,319,247,314,251 M,0,48634,48652,309,254,302,258 M,0,48652,48669,298,260,292,263 M,0,48669,48685,288,265,284,266 M,0,48685,48702,282,267,281,267 M,0,48702,48761,280,267,282,268 M,0,48761,48777,288,269,293,270 M,0,48777,48794,299,271,306,271 M,0,48794,48812,312,272,319,272 M,0,48812,48827,323,272,328,270 M,0,48827,48844,331,268,332,265 M,0,48844,48859,333,263,333,260 M,0,48859,48876,333,258,333,256 M,0,48876,48892,333,255,332,255 M,0,48892,48909,327,254,324,253 M,0,48909,48926,317,251,309,249 M,0,48926,48943,300,247,290,246 M,0,48943,48960,281,244,273,241 M,0,48960,48976,265,240,259,238 M,0,48976,48994,255,237,252,236 M,0,48994,49044,251,235,251,234 M,0,49044,49061,255,231,259,229 M,0,49061,49078,267,227,276,226 M,0,49078,49094,283,226,291,226 M,0,49094,49112,298,226,304,226 M,0,49112,49127,308,227,311,227 M,0,49127,49143,314,228,316,228 M,0,49143,49161,318,230 M,0,49161,49177,319,230,319,231 M,0,49177,49194,319,232,319,234 M,0,49194,49210,316,236,312,241 M,0,49210,49226,306,245,300,249 M,0,49226,49243,294,253,286,256 M,0,49243,49260,278,257,270,259 M,0,49260,49276,261,259,255,259 M,0,49276,49293,249,259,245,259 M,0,49293,49311,242,259,240,259 M,0,49352,49369,242,257,247,251 M,0,49369,49386,250,245,255,238 M,0,49386,49402,257,232,260,226 M,0,49402,49418,262,220,263,216 M,0,49418,49485,264,214,264,218 M,0,49485,49502,263,222,261,226 M,0,49502,49519,259,231,257,237 M,0,49519,49535,256,242,255,247 M,0,49535,49552,255,252,255,255 M,0,49552,49612,255,257,257,254 M,0,49612,49627,261,249,264,244 M,0,49627,49643,268,240,271,235 M,0,49643,49661,275,231,279,226 M,0,49661,49677,283,222,287,216 M,0,49677,49694,290,212,293,208 M,0,49694,49752,295,206,294,212 M,0,49752,49769,292,218,288,223 M,0,49769,49785,284,231,279,238 M,0,49785,49802,274,244,269,250 M,0,49802,49819,262,255,257,259 M,0,49819,49835,254,261,251,262 M,0,49835,49852,250,262,249,262 M,0,49852,49868,249,262,249,261 M,0,49868,49885,248,257,248,254 M,0,49885,49902,247,251,247,247 M,0,49902,49919,249,243,250,238 M,0,49919,49936,253,234,255,229 M,0,49936,49952,259,226,265,222 M,0,49952,49969,270,221,275,220 M,0,49969,49985,279,219,283,219 M,0,49985,50002,288,220,292,222 M,0,50002,50018,296,224,298,226 M,0,50018,50036,301,229,302,232 M,0,50036,50052,302,233,302,236 M,0,50052,50068,302,237,301,240 M,0,50068,50084,300,243,298,245 M,0,50084,50102,296,247,294,249 M,0,50102,50119,292,250,291,251 M,0,50119,50135,290,251 M,0,50143,50161,289,251,288,247 M,0,50161,50177,286,243,286,240 M,0,50177,50193,283,234,281,231 M,0,50193,50211,277,226,275,220 M,0,50211,50227,272,216,270,212 M,0,50227,50244,269,208,266,204 M,0,50244,50262,263,202,261,200 M,0,50262,50277,258,197,254,194 M,0,50277,50294,250,191,245,189 M,0,50294,50312,240,187,236,186 M,0,50312,50327,232,186,228,188 M,0,50327,50344,225,191,222,195 M,0,50344,50361,220,199,218,203 M,0,50361,50377,216,208,214,212 M,0,50377,50394,213,217,213,222 M,0,50394,50411,213,228,215,236 M,0,50411,50427,219,243,221,250 M,0,50427,50444,224,254,226,257 M,0,50444,50462,227,259,229,259 M,0,50462,50485,230,260,231,260 M,0,50485,50503,232,260,233,260 M,0,50503,50519,234,260,235,260 M,0,50519,50535,238,260,240,260 M,0,50535,50552,244,260,247,259 M,0,50552,50569,251,258,255,257 M,0,50569,50586,259,256,263,255 M,0,50586,50602,266,255,269,254 M,0,50602,50618,271,254,275,253 M,0,50618,50635,278,253,279,253 M,0,50635,50652,282,252,284,251 M,0,50652,50668,287,249,289,247 M,0,50668,50685,292,244,294,242 M,0,50685,50702,296,240,297,238 M,0,50702,50719,299,236,301,234 M,0,50719,50735,302,233,304,231 M,0,50735,50752,306,230,308,228 M,0,50752,50768,310,227,311,227 M,0,50768,50826,312,227,312,231 M,0,50826,50842,312,235,312,238 M,0,50842,50861,311,243,308,249 M,0,50861,50877,306,253,302,260 M,0,50877,50894,298,266,294,269 M,0,50894,50911,290,273,286,276 M,0,50911,50927,281,277,277,278 M,0,50927,50943,273,279,270,279 M,0,50943,50961,265,279,263,279 M,0,50961,50977,259,278,257,277 M,0,50977,50994,255,276,253,275 M,0,50994,51011,251,274,250,273 M,0,51011,51027,248,271,247,271 M,0,51027,51043,246,270,244,269 M,0,51043,51062,243,268,241,266 M,0,51062,51077,240,265,239,263 M,0,51077,51093,238,263,237,261 M,0,51093,51112,236,258,234,255 M,0,51112,51127,234,253,232,250 M,0,51127,51144,232,247,231,245 M,0,51144,51161,231,243,230,241 M,0,51161,51218,230,241,231,241 M,0,51218,51235,234,243,238,249 M,0,51235,51252,242,253,247,257 M,0,51252,51268,253,263,261,267 M,0,51268,51284,269,271,276,274 M,0,51284,51301,281,276,288,277 M,0,51301,51318,294,277,299,276 M,0,51318,51334,304,274,308,271 M,0,51334,51352,312,267,313,261 M,0,51352,51369,314,257,314,253 M,0,51369,51385,313,249,311,245 M,0,51385,51402,310,244,308,244 M,0,51402,51419,306,244,305,244 M,0,51419,51435,301,245,297,248 M,0,51435,51452,291,251,283,255 M,0,51452,51468,274,258,264,261 M,0,51468,51486,251,265,240,267 M,0,51486,51502,231,268,225,268 M,0,51502,51552,223,268,226,267 M,0,51552,51571,232,265,242,263 M,0,51571,51586,248,261,256,258 M,0,51586,51603,268,254,277,251 M,0,51603,51620,286,247,298,243 M,0,51620,51635,306,239,314,236 M,0,51635,51653,320,234,323,231 M,0,51653,51671,325,230,325,228 M,0,51678,51695,325,228,325,227 M,0,51712,51728,325,226,326,224 M,0,51728,51744,326,222 M,0,51744,51761,326,221,326,220 M,0,51761,51777,327,220,327,219 M,0,51777,51794,327,218,327,217 M,0,51794,51811,328,216,328,215 M,0,51811,51827,329,214 M,0,51911,51927,329,214,330,214 M,0,51927,51943,331,218,332,220 M,0,51943,51961,333,224,333,228 M,0,51961,51977,333,233,331,238 M,0,51977,51994,329,244,327,250 M,0,51994,52011,323,256,320,262 M,0,52011,52027,314,269,309,275 M,0,52027,52044,304,279,300,282 M,0,52044,52062,298,283,296,284 M,0,52062,52077,295,284,293,282 M,0,52077,52094,292,280,290,277 M,0,52094,52112,288,274,287,271 M,0,52112,52127,286,267,286,265 M,0,52127,52143,286,263,286,262 M,0,52143,52161,286,261 M,0,52161,52177,288,260,290,260 M,0,52177,52194,294,260,298,261 M,0,52194,52212,304,263,311,264 M,0,52212,52227,319,266,327,267 M,0,52227,52243,337,268,345,269 M,0,52243,52261,355,269,361,270 M,0,52261,52277,366,270,368,270 M,0,52277,52327,369,270,366,270 M,0,52327,52344,362,270,357,271 M,0,52344,52362,353,271,345,272 M,0,52362,52377,337,273,329,275 M,0,52377,52394,320,276,311,276 M,0,52394,52412,303,278,295,278 M,0,52412,52427,290,279,288,279 M,0,52427,52477,286,279,288,278 M,0,52477,52494,291,276,296,273 M,0,52494,52511,302,271,308,269 M,0,52511,52527,317,266,323,263 M,0,52527,52544,331,262,337,261 M,0,52544,52561,341,260,343,260 M,0,52561,52594,343,260,343,262 M,0,52594,52612,340,267,336,270 M,0,52612,52627,332,273,327,276 M,0,52627,52643,320,280,314,282 M,0,52643,52662,308,286,302,290 M,0,52662,52677,298,292,295,293 M,0,52677,52735,294,294,293,292 M,0,52735,52752,290,284,286,277 M,0,52752,52769,283,273,279,269 M,0,52769,52785,275,263,269,259 M,0,52785,52802,265,255,259,249 M,0,52802,52819,255,245,252,241 M,0,52819,52835,249,238,247,235 M,0,52835,52852,246,232,244,229 M,0,52852,52868,244,228,244,227 M,0,52868,52927,244,226 M,0,52927,52944,244,225,244,224 M,0,52944,52962,244,223,244,222 M,0,52962,52977,244,221,244,220 M,0,52985,53002,244,219,244,218 M,0,53002,53019,244,218,244,216 M,0,53027,53127,244,216,246,218 M,0,53127,53144,247,222,250,227 M,0,53144,53162,253,232,257,238 M,0,53162,53177,262,243,267,249 M,0,53177,53193,273,255,279,261 M,0,53193,53211,285,265,291,267 M,0,53211,53227,298,269,303,269 M,0,53227,53244,308,269,313,269 M,0,53244,53261,317,266,320,263 M,0,53261,53277,324,259,327,255 M,0,53277,53294,330,252,333,248 M,0,53294,53311,335,245,339,241 M,0,53311,53327,341,238,343,236 M,0,53327,53343,345,235,346,233 M,0,53343,53361,348,232,349,230 M,0,53361,53377,349,230,350,229 M,0,53377,53393,350,228,351,228 M,0,53393,53411,351,227,351,226 M,0,53411,53427,352,225,353,224 M,0,53427,53443,353,223,353,222 M,0,53443,53462,354,222,354,221 M,0,53593,53611,354,224,353,227 M,0,53611,53627,351,231,346,237 M,0,53627,53643,341,240,335,245 M,0,53643,53660,328,248,321,251 M,0,53660,53676,314,252,308,253 M,0,53676,53693,302,253,297,253 M,0,53693,53711,292,251,288,249 M,0,53711,53727,286,245,283,242 M,0,53727,53743,281,238,280,234 M,0,53743,53761,279,230,279,228 M,0,53794,53812,281,228,284,230 M,0,53812,53826,286,232,288,236 M,0,53826,53843,292,240,295,243 M,0,53843,53861,300,248,303,252 M,0,53861,53877,308,257,312,261 M,0,53877,53893,315,263,319,266 M,0,53893,53911,323,267,327,268 M,0,53911,53927,330,268,334,267 M,0,53927,53944,337,265,341,260 M,0,53944,53961,343,255,343,250 M,0,53961,53977,344,244,343,240 M,0,53977,53993,340,235,337,233 M,0,53993,54011,335,231,332,230 M,0,54011,54053,331,230 M,0,54053,54069,329,232,327,236 M,0,54069,54085,324,240,320,243 M,0,54085,54103,318,247,314,253 M,0,54103,54119,310,258,308,263 M,0,54119,54135,305,267,304,269 M,0,54419,54435,303,269,301,263 M,0,54435,54452,298,257,296,252 M,0,54452,54469,294,245,292,240 M,0,54469,54485,291,235,290,232 M,0,54485,54502,290,229,290,228 M,0,54535,54553,292,233,296,238 M,0,54553,54568,298,245,302,250 M,0,54568,54585,306,257,310,262 M,0,54585,54602,314,269,316,273 M,0,54602,54618,318,278,320,278 M,0,54618,54643,321,279 M,0,54643,54661,323,276,324,271 M,0,54661,54677,327,265,329,259 M,0,54677,54693,331,253,333,248 M,0,54693,54711,337,243,339,239 M,0,54711,54727,342,236,345,232 M,0,54727,54744,347,230,350,228 M,0,54744,54761,352,226,353,226 M,0,54761,54853,354,226,354,230 M,0,54853,54868,353,234,352,238 M,0,54868,54884,350,243,347,248 M,0,54884,54902,345,253,342,259 M,0,54902,54919,339,263,335,269 M,0,54919,54935,332,273,329,275 M,0,54935,54952,325,278,321,280 M,0,54952,54969,320,280,318,280 M,0,54969,54985,317,280,316,278 M,0,54985,55002,316,275,316,272 M,0,55002,55019,316,267,317,265 M,0,55019,55035,318,263,320,259 M,0,55035,55052,322,256,323,254 M,0,55052,55069,325,251,329,248 M,0,55069,55085,331,245,334,241 M,0,55085,55102,339,238,343,234 M,0,55102,55119,347,230,351,227 M,0,55119,55135,356,225,357,224 M,0,55169,55185,356,225,353,228 M,0,55185,55202,346,233,339,238 M,0,55202,55219,330,242,319,247 M,0,55219,55235,308,251,299,256 M,0,55235,55252,290,259,285,261 M,0,55252,55269,283,263,282,263 M,0,55319,55335,283,263,287,261 M,0,55335,55352,292,259,298,257 M,0,55352,55369,304,256,311,255 M,0,55369,55385,317,253,323,251 M,0,55385,55402,329,249,333,247 M,0,55402,55419,336,247,338,247 M,0,55452,55468,337,251,334,255 M,0,55468,55484,330,259,326,263 M,0,55484,55502,321,266,317,270 M,0,55502,55519,312,273,307,275 M,0,55519,55534,303,278,299,279 M,0,55534,55552,296,280,295,280 M,0,55552,55585,294,280 M,0,55585,55602,293,274,293,271 M,0,55602,55618,293,264,294,257 M,0,55618,55636,295,247,296,238 M,0,55636,55652,298,229,299,222 M,0,55652,55668,301,216,301,214 M,0,55668,55702,302,213 M,0,55718,55735,304,217,306,221 M,0,55735,55753,307,226,309,232 M,0,55753,55768,310,238,312,243 M,0,55768,55785,314,251,316,258 M,0,55785,55802,316,265,316,269 M,0,55802,55818,316,271,317,273 M,0,55853,55869,317,273,317,267 M,0,55869,55885,316,261,316,255 M,0,55885,55903,316,249,314,243 M,0,55903,55919,314,238,314,233 M,0,55919,55935,314,230,314,228 M,0,55935,55994,314,226,314,227 M,0,55994,56011,314,231,316,236 M,0,56011,56027,317,241,318,246 M,0,56027,56044,318,251,318,255 M,0,56044,56060,318,259,317,263 M,0,56060,56076,316,265,313,267 M,0,56076,56092,310,269,307,269 M,0,56092,56110,302,269,298,269 M,0,56110,56127,293,269,286,267 M,0,56127,56143,281,265,275,263 M,0,56143,56161,269,261,263,261 M,0,56161,56177,259,259,257,259 M,0,56177,56235,255,259,258,259 M,0,56235,56253,263,258,269,257 M,0,56253,56268,275,257,283,257 M,0,56268,56285,292,255,301,255 M,0,56285,56303,310,255,321,254 M,0,56303,56319,330,254,339,254 M,0,56319,56335,346,254,353,254 M,0,56335,56352,355,255,356,256 M,0,56352,56369,356,257,356,258 M,0,56369,56385,356,259,355,261 M,0,56385,56403,353,262,349,263 M,0,56403,56419,346,264,341,264 M,0,56419,56435,336,264,331,264 M,0,56435,56452,323,263,316,260 M,0,56452,56469,308,257,299,253 M,0,56469,56485,290,249,282,246 M,0,56485,56502,274,242,270,240 M,0,56502,56519,268,240,268,239 M,0,56561,56577,269,240,273,241 M,0,56577,56594,276,244,283,247 M,0,56594,56611,288,250,294,253 M,0,56611,56627,301,257,306,261 M,0,56627,56643,310,264,314,267 M,0,56643,56660,316,269,317,271 M,0,56660,56711,317,271,314,269 M,0,56711,56727,310,265,306,261 M,0,56727,56744,301,256,294,251 M,0,56744,56761,287,247,279,241 M,0,56761,56776,271,237,266,234 M,0,56776,56794,262,232,261,232 M,0,56827,56844,261,232,264,238 M,0,56844,56862,267,241,271,246 M,0,56862,56877,275,249,279,253 M,0,56877,56894,283,256,288,257 M,0,56894,56912,293,259,298,261 M,0,56912,56927,302,263,306,264 M,0,56927,56944,309,264,311,265 M,0,56944,57143,313,265,314,265 M,0,57143,57161,316,259,318,253 M,0,57161,57177,323,247,328,240 M,0,57177,57194,334,234,341,226 M,0,57194,57211,345,222,351,217 M,0,57211,57227,358,214,362,213 M,0,57227,57268,364,212,365,213 M,0,57268,57284,366,218,366,223 M,0,57284,57302,366,229,366,235 M,0,57302,57319,366,241,365,247 M,0,57319,57335,364,253,362,259 M,0,57335,57352,359,264,356,270 M,0,57352,57369,353,273,350,275 M,0,57369,57385,349,276,347,276 M,0,57385,57402,345,276,343,275 M,0,57402,57419,341,271,337,268 M,0,57419,57435,333,264,328,260 M,0,57435,57452,321,257,315,252 M,0,57452,57469,307,249,298,245 M,0,57469,57485,289,243,283,241 M,0,57485,57502,277,241,273,241 M,0,57502,57519,271,241,269,242 M,0,57519,57585,269,243,269,244 M,0,57585,57602,273,245,277,245 M,0,57602,57619,285,246,294,246 M,0,57619,57635,304,246,313,245 M,0,57635,57653,323,242,335,239 M,0,57653,57669,343,236,351,234 M,0,57669,57685,356,232,359,231 M,0,57735,57752,359,232,358,236 M,0,57752,57769,355,240,353,246 M,0,57769,57785,351,251,349,256 M,0,57785,57802,345,262,343,268 M,0,57802,57818,339,273,335,279 M,0,57818,57835,332,284,331,286 M,0,57835,57867,330,286,329,286 M,0,57867,57884,327,280,323,275 M,0,57884,57902,320,270,314,265 M,0,57902,57918,309,261,302,255 M,0,57918,57935,293,251,285,246 M,0,57935,57951,277,242,274,240 M,0,57951,57969,270,238,269,238 M,0,58002,58018,271,240,273,243 M,0,58018,58035,277,247,279,251 M,0,58035,58052,282,257,284,261 M,0,58052,58069,287,267,290,271 M,0,58069,58085,292,276,294,279 M,0,58085,58103,295,280,296,280 M,0,58103,58119,297,280,298,280 M,0,58119,58135,299,280,302,279 M,0,58135,58153,303,277,306,275 M,0,58153,58169,308,273,312,269 M,0,58169,58185,316,264,321,257 M,0,58185,58203,327,252,333,246 M,0,58203,58219,337,241,343,238 M,0,58219,58235,345,234,347,233 M,0,58235,58311,348,232,348,236 M,0,58311,58327,348,241,347,249 M,0,58327,58343,345,257,343,265 M,0,58343,58361,340,271,337,276 M,0,58361,58376,335,282,333,285 M,0,58376,58394,331,288,331,290 M,0,58394,58419,330,290,329,290 M,0,58443,58460,327,288,325,285 M,0,58460,58476,321,282,317,278 M,0,58476,58494,311,273,303,267 M,0,58494,58511,296,262,289,256 M,0,58511,58527,283,250,277,245 M,0,58527,58543,273,242,269,240 M,0,58543,58561,268,240,267,240 M,0,58619,58635,268,245,270,251 M,0,58635,58652,272,258,274,265 M,0,58652,58669,275,271,277,275 M,0,58669,58685,278,280,279,284 M,0,58685,58702,280,287,281,288 M,0,58744,58761,281,288,284,284 M,0,58761,58777,286,280,291,276 M,0,58777,58793,296,272,301,267 M,0,58793,58811,308,261,316,255 M,0,58811,58827,325,248,332,244 M,0,58827,58843,337,240,341,239 M,0,58843,58927,342,238,341,238 M,0,58927,58943,337,239,331,241 M,0,58943,58961,324,244,317,246 M,0,58961,58976,308,249,301,251 M,0,58976,58994,292,254,285,255 M,0,58994,59011,281,257,277,257 M,0,59011,59027,273,258,272,259 M,0,59027,59068,271,259,272,259 M,0,59068,59084,276,259,282,260 M,0,59084,59102,288,261,296,261 M,0,59102,59119,302,261,310,261 M,0,59119,59135,317,261,322,261 M,0,59135,59152,327,262,329,263 M,0,59152,59168,331,263 M,0,59193,59211,330,267,326,269 M,0,59211,59227,320,271,314,272 M,0,59227,59243,305,273,298,274 M,0,59243,59261,288,275,282,276 M,0,59261,59277,277,278,275,278 M,0,59277,59294,274,279,273,279 M,0,59502,59519,274,279,279,279 M,0,59519,59535,283,279,289,279 M,0,59535,59552,296,276,304,275 M,0,59552,59569,312,272,321,269 M,0,59569,59585,331,267,339,263 M,0,59585,59603,346,262,353,260 M,0,59603,59619,357,259,359,259 M,0,59643,59660,359,261,357,264 M,0,59660,59675,353,267,349,269 M,0,59675,59694,343,273,335,275 M,0,59694,59711,327,276,319,278 M,0,59711,59727,310,278,304,278 M,0,59727,59743,298,278,294,278 M,0,59743,59761,292,278,290,278 M,0,59761,59777,290,278,289,277 M,0,59785,59802,289,276,290,273 M,0,59802,59818,295,271,301,268 M,0,59818,59835,308,265,316,263 M,0,59835,59853,323,261,330,260 M,0,59853,59869,335,259,339,258 M,0,59869,59885,341,257 M,0,59911,59927,339,257,334,257 M,0,59927,59943,327,257,319,257 M,0,59943,59961,306,257,294,256 M,0,59961,59977,279,254,265,253 M,0,59977,59993,253,253,241,253 M,0,59993,60012,233,253,226,253 M,0,60012,60027,224,253 M,0,60053,60068,226,253,230,255 M,0,60068,60085,236,258,241,260 M,0,60085,60102,248,263,255,265 M,0,60102,60118,261,269,269,271 M,0,60118,60135,275,273,283,276 M,0,60135,60152,290,278,296,280 M,0,60152,60169,302,282,306,283 M,0,60169,60185,311,285,314,286 M,0,60185,60202,318,286,321,286 M,0,60202,60220,323,286,327,285 M,0,60220,60236,330,284,333,282 M,0,60236,60252,337,279,340,276 M,0,60252,60267,344,273,347,269 M,0,60267,60284,351,266,354,263 M,0,60284,60301,356,260,360,258 M,0,60301,60318,362,256,364,255 M,0,60318,60335,366,254,367,253 M,0,60335,60352,367,253,368,253 M,0,60368,60427,368,253,367,257 M,0,60427,60443,365,261,362,265 M,0,60443,60461,360,269,356,273 M,0,60461,60477,354,276,351,279 M,0,60477,60493,347,282,344,284 M,0,60493,60511,339,285,333,286 M,0,60511,60527,327,288,321,289 M,0,60527,60543,315,289,308,290 M,0,60543,60561,302,290,296,290 M,0,60561,60576,291,289,286,288 M,0,60576,60594,281,286,277,285 M,0,60594,60611,273,284,269,282 M,0,60611,60627,267,281,263,280 M,0,60627,60643,261,279,261,278 M,0,60643,60661,259,278,257,276 M,0,60661,60677,255,276,253,275 M,0,60677,60693,251,274,247,273 M,0,60693,60712,244,271,240,268 M,0,60712,60727,238,266,235,264 M,0,60727,60744,232,262,230,259 M,0,60744,60761,228,258,228,257 M,0,60761,60777,227,256,226,255 M,0,60835,60852,228,255,231,258 M,0,60852,60868,236,261,243,263 M,0,60868,60885,251,267,260,269 M,0,60885,60903,269,270,282,271 M,0,60903,60919,292,271,304,269 M,0,60919,60935,316,267,327,264 M,0,60935,60953,339,261,347,258 M,0,60953,60969,352,256,355,255 M,0,61003,61019,353,255,350,256 M,0,61019,61035,346,259,340,261 M,0,61035,61053,333,263,325,265 M,0,61053,61069,318,269,308,271 M,0,61069,61085,301,274,295,277 M,0,61085,61126,292,279,294,279 M,0,61126,61144,299,278,306,275 M,0,61144,61161,313,272,320,269 M,0,61161,61177,330,266,339,263 M,0,61177,61194,347,261,356,259 M,0,61194,61211,363,257,368,256 M,0,61211,61227,371,255,372,255 M,0,61269,61285,372,257,370,259 M,0,61285,61302,369,261,366,264 M,0,61302,61318,363,267,358,270 M,0,61318,61335,353,273,347,276 M,0,61335,61353,341,278,335,280 M,0,61353,61369,329,281,323,282 M,0,61369,61385,319,283,315,283 M,0,61385,61403,310,283,306,283 M,0,61403,61419,303,283,298,283 M,0,61419,61435,294,282,289,281 M,0,61435,61452,284,279,279,277 M,0,61452,61469,273,275,268,273 M,0,61469,61485,265,271,261,269 M,0,61485,61502,259,267,257,267 M,0,61511,61611,257,266,258,268 M,0,61611,61626,261,272,265,275 M,0,61626,61643,271,278,275,281 M,0,61643,61661,283,283,290,284 M,0,61661,61677,298,286,306,286 M,0,61677,61693,314,286,323,286 M,0,61693,61711,331,286,339,285 M,0,61711,61727,345,284,349,283 M,0,61727,61743,351,282,352,282 M,0,61769,61785,349,282,344,282 M,0,61785,61803,337,282,331,282 M,0,61803,61819,323,282,315,282 M,0,61819,61835,306,282,300,282 M,0,61835,61853,294,282,289,282 M,0,61853,61869,286,282,285,282 M,0,61869,61894,285,282,285,280 M,0,61894,61911,286,278,290,275 M,0,61911,61927,296,273,302,271 M,0,61927,61944,310,268,319,266 M,0,61944,61961,328,265,338,263 M,0,61961,61977,347,263,356,262 M,0,61977,61993,360,262,362,262 M,0,61993,62026,362,262,362,263 M,0,62026,62043,360,266,357,268 M,0,62043,62061,354,271,350,273 M,0,62061,62077,344,276,338,278 M,0,62077,62094,330,281,321,284 M,0,62094,62111,314,286,307,288 M,0,62111,62127,301,289,295,289 M,0,62127,62144,292,290,291,290 M,0,62177,62194,292,288,298,285 M,0,62194,62211,302,283,309,281 M,0,62211,62227,316,279,324,276 M,0,62227,62243,332,274,339,272 M,0,62243,62261,347,270,351,268 M,0,62261,62277,355,267,357,266 M,0,62319,62335,356,267,353,269 M,0,62335,62352,349,272,345,274 M,0,62352,62368,339,276,332,278 M,0,62368,62385,323,281,314,283 M,0,62385,62402,305,285,296,286 M,0,62402,62420,287,287,279,287 M,0,62420,62435,272,287,265,286 M,0,62435,62452,258,284,252,282 M,0,62452,62469,247,280,244,278 M,0,62469,62485,240,275,235,273 M,0,62485,62503,232,271,230,269 M,0,62503,62519,227,267,226,265 M,0,62519,62535,224,263,223,262 M,0,62535,62553,222,260,221,258 M,0,62553,62569,220,257 M,0,62569,62693,220,256,222,257 M,0,62693,62711,223,260,225,263 M,0,62711,62726,227,265,228,268 M,0,62726,62744,230,271,234,274 M,0,62744,62761,236,277,240,280 M,0,62761,62777,244,281,247,284 M,0,62777,62794,253,286,257,288 M,0,62794,62811,261,289,267,291 M,0,62811,62827,272,293,278,294 M,0,62827,62844,283,295,288,296 M,0,62844,62861,294,296,299,296 M,0,62861,62877,304,295,310,294 M,0,62877,62893,315,292,320,290 M,0,62893,62911,323,288,327,288 M,0,62911,62927,331,286,334,284 M,0,62927,62944,336,282,339,280 M,0,62944,62961,341,279,344,277 M,0,62961,62977,347,275,350,274 M,0,62977,62994,353,272,355,271 M,0,62994,63011,358,269,360,267 M,0,63011,63027,360,265,362,264 M,0,63027,63043,363,263,364,262 M,0,63043,63061,365,261,366,260 M,0,63061,63076,368,259,369,257 M,0,63076,63094,370,256,371,255 M,0,63094,63111,372,255 M,0,63211,63227,372,256,369,259 M,0,63227,63243,366,261,360,264 M,0,63243,63261,355,267,347,270 M,0,63261,63276,339,273,329,276 M,0,63276,63294,319,278,313,279 M,0,63294,63311,308,279,304,279 M,0,63311,63326,302,279,300,278 M,0,63326,63343,299,276,298,274 M,0,63343,63361,298,271,298,269 M,0,63361,63377,299,267,300,265 M,0,63377,63393,300,265,301,265 M,0,63393,63411,302,265,305,265 M,0,63411,63427,306,265,310,266 M,0,63427,63443,313,267,315,269 M,0,63443,63461,319,271,321,273 M,0,63461,63477,323,274,327,276 M,0,63477,63493,330,278,333,280 M,0,63493,63511,337,281,341,281 M,0,63511,63526,345,282,349,282 M,0,63526,63543,355,282,359,281 M,0,63543,63561,366,278,372,275 M,0,63561,63577,378,272,385,266 M,0,63577,63593,392,262,399,257 M,0,63593,63611,405,251,411,248 M,0,63611,63627,416,244,421,241 M,0,63627,63643,423,236,425,234 M,0,63643,63661,427,230,429,226 M,0,63661,63676,430,224,430,222 M,0,63676,63852,431,221,430,223 M,0,63852,63868,429,227,427,230 M,0,63868,63885,424,236,421,241 M,0,63885,63902,417,246,413,252 M,0,63902,63918,407,257,400,262 M,0,63918,63935,392,267,384,271 M,0,63935,63952,374,275,365,278 M,0,63952,63970,356,280,345,284 M,0,63970,63985,335,286,326,286 M,0,63985,64003,316,286,308,284 M,0,64003,64018,300,282,293,278 M,0,64018,64035,285,275,279,269 M,0,64035,64053,275,267,270,262 M,0,64053,64069,267,261,267,259 M,0,64103,64119,271,261,275,262 M,0,64119,64135,282,265,286,266 M,0,64135,64152,294,268,301,269 M,0,64152,64168,308,271,315,272 M,0,64168,64185,321,273,326,273 M,0,64185,64203,331,273,334,273 M,0,64203,64219,336,272,338,271 M,0,64219,64235,340,269,341,267 M,0,64235,64253,343,265,344,265 M,0,64253,64269,345,264,345,263 M,0,64269,64285,346,262,347,261 M,0,64285,64303,348,260,349,259 M,0,64303,64319,349,259,349,257 M,0,64319,64335,351,257,353,257 M,0,64335,64353,356,256,358,256 M,0,64353,64369,359,256,361,256 M,0,64369,64385,362,257,362,259 M,0,64385,64402,363,262,363,265 M,0,64402,64418,362,269,360,273 M,0,64418,64435,356,275,352,278 M,0,64435,64453,346,280,339,280 M,0,64453,64469,331,280,324,280 M,0,64469,64485,316,277,310,273 M,0,64485,64503,306,269,303,264 M,0,64503,64519,302,259,302,254 M,0,64519,64535,303,247,305,243 M,0,64535,64553,308,238,310,235 M,0,64553,64569,310,234,312,234 M,0,64569,64585,313,234,314,236 M,0,64585,64602,317,243,319,249 M,0,64602,64619,321,257,323,265 M,0,64619,64635,326,273,327,280 M,0,64635,64653,328,287,328,292 M,0,64653,64669,328,298,329,300 M,0,64669,64719,329,302,327,298 M,0,64719,64735,323,294,321,288 M,0,64735,64753,316,282,310,275 M,0,64753,64769,302,265,294,256 M,0,64769,64785,286,246,277,238 M,0,64785,64802,271,232,265,228 M,0,64802,64819,260,222,256,220 M,0,64819,64861,255,220,257,222 M,0,64861,64878,262,228,264,231 M,0,64878,64895,268,236,272,238 M,0,64895,64912,277,241,281,244 M,0,64912,64928,287,246,294,249 M,0,64928,64945,300,251,310,253 M,0,64945,64961,318,256,328,257 M,0,64961,64977,335,257,344,257 M,0,64977,64994,351,255,357,252 M,0,64994,65011,362,250,364,249 M,0,65011,65068,365,248,365,249 M,0,65068,65085,365,255,365,258 M,0,65085,65102,364,263,362,267 M,0,65102,65118,360,273,357,277 M,0,65118,65135,355,281,350,284 M,0,65135,65152,347,285,345,285 M,0,65152,65169,343,285,341,283 M,0,65169,65185,337,278,334,273 M,0,65185,65203,329,265,325,257 M,0,65203,65218,318,247,312,240 M,0,65218,65235,303,230,295,224 M,0,65235,65253,285,218,278,214 M,0,65253,65269,273,212,267,211 M,0,65269,65285,265,211,264,211 M,0,65293,65311,263,212,263,216 M,0,65311,65327,263,220,265,228 M,0,65327,65344,267,234,269,242 M,0,65344,65361,271,249,272,256 M,0,65361,65376,273,261,275,268 M,0,65376,65394,278,274,280,279 M,0,65394,65411,282,283,284,284 M,0,65411,65476,285,285,285,284 M,0,65476,65493,286,281,287,277 M,0,65493,65511,288,273,292,267 M,0,65511,65527,296,261,302,252 M,0,65527,65543,308,244,314,239 M,0,65543,65561,321,232,329,228 M,0,65561,65576,337,222,342,219 M,0,65576,65594,350,216,358,213 M,0,65594,65611,364,211,370,209 M,0,65611,65627,374,208,376,208 M,0,65643,65661,378,209,379,214 M,0,65661,65677,380,220,381,226 M,0,65677,65694,382,232,383,239 M,0,65694,65711,384,245,384,251 M,0,65711,65727,385,258,385,265 M,0,65727,65744,385,267,385,269 M,0,65777,65793,384,269,380,262 M,0,65793,65811,376,258,368,252 M,0,65811,65827,361,247,351,240 M,0,65827,65843,341,234,329,228 M,0,65843,65861,317,223,304,219 M,0,65861,65877,294,215,286,213 M,0,65877,65893,280,211,277,211 M,0,65893,65935,275,211,275,213 M,0,65935,65952,276,220,277,228 M,0,65952,65969,279,236,280,245 M,0,65969,65985,280,253,281,263 M,0,65985,66002,281,270,280,276 M,0,66002,66019,278,281,277,285 M,0,66019,66035,275,287,273,288 M,0,66035,66085,272,288,272,286 M,0,66085,66102,273,281,277,277 M,0,66102,66119,280,273,283,268 M,0,66119,66135,288,263,294,255 M,0,66135,66152,299,249,305,244 M,0,66152,66169,312,238,320,231 M,0,66169,66185,325,226,332,223 M,0,66185,66203,335,222,337,222 M,0,66244,66261,337,226,337,232 M,0,66261,66277,337,238,337,245 M,0,66277,66293,337,251,337,259 M,0,66293,66310,338,267,338,272 M,0,66310,66327,338,278,337,281 M,0,66327,66344,335,285,333,287 M,0,66344,66361,331,288,330,288 M,0,66361,66377,328,288,325,287 M,0,66377,66394,321,284,318,280 M,0,66394,66411,313,275,305,267 M,0,66411,66427,298,259,291,250 M,0,66427,66444,284,240,279,230 M,0,66444,66461,273,221,271,214 M,0,66461,66477,269,209,268,206 M,0,66477,66677,268,206,268,210 M,0,66677,66694,270,214,272,220 M,0,66694,66711,274,225,276,232 M,0,66711,66727,279,240,282,247 M,0,66727,66743,284,253,287,257 M,0,66743,66761,290,261,293,263 M,0,66761,66777,296,264,300,264 M,0,66777,66793,304,263,308,259 M,0,66793,66811,314,255,318,250 M,0,66811,66827,323,244,329,238 M,0,66827,66843,334,232,340,226 M,0,66843,66861,347,220,353,214 M,0,66861,66877,360,209,368,204 M,0,66877,66894,375,201,382,198 M,0,66894,66910,386,197,390,195 M,0,66910,66927,393,194,393,193 M,0,66960,66977,393,194,394,201 M,0,66977,66994,394,206,394,214 M,0,66994,67009,393,220,393,227 M,0,67009,67027,392,235,390,243 M,0,67027,67043,388,249,386,253 M,0,67043,67061,384,259,382,263 M,0,67061,67076,380,265 M,0,67076,67111,379,265,377,261 M,0,67111,67127,374,255,371,248 M,0,67127,67144,368,240,362,230 M,0,67144,67161,357,222,350,213 M,0,67161,67176,343,205,334,198 M,0,67176,67193,324,191,315,187 M,0,67193,67211,307,184,300,183 M,0,67211,67227,295,183,291,183 M,0,67227,67244,288,184,286,185 M,0,67244,67261,284,187,283,190 M,0,67261,67277,281,195,281,201 M,0,67277,67294,281,210,280,218 M,0,67294,67312,280,227,281,235 M,0,67312,67328,283,242,284,247 M,0,67328,67344,286,249,288,251 M,0,67344,67362,289,251,290,251 M,0,67362,67377,293,251,296,251 M,0,67377,67394,300,249,304,247 M,0,67394,67411,311,243,317,240 M,0,67411,67427,324,234,331,228 M,0,67427,67444,339,222,345,216 M,0,67444,67460,351,212,355,208 M,0,67460,67477,358,206,361,204 M,0,67477,67543,362,204,362,208 M,0,67543,67561,360,214,358,220 M,0,67561,67577,354,224,347,229 M,0,67577,67593,339,234,330,239 M,0,67593,67611,321,243,311,246 M,0,67611,67627,304,247,295,248 M,0,67627,67643,288,248,281,248 M,0,67643,67660,275,248,270,248 M,0,67660,67677,264,246,259,244 M,0,67677,67694,254,242,249,240 M,0,67694,67711,246,238,243,236 M,0,67711,67769,242,234 M,0,67769,67785,245,234,249,236 M,0,67785,67802,251,238,255,241 M,0,67802,67819,261,245,268,249 M,0,67819,67835,277,253,287,257 M,0,67835,67853,298,261,307,264 M,0,67853,67869,314,266,320,267 M,0,67869,67885,324,269,326,269 M,0,67885,67919,327,269,326,269 M,0,67919,67935,321,266,317,263 M,0,67935,67952,311,261,304,261 M,0,67952,67969,295,259,286,258 M,0,67969,67985,277,257,263,257 M,0,67985,68002,253,257,243,257 M,0,68002,68018,234,257,225,259 M,0,68018,68035,220,261,217,263 M,0,68035,68051,216,265,216,268 M,0,68051,68068,217,273,220,278 M,0,68068,68085,224,282,232,288 M,0,68085,68102,236,292,242,296 M,0,68102,68119,249,299,255,302 M,0,68119,68134,260,305,265,307 M,0,68134,68152,268,308,269,308 M,0,68152,68194,270,308,270,303 M,0,68194,68211,270,296,270,288 M,0,68211,68227,270,280,271,269 M,0,68227,68243,272,259,273,248 M,0,68243,68261,275,238,277,229 M,0,68261,68277,278,222,279,219 M,0,68277,68294,281,218 M,0,68327,68344,284,221,286,226 M,0,68344,68361,289,232,292,239 M,0,68361,68377,295,247,298,256 M,0,68377,68394,302,264,305,273 M,0,68394,68412,308,280,309,286 M,0,68412,68427,310,289,310,290 M,0,68427,68512,311,290,309,289 M,0,68512,68528,306,286,302,280 M,0,68528,68545,298,275,291,266 M,0,68545,68562,281,254,273,243 M,0,68562,68577,263,233,254,224 M,0,68577,68594,246,217,241,214 M,0,68594,68611,236,211,234,210 M,0,68611,68652,234,210,235,216 M,0,68652,68670,238,223,242,230 M,0,68670,68686,244,236,247,243 M,0,68686,68703,251,249,257,255 M,0,68703,68720,260,260,265,264 M,0,68720,68735,267,266,271,267 M,0,68735,68753,275,267,279,267 M,0,68753,68769,284,264,290,259 M,0,68769,68786,296,255,300,250 M,0,68786,68802,306,244,311,240 M,0,68802,68819,316,236,318,234 M,0,68819,68861,320,233,320,235 M,0,68861,68879,319,241,318,246 M,0,68879,68894,314,251,310,257 M,0,68894,68912,303,262,295,266 M,0,68912,68928,286,269,277,271 M,0,68928,68944,269,271,258,270 M,0,68944,68962,249,267,239,263 M,0,68962,68978,232,260,228,257 M,0,68978,69018,226,257,230,258 M,0,69018,69035,236,261,244,265 M,0,69035,69051,251,267,259,270 M,0,69051,69068,269,272,279,273 M,0,69068,69085,289,273,298,273 M,0,69085,69103,305,271,311,269 M,0,69103,69119,315,267,317,265 M,0,69119,69135,317,263,317,261 M,0,69135,69152,316,259,314,256 M,0,69152,69170,311,255,307,253 M,0,69170,69186,304,253,300,253 M,0,69186,69203,296,254,292,256 M,0,69203,69220,285,259,278,262 M,0,69220,69236,271,265,262,269 M,0,69236,69253,254,271,247,273 M,0,69253,69268,242,275,238,276 M,0,69268,69311,236,276,236,275 M,0,69311,69326,236,269,236,262 M,0,69326,69343,236,255,236,247 M,0,69343,69361,236,240,235,230 M,0,69361,69376,234,222,234,213 M,0,69376,69394,232,205,232,201 M,0,69394,69411,232,197 M,0,69435,69453,232,197,232,202 M,0,69453,69469,232,207,232,211 M,0,69469,69485,234,216,236,221 M,0,69485,69502,238,227,240,234 M,0,69502,69519,244,241,247,247 M,0,69519,69535,252,253,257,258 M,0,69535,69552,262,259,267,261 M,0,69552,69569,271,261,275,260 M,0,69569,69585,281,257,286,254 M,0,69585,69602,290,251,294,247 M,0,69602,69619,298,244,300,240 M,0,69619,69635,302,236,302,232 M,0,69635,69653,302,228,302,224 M,0,69653,69670,302,220,300,215 M,0,69670,69686,298,211,296,209 M,0,69686,69703,294,208,294,207 M,0,69703,69719,292,207,291,207 M,0,69719,69735,289,207,287,207 M,0,69735,69752,285,209,283,212 M,0,69752,69769,279,215,276,218 M,0,69769,69785,273,221,270,224 M,0,69785,69803,268,227,265,232 M,0,69803,69819,263,236,261,240 M,0,69819,69836,261,242,261,245 M,0,69836,69852,261,248,261,249 M,0,69852,69868,261,251,263,253 M,0,69868,69884,265,254,265,255 M,0,69884,69902,267,255,269,256 S,0,69897,70122,0.722529,1.416207 M,0,69911,69927,270,256,271,257 M,0,69927,70122,271,257,713,70 S,0,70122,79197,1.416207 F,0,79197,81597,1,0
//Storyboard Sound Samples

[TimingPoints]
2397,300,4,2,1,60,1,0
50397,-66.6666666666667,4,2,1,60,0,1
69597,-100,4,2,1,60,0,0

[Colours]
Combo1 : 128,255,255
Combo2 : 45,182,255
Combo3 : 157,79,0
Combo4 : 255,184,113

[HitObjects]
136,140,11547,5,0,3:0:0:0:
232,236,11697,1,8,1:0:0:0:
168,24,11847,1,0,3:0:0:0:
24,164,11997,6,0,L|32:244,1,57.5,6|0,0:0|0:0,0:0:0:0:
308,340,12297,2,0,L|300:260,1,57.5
360,32,12597,2,0,L|368:112,1,57.5
392,372,12897,1,0,0:0:0:0:
168,284,13047,1,0,0:0:0:0:
452,304,13197,6,0,L|509:307,1,57.5,2|0,0:0|0:0,0:0:0:0:
284,96,13497,2,0,L|216:92,1,57.5,0|0,0:0|0:0,0:0:0:0:
492,40,13797,1,0,0:0:0:0:
452,304,13947,1,0,0:0:0:0:
252,204,14097,1,0,0:0:0:0:
360,32,14247,1,0,0:0:0:0:
344,288,14397,5,2,0:0:0:0:
344,288,14547,1,0,0:0:0:0:
168,96,14697,1,0,0:0:0:0:
168,96,14847,1,0,0:0:0:0:
432,132,14997,2,0,L|374:125,1,57.5
80,252,15297,2,0,L|137:258,1,57.5
352,344,15597,5,2,0:0:0:0:
172,64,15747,1,0,0:0:0:0:
468,188,15897,1,0,0:0:0:0:
136,260,16047,1,0,0:0:0:0:
368,20,16197,1,0,0:0:0:0:
72,92,16497,6,0,L|76:164,1,57.5,4|0,3:0|0:0,0:0:0:0:
84,340,16797,1,2,2:0:0:0:
188,188,16947,1,0,0:0:0:0:
0,128,17097,1,0,0:0:0:0:
136,260,17247,1,0,0:0:0:0:
240,112,17397,6,0,L|312:108,1,57.5,0|0,0:0|0:0,0:0:0:0:
512,92,17697,1,0,0:0:0:0:
320,16,17847,1,0,0:0:0:0:
364,272,17997,1,2,0:0:0:0:
416,56,18147,1,0,0:0:0:0:
240,112,18297,1,0,0:0:0:0:
300,328,18447,1,0,0:0:0:0:
480,272,18597,6,0,L|484:188,1,57.5
220,268,18897,2,0,L|216:352,1,57.5,8|0,0:0|0:0,0:0:0:0:
40,64,19197,1,2,0:0:0:0:
116,328,19347,5,0,0:0:0:0:
220,148,19497,1,0,0:0:0:0:
220,148,19647,1,0,0:0:0:0:
200,368,19797,5,0,0:0:0:0:
100,124,19947,1,0,0:0:0:0:
100,124,20097,1,0,0:0:0:0:
336,116,20247,5,0,0:0:0:0:
280,336,20397,1,2,0:0:0:0:
180,184,20547,1,0,0:0:0:0:
180,184,20622,1,0,0:0:0:0:
180,184,20697,1,0,0:0:0:0:
416,148,20847,1,0,0:0:0:0:
256,384,20997,5,0,0:0:0:0:
480,272,21147,1,0,0:0:0:0:
180,184,21297,1,4,3:0:0:0:
180,184,21597,6,0,L|188:252,1,57.5,6|0,0:0|0:0,0:0:0:0:
200,384,21897,1,0,0:0:0:0:
32,132,22047,1,0,0:0:0:0:
32,132,22497,2,0,L|112:140,1,57.5,0|0,0:0|0:0,0:0:0:0:
328,180,22797,5,2,0:0:0:0:
164,100,22947,1,0,0:0:0:0:
336,264,23097,1,0,0:0:0:0:
452,44,23247,1,0,0:0:0:0:
180,184,23397,2,0,L|94:178,1,86.25
28,124,23697,1,8,0:0:0:0:
200,384,23847,1,0,0:0:0:0:
328,180,23997,6,0,L|320:112,1,57.5,6|0,0:0|0:0,0:0:0:0:
304,4,24297,1,0,0:0:0:0:
448,244,24447,1,0,0:0:0:0:
448,244,24897,2,0,L|368:236,1,57.5,0|0,0:0|0:0,0:0:0:0:
168,228,25197,5,2,0:0:0:0:
312,88,25347,1,0,0:0:0:0:
204,304,25497,1,0,0:0:0:0:
100,48,25647,1,0,0:0:0:0:
388,148,25797,2,0,L|399:62,1,86.25
476,20,26097,1,8,0:0:0:0:
340,352,26247,1,0,0:0:0:0:
24,260,26397,5,2,0:0:0:0:
244,196,26547,1,0,0:0:0:0:
24,120,26697,1,0,0:0:0:0:
116,380,26847,1,0,0:0:0:0:
332,188,26997,2,0,L|328:120,1,57.5
96,8,27297,2,0,L|100:76,1,57.5
296,272,27597,5,2,0:0:0:0:
480,120,27747,1,0,0:0:0:0:
244,196,27897,1,0,0:0:0:0:
96,8,28047,1,0,0:0:0:0:
364,96,28197,1,0,0:0:0:0:
340,352,28347,1,0,0:0:0:0:
476,208,28497,2,0,L|414:211,1,57.5
112,136,28797,5,2,0:0:0:0:
268,164,28947,1,0,0:0:0:0:
84,48,29097,1,0,0:0:0:0:
144,312,29247,1,2,0:0:0:0:
296,84,29397,1,0,0:0:0:0:
216,364,29547,1,0,0:0:0:0:
0,216,29697,2,0,L|57:212,1,57.5,2|0,0:0|0:0,0:0:0:0:
420,340,29997,5,0,3:0:0:0:
420,340,30072,1,0,3:0:0:0:
420,340,30147,1,0,3:0:0:0:
368,132,30297,1,0,3:0:0:0:
164,176,30447,1,0,3:0:0:0:
216,384,30597,5,8,0:0:0:0:
440,184,30747,1,0,3:0:0:0:
140,88,30897,1,8,1:0:0:0:
216,384,31047,5,0,3:0:0:0:
360,280,31197,2,0,L|364:212,1,57.5,6|0,0:0|0:0,0:0:0:0:
140,88,31497,1,0,0:0:0:0:
368,132,31647,1,0,0:0:0:0:
212,296,31797,1,0,0:0:0:0:
236,52,31948,2,0,L|232:120,1,57.5
216,384,32247,5,0,0:0:0:0:
360,280,32397,2,0,L|364:212,1,57.5,2|0,0:0|0:0,0:0:0:0:
164,176,32697,1,0,0:0:0:0:
440,184,32847,1,0,0:0:0:0:
288,332,32997,1,0,0:0:0:0:
236,52,33147,2,0,L|232:120,1,57.5,0|8,0:0|0:0,0:0:0:0:
216,384,33447,5,0,0:0:0:0:
360,280,33597,2,0,L|364:212,1,57.5,2|0,0:0|0:0,0:0:0:0:
140,88,33897,1,0,0:0:0:0:
288,332,34047,1,0,0:0:0:0:
512,144,34197,1,0,0:0:0:0:
236,52,34347,2,0,L|232:120,1,57.5
216,384,34647,5,0,0:0:0:0:
360,280,34797,2,0,L|364:212,1,57.5,2|0,0:0|0:0,0:0:0:0:
64,176,35097,1,0,0:0:0:0:
216,384,35247,1,0,0:0:0:0:
384,196,35397,1,0,0:0:0:0:
128,296,35547,1,0,0:0:0:0:
0,64,35697,1,4,3:0:0:0:
36,264,35847,5,0,0:0:0:0:
96,88,35997,2,0,L|168:84,1,57.5,2|0,0:0|0:0,0:0:0:0:
416,76,36297,1,0,0:0:0:0:
204,16,36447,1,0,0:0:0:0:
256,216,36597,1,0,0:0:0:0:
364,148,36747,2,0,L|306:151,1,57.5,0|0,0:0|0:0,0:0:0:0:
36,264,37047,5,0,0:0:0:0:
96,88,37197,2,0,L|168:84,1,57.5,2|0,0:0|0:0,0:0:0:0:
452,156,37497,1,0,0:0:0:0:
284,300,37647,1,0,0:0:0:0:
204,16,37797,1,0,0:0:0:0:
364,148,37947,2,0,L|306:151,1,57.5,0|8,0:0|0:0,0:0:0:0:
36,264,38247,5,0,0:0:0:0:
96,88,38397,2,0,L|168:84,1,57.5,2|0,0:0|0:0,0:0:0:0:
500,72,38697,1,0,0:0:0:0:
284,300,38847,1,0,0:0:0:0:
204,16,38997,1,0,0:0:0:0:
364,148,39147,2,0,L|306:151,1,57.5,0|0,0:0|0:0,0:0:0:0:
36,264,39447,5,0,0:0:0:0:
96,88,39597,1,2,0:0:0:0:
240,224,39747,1,0,0:0:0:0:
240,224,39822,1,0,0:0:0:0:
240,224,39897,1,0,0:0:0:0:
68,176,40047,1,0,0:0:0:0:
336,52,40197,2,0,L|332:136,1,57.5
308,376,40497,1,4,3:0:0:0:
160,260,40647,5,0,0:0:0:0:
416,156,40797,2,0,L|412:240,1,57.5,6|0,0:0|0:0,0:0:0:0:
232,312,41097,1,0,0:0:0:0:
68,176,41247,1,0,0:0:0:0:
328,192,41397,1,0,0:0:0:0:
248,4,41547,2,0,L|246:61,1,57.5,0|0,0:0|0:0,0:0:0:0:
240,224,41847,5,0,0:0:0:0:
416,156,41997,2,0,L|412:240,1,57.5,2|0,0:0|0:0,0:0:0:0:
404,384,42297,1,0,0:0:0:0:
160,260,42447,1,0,0:0:0:0:
360,280,42597,1,0,0:0:0:0:
248,4,42747,2,0,L|246:61,1,57.5,0|8,0:0|0:0,0:0:0:0:
240,224,43047,5,0,0:0:0:0:
416,156,43197,2,0,L|412:240,1,57.5,2|0,0:0|0:0,0:0:0:0:
168,172,43497,1,0,0:0:0:0:
488,108,43647,1,0,0:0:0:0:
328,356,43797,1,0,0:0:0:0:
248,4,43947,2,0,L|246:61,1,57.5,0|0,0:0|0:0,0:0:0:0:
240,224,44247,5,0,0:0:0:0:
332,40,44397,1,2,0:0:0:0:
308,272,44547,1,0,0:0:0:0:
96,128,44697,1,0,0:0:0:0:
136,360,44847,1,0,0:0:0:0:
248,136,44997,1,0,0:0:0:0:
28,84,45147,1,0,0:0:0:0:
164,256,45297,5,4,3:0:0:0:
164,256,45447,1,0,0:0:0:0:
128,16,45597,1,2,0:0:0:0:
128,16,45747,1,0,0:0:0:0:
400,344,46047,5,0,0:0:0:0:
416,156,46197,2,0,L|412:213,1,57.5,0|0,0:0|0:0,0:0:0:0:
188,368,46497,2,0,L|191:310,1,57.5
28,84,46797,5,2,0:0:0:0:
112,336,46947,1,0,0:0:0:0:
360,272,47097,1,0,0:0:0:0:
360,272,47397,1,0,0:0:0:0:
360,272,47697,5,8,0:0:0:0:
360,272,47847,1,0,0:0:0:0:
384,48,47997,1,2,0:0:0:0:
384,48,48147,1,0,0:0:0:0:
224,144,48297,5,0,0:0:0:0:
272,376,48447,1,2,0:0:0:0:
24,232,48597,2,0,L|20:175,1,57.5
248,8,48897,2,0,L|252:65,1,57.5,2|2,0:0|0:0,0:0:0:0:
276,288,49197,5,0,3:0:0:0:
276,288,49272,1,0,3:0:0:0:
276,288,49347,1,0,3:0:0:0:
132,120,49497,1,0,3:0:0:0:
188,368,49647,1,0,3:0:0:0:
416,80,49797,5,8,0:0:0:0:
376,344,49947,1,0,3:0:0:0:
144,40,50097,1,8,1:0:0:0:
104,304,50247,1,0,3:0:0:0:
452,312,50397,6,0,P|452:224|476:124,1,172.500006580353,4|0,1:2|0:0,0:0:0:0:
144,40,50847,2,0,P|161:124|161:210,1,172.500006580353,0|0,1:0|0:0,0:0:0:0:
376,344,51297,1,0,3:0:0:0:
232,8,51447,1,0,3:0:0:0:
64,208,51597,2,0,P|63:294|81:378,1,172.500006580353,0|0,1:0|0:0,0:0:0:0:
307,58,52047,2,0,P|316:100|316:144,1,86.2500032901765,0|0,1:0|0:0,0:0:0:0:
464,377,52347,2,0,P|455:335|456:292,1,86.2500032901765,0|0,3:0|3:0,0:0:0:0:
504,16,52647,1,0,3:0:0:0:
136,40,52797,6,0,P|220:57|306:57,1,172.500006580353,0|0,1:0|0:0,0:0:0:0:
496,296,53247,2,0,P|409:295|325:313,1,172.500006580353,0|0,1:0|0:0,0:0:0:0:
388,112,53697,1,0,3:0:0:0:
256,368,53847,1,0,3:0:0:0:
48,16,53997,2,0,P|47:102|65:186,1,172.500006580353,0|0,1:0|0:0,0:0:0:0:
324,312,54447,2,0,P|325:226|307:142,1,172.500006580353,0|0,1:0|3:0,0:0:0:0:
36,280,54897,1,0,3:0:0:0:
256,368,55047,1,0,3:0:0:0:
136,40,55197,5,0,1:0:0:0:
388,112,55347,1,0,0:0:0:0:
204,292,55497,1,0,0:0:0:0:
432,200,55647,1,0,1:0:0:0:
68,108,55797,5,0,0:0:0:0:
416,28,55947,1,0,0:0:0:0:
256,368,56097,1,0,3:0:0:0:
48,16,56247,1,0,3:0:0:0:
472,104,56397,6,0,P|430:115|388:112,1,86.2500032901765,0|0,1:0|0:0,0:0:0:0:
84,200,56697,1,0,0:0:0:0:
413,369,56847,2,0,P|413:283|432:200,1,172.500006580353,0|0,1:0|3:0,0:0:0:0:
68,108,57297,1,0,3:0:0:0:
164,372,57447,1,0,3:0:0:0:
379,26,57597,6,0,P|390:67|387:110,1,86.2500032901765,0|0,1:0|0:0,0:0:0:0:
492,332,57897,2,0,P|482:290|484:248,1,86.2500032901765,0|0,0:0|1:0,0:0:0:0:
112,296,58197,5,0,0:0:0:0:
384,144,58347,1,0,0:0:0:0:
44,44,58497,1,0,3:0:0:0:
408,4,58647,1,0,3:0:0:0:
112,296,58797,5,0,1:0:0:0:
420,384,58947,1,0,0:0:0:0:
420,384,59022,1,0,0:0:0:0:
420,384,59097,1,0,0:0:0:0:
116,108,59247,1,0,1:0:0:0:
28,360,59397,6,0,P|28:317|16:277,1,86.2500032901765,0|0,0:0|3:0,0:0:0:0:
263,99,59698,2,0,P|262:56|275:16,1,86.2500032901765,0|0,3:0|3:0,0:0:0:0:
420,384,59997,6,0,P|438:299|437:213,1,172.500006580353,4|0,1:2|0:0,0:0:0:0:
184,56,60447,2,0,P|166:141|167:227,1,172.500006580353,0|0,1:0|0:0,0:0:0:0:
468,128,60897,1,0,3:0:0:0:
212,312,61047,1,0,3:0:0:0:
354,38,61197,2,0,P|270:55|184:56,1,172.500006580353,0|0,1:0|0:0,0:0:0:0:
316,268,61647,2,0,P|314:225|326:183,1,86.2500032901765,0|0,1:0|0:0,0:0:0:0:
92,28,61947,2,0,P|103:69|102:112,1,86.2500032901765,0|0,3:0|3:0,0:0:0:0:
20,344,62247,1,0,3:0:0:0:
324,184,62397,6,0,P|408:165|494:166,1,172.500006580353,0|0,1:0|0:0,0:0:0:0:
308,352,62847,2,0,P|223:370|137:369,1,172.500006580353,0|0,1:0|0:0,0:0:0:0:
24,136,63297,1,0,3:0:0:0:
244,216,63447,1,0,3:0:0:0:
342,14,63597,2,0,P|323:97|324:184,1,172.500006580353,0|0,1:0|0:0,0:0:0:0:
42,305,64047,2,0,P|43:219|24:136,1,172.500006580353,0|0,1:0|0:0,0:0:0:0:
316,272,64497,1,0,3:0:0:0:
108,360,64647,1,0,3:0:0:0:
92,72,64797,5,0,1:0:0:0:
168,296,64947,1,0,0:0:0:0:
448,236,65097,1,0,0:0:0:0:
116,160,65247,1,0,1:0:0:0:
404,12,65397,5,0,0:0:0:0:
352,360,65547,1,0,0:0:0:0:
32,136,65697,1,0,3:0:0:0:
420,152,65847,1,0,3:0:0:0:
16,304,65997,6,0,P|4:262|7:219,1,86.2500032901765,0|0,1:0|0:0,0:0:0:0:
320,60,66297,2,0,P|332:102|329:145,1,86.2500032901765,0|0,0:0|1:0,0:0:0:0:
88,248,66597,1,0,3:0:0:0:
236,24,66747,1,0,3:0:0:0:
6,219,66897,1,0,3:0:0:0:
268,384,67047,1,0,3:0:0:0:
184,92,67197,5,2,0:0:0:0:
296,296,67347,1,0,0:0:0:0:
512,184,67497,1,0,0:0:0:0:
264,132,67647,1,2,0:0:0:0:
356,368,67797,5,0,0:0:0:0:
320,60,67947,1,0,0:0:0:0:
192,324,68097,1,2,0:0:0:0:
156,16,68247,1,2,0:0:0:0:
444,44,68397,5,0,3:0:0:0:
444,44,68472,1,0,0:0:0:0:
444,44,68547,1,0,3:0:0:0:
312,384,68697,1,0,3:0:0:0:
16,180,68847,1,0,3:0:0:0:
496,116,68997,6,0,P|454:128|411:125,1,86.2500032901765,8|0,0:0|3:0,0:0:0:0:
152,328,69297,2,0,P|194:325|236:337,1,86.2500032901765,8|0,1:0|3:0,0:0:0:0:
312,384,69522,1,0,0:0:0:0:
312,384,69597,1,6,0:0:0:0:
