osu file format v14

[General]
AudioFilename: No title.mp3
AudioLeadIn: 0
PreviewTime: 50097
Countdown: 0
SampleSet: Soft
StackLeniency: 0.7
Mode: 0
LetterboxInBreaks: 0
WidescreenStoryboard: 0

[Editor]
DistanceSpacing: 0.5
BeatDivisor: 4
GridSize: 4
TimelineZoom: 1.6

[Metadata]
Title:No title
TitleUnicode:No title
Artist:Reol
ArtistUnicode:Reol
Creator:VINXIS
Version:Nathan's Extra
Source:
Tags:title- title+ Kamio_Misuzu CelsiusLK deetz byfar Fast jieusieu toybot Hatsune Miku Giga-P dmARTS Anyosupenyosuyaya Lust Irreversible sukiNathan Leader Mishima Yurara
BeatmapID:760488
BeatmapSetID:320118

[Difficulty]
HPDrainRate:6
CircleSize:4
OverallDifficulty:8.5
ApproachRate:9.3
SliderMultiplier:1.8
SliderTickRate:1

[Events]
//Background and Video events
0,0,"Nathan.jpg",0,0
//Break Periods
//Storyboard Layer 0 (Background)
//Storyboard Layer 1 (Fail)
//Storyboard Layer 2 (Pass)
//Storyboard Layer 3 (Foreground)
//Storyboard Sound Samples

[TimingPoints]
2397,300,4,2,1,25,1,0
2397,-200,4,2,1,25,0,0
7647,-153.846153846153,4,2,1,31,0,0
7747,-133.333333333333,4,2,1,30,0,0
11797,-200,4,2,1,50,0,0
11997,-100,4,2,1,41,0,0
50397,-90.9090909090909,4,2,1,50,0,1
68397,-100,4,2,1,70,0,1
69297,-83.3333333333333,4,2,1,50,0,1
69597,-100,4,2,1,60,0,0
74397,-100,4,2,1,60,0,0

[Colours]
Combo1 : 216,157,255
Combo2 : 0,128,192
Combo3 : 128,255,255
Combo4 : 217,0,0

[HitObjects]
368,100,2397,6,0,L|374:191,1,90,2|0,0:0|0:0,0:0:0:0:
274,38,2847,2,0,L|280:129,1,90,2|0,0:0|0:0,0:0:0:0:
193,210,3297,1,0,0:0:0:0:
373,189,3447,1,0,0:0:0:0:
162,128,3597,6,0,P|113:173|106:206,1,90,2|0,0:0|0:0,0:0:0:0:
264,247,4047,2,0,P|272:214|271:191,1,45,2|0,0:0|0:0,0:0:0:0:
210,352,4347,1,0,0:0:0:0:
210,352,4647,1,0,0:0:0:0:
380,353,4797,6,0,B|414:357|414:357|482:346,1,90,2|0,0:0|0:0,0:0:0:0:
474,182,5247,2,0,L|482:233,1,45,2|0,0:0|0:0,0:0:0:0:
387,96,5547,1,0,0:0:0:0:
387,96,5847,1,0,0:0:0:0:
317,198,5997,5,2,0:0:0:0:
214,44,6147,1,0,0:0:0:0:
214,44,6447,1,2,0:0:0:0:
214,44,6747,1,0,0:0:0:0:
90,118,6897,2,0,P|80:156|75:188,1,67.5,4|0,3:0|0:0,0:0:0:0:
75,183,7197,6,0,L|175:202,1,90,2|0,0:0|0:0,0:0:0:0:
263,276,7647,2,0,L|143:300,1,116.999994644165,2|0,0:0|0:0,0:0:0:0:
164,199,8097,1,0,0:0:0:0:
139,373,8247,1,0,0:0:0:0:
272,195,8397,6,0,P|309:208|341:303,1,135.000005149842,2|0,0:0|0:0,0:0:0:0:
198,110,8847,2,0,P|236:114|347:107,1,135.000005149842,2|0,0:0|0:0,0:0:0:0:
447,159,9297,2,0,P|456:203|454:232,1,67.5000025749208,8|0,0:0|0:0,0:0:0:0:
420,33,9597,5,2,0:0:0:0:
445,41,9897,1,0,0:0:0:0:
279,97,10047,1,2,0:0:0:0:
262,75,10347,1,0,0:0:0:0:
428,170,10497,1,2,0:0:0:0:
215,256,10647,1,2,0:0:0:0:
381,244,10797,5,0,3:0:0:0:
381,244,10872,1,0,3:0:0:0:
381,244,10947,1,0,3:0:0:0:
182,203,11097,1,0,3:0:0:0:
353,116,11247,1,0,3:0:0:0:
256,304,11397,1,8,0:0:0:0:
252,74,11547,1,0,3:0:0:0:
431,169,11697,1,8,1:0:0:0:
177,120,11847,1,0,3:0:0:0:
422,87,11997,6,0,P|474:99|495:219,1,180,6|0,0:0|0:0,0:0:0:0:
305,185,12447,1,0,0:0:0:0:
421,328,12597,2,0,P|465:340|539:336,1,90,0|0,0:0|0:0,0:0:0:0:
330,259,12897,1,0,0:0:0:0:
283,384,13047,1,0,0:0:0:0:
206,191,13197,6,0,P|185:244|190:289,1,90,2|0,0:0|0:0,0:0:0:0:
330,259,13497,1,0,0:0:0:0:
236,105,13647,2,0,P|185:98|55:100,1,180,0|0,0:0|0:0,0:0:0:0:
234,30,14097,2,0,P|278:31|349:24,1,90,8|0,0:0|0:0,0:0:0:0:
421,18,14397,5,2,0:0:0:0:
389,226,14547,1,0,0:0:0:0:
236,105,14697,1,0,0:0:0:0:
475,93,14847,1,0,0:0:0:0:
274,206,14997,1,0,0:0:0:0:
445,55,15147,1,0,0:0:0:0:
469,282,15297,1,0,0:0:0:0:
316,133,15447,1,0,0:0:0:0:
209,304,15597,5,2,0:0:0:0:
389,226,15747,1,0,0:0:0:0:
389,226,15822,1,0,0:0:0:0:
389,226,15897,1,0,0:0:0:0:
337,376,16047,1,0,0:0:0:0:
198,221,16197,2,0,B|142:209|142:209|-5:254,1,180,0|4,0:0|3:0,0:0:0:0:
90,116,16647,1,0,0:0:0:0:
250,136,16797,6,0,L|352:153,1,90,2|0,2:0|0:0,0:0:0:0:
312,55,17097,1,0,0:0:0:0:
277,238,17247,1,0,0:0:0:0:
434,129,17397,2,0,P|428:194|405:239,1,90,0|0,0:0|0:0,0:0:0:0:
258,328,17697,2,0,P|317:300|367:298,1,90,0|0,0:0|0:0,0:0:0:0:
260,185,17997,5,2,0:0:0:0:
160,369,18147,1,0,0:0:0:0:
61,242,18297,2,0,P|55:197|46:153,1,90,0|0,0:0|0:0,0:0:0:0:
8,310,18597,1,0,0:0:0:0:
172,195,18747,1,0,0:0:0:0:
61,64,18897,2,0,P|51:108|46:152,1,90,8|0,0:0|0:0,0:0:0:0:
172,195,19197,6,0,L|372:200,1,180,2|0,0:0|0:0,0:0:0:0:
253,301,19647,1,0,0:0:0:0:
420,147,19797,2,0,P|435:195|419:253,1,90,0|0,0:0|0:0,0:0:0:0:
253,110,20097,2,0,P|247:65|261:23,1,90,0|0,0:0|0:0,0:0:0:0:
394,60,20397,5,2,0:0:0:0:
302,200,20547,1,0,0:0:0:0:
302,200,20622,1,0,0:0:0:0:
302,200,20697,1,0,0:0:0:0:
171,96,20847,1,0,0:0:0:0:
420,147,20997,1,0,0:0:0:0:
271,15,21147,1,0,0:0:0:0:
183,193,21297,2,0,P|162:233|146:277,1,90,4|0,3:0|0:0,0:0:0:0:
305,362,21597,6,0,P|385:355|439:248,1,180,6|0,0:0|0:0,0:0:0:0:
315,111,22047,2,0,P|306:161|301:207,1,90,0|0,0:0|0:0,0:0:0:0:
430,111,22347,1,0,0:0:0:0:
223,143,22497,2,0,P|179:139|119:128,1,90,0|0,0:0|0:0,0:0:0:0:
20,335,22797,6,0,P|81:307|147:312,1,135,2|0,0:0|0:0,0:0:0:0:
147,312,23097,2,0,P|154:267|159:222,1,90,0|0,0:0|0:0,0:0:0:0:
30,154,23397,2,0,P|35:110|48:38,1,90,0|0,0:0|0:0,0:0:0:0:
223,143,23697,2,0,P|179:137|107:124,1,90,8|0,0:0|0:0,0:0:0:0:
351,88,23997,6,0,B|370:139|381:171|381:171|376:202|358:259,1,180,2|0,0:0|0:0,0:0:0:0:
219,346,24447,2,0,B|305:320|306:369|398:348,1,180,0|0,0:0|0:0,0:0:0:0:
478,260,24897,2,0,P|486:210|493:152,1,90,0|0,0:0|0:0,0:0:0:0:
351,88,25197,5,2,0:0:0:0:
339,254,25347,1,0,0:0:0:0:
339,254,25422,1,0,0:0:0:0:
339,254,25497,1,0,0:0:0:0:
211,145,25647,1,0,0:0:0:0:
426,121,25797,2,0,P|480:122|518:127,1,90,0|0,0:0|0:0,0:0:0:0:
309,177,26097,2,0,P|303:132|303:87,1,90,4|0,3:0|0:0,0:0:0:0:
165,41,26397,6,0,B|44:53|44:53|-4:109,1,180,2|0,0:0|0:0,0:0:0:0:
211,145,26847,2,0,B|332:135,1,90,0|0,0:0|0:0,0:0:0:0:
123,258,27147,1,0,0:0:0:0:
68,104,27297,2,0,B|60:14,1,90,0|0,0:0|0:0,0:0:0:0:
148,91,27597,5,2,0:0:0:0:
8,241,27747,1,0,0:0:0:0:
12,43,27897,1,0,0:0:0:0:
130,174,28047,1,0,0:0:0:0:
94,23,28197,1,0,0:0:0:0:
2,161,28347,1,0,0:0:0:0:
211,145,28497,2,0,P|260:148|322:167,1,90,0|0,0:0|0:0,0:0:0:0:
149,219,28797,6,0,P|109:156|169:65,1,180,2|0,0:0|0:0,0:0:0:0:
299,157,29247,1,2,0:0:0:0:
297,265,29397,2,0,P|297:318|294:378,1,90,0|0,0:0|0:0,0:0:0:0:
214,189,29697,1,2,0:0:0:0:
437,200,29847,1,0,0:0:0:0:
337,82,29997,5,0,3:0:0:0:
337,82,30072,1,0,3:0:0:0:
337,82,30147,1,0,3:0:0:0:
389,268,30297,1,0,3:0:0:0:
246,108,30447,1,0,3:0:0:0:
423,117,30597,1,8,0:0:0:0:
214,189,30747,1,0,3:0:0:0:
437,200,30897,1,8,1:0:0:0:
269,21,31047,6,0,P|204:28|170:52,1,90,0|6,3:0|0:0,0:0:0:0:
337,82,31347,1,0,0:0:0:0:
156,118,31497,1,0,0:0:0:0:
348,169,31647,2,0,P|402:136|380:15,1,180,0|0,0:0|0:0,0:0:0:0:
474,176,32097,1,0,0:0:0:0:
265,167,32247,6,0,P|211:166|139:176,1,90,2|0,0:0|0:0,0:0:0:0:
302,259,32547,1,0,0:0:0:0:
337,82,32697,1,0,0:0:0:0:
157,90,32847,2,0,P|103:123|125:244,1,180,0|0,0:0|0:0,0:0:0:0:
55,52,33297,1,8,0:0:0:0:
247,84,33447,6,0,P|301:85|373:75,1,90,2|0,0:0|0:0,0:0:0:0:
199,9,33747,1,0,0:0:0:0:
205,195,33897,2,0,L|210:299,1,90,0|0,0:0|0:0,0:0:0:0:
103,167,34197,1,0,0:0:0:0:
290,155,34347,1,0,0:0:0:0:
111,280,34497,1,0,0:0:0:0:
309,261,34647,6,0,P|390:253|517:251,1,180,2|0,0:0|0:0,0:0:0:0:
290,155,35097,2,0,P|243:148|161:131,1,90,0|0,0:0|0:0,0:0:0:0:
309,261,35397,1,0,0:0:0:0:
306,35,35547,1,0,0:0:0:0:
415,152,35697,1,4,3:0:0:0:
194,80,35847,6,0,B|122:78|122:78|19:127,1,180,2|0,0:0|0:0,0:0:0:0:
260,125,36297,2,0,P|263:46|242:16,1,90,0|0,0:0|0:0,0:0:0:0:
166,186,36597,1,0,0:0:0:0:
352,192,36747,1,0,0:0:0:0:
170,81,36897,1,0,0:0:0:0:
405,113,37047,6,0,P|435:154|394:276,1,180,2|0,0:0|0:0,0:0:0:0:
224,258,37497,2,0,P|172:258|107:266,1,90,0|0,0:0|0:0,0:0:0:0:
320,366,37797,2,0,P|320:314|312:249,1,90,0|0,0:0|0:0,0:0:0:0:
306,131,38097,1,8,0:0:0:0:
127,139,38247,6,0,P|183:143|312:129,1,180,2|0,0:0|0:0,0:0:0:0:
57,73,38697,2,0,P|29:144|47:185,1,90,0|0,0:0|0:0,0:0:0:0:
169,55,38997,1,0,0:0:0:0:
213,249,39147,1,0,0:0:0:0:
103,2,39297,1,0,0:0:0:0:
47,225,39447,1,0,0:0:0:0:
241,121,39597,6,0,L|330:68,1,90,2|0,0:0|0:0,0:0:0:0:
289,194,39822,1,0,0:0:0:0:
289,194,39897,2,0,L|405:181,1,90,0|0,0:0|0:0,0:0:0:0:
261,283,40122,1,0,0:0:0:0:
261,283,40197,2,0,L|360:306,1,90,0|0,0:0|0:0,0:0:0:0:
378,183,40497,1,4,3:0:0:0:
185,244,40647,6,0,P|175:287|187:331,1,90,0|6,0:0|0:0,0:0:0:0:
166,162,40947,1,0,0:0:0:0:
339,257,41097,2,0,P|382:268|456:164,1,180,0|0,0:0|0:0,0:0:0:0:
321,129,41547,1,0,0:0:0:0:
415,335,41697,1,0,0:0:0:0:
257,180,41847,6,0,P|213:171|169:183,1,90,2|0,0:0|0:0,0:0:0:0:
339,257,42147,2,0,P|371:179|326:95,1,180,0|0,0:0|0:0,0:0:0:0:
218,257,42597,2,0,L|206:360,1,90,0|0,0:0|0:0,0:0:0:0:
133,157,42897,1,8,0:0:0:0:
320,168,43047,6,0,P|368:172|415:179,1,90,2|0,0:0|0:0,0:0:0:0:
218,257,43347,2,0,P|170:253|123:246,1,90,0|0,0:0|0:0,0:0:0:0:
347,91,43647,2,0,P|389:132|357:247,1,180,0|0,0:0|0:0,0:0:0:0:
219,121,44097,2,0,L|229:31,1,90,0|0,0:0|0:0,0:0:0:0:
320,168,44397,5,2,0:0:0:0:
133,157,44547,1,0,0:0:0:0:
133,157,44622,1,0,0:0:0:0:
133,157,44697,1,0,0:0:0:0:
245,43,44847,1,0,0:0:0:0:
226,243,44997,1,0,0:0:0:0:
134,65,45147,1,0,0:0:0:0:
347,91,45297,1,4,3:0:0:0:
137,235,45447,6,0,P|87:231|34:231,1,90,0|2,0:0|0:0,0:0:0:0:
271,334,45747,2,0,P|321:338|374:338,1,90,0|0,0:0|0:0,0:0:0:0:
226,243,46047,1,0,0:0:0:0:
352,181,46197,2,0,P|351:136|347:91,1,90,0|0,0:0|0:0,0:0:0:0:
253,141,46497,1,0,0:0:0:0:
448,140,46647,1,0,0:0:0:0:
352,268,46797,6,0,B|307:275|307:275|244:257,1,90,2|0,0:0|0:0,0:0:0:0:
165,136,47097,2,0,B|210:129|210:129|273:147,1,90,0|0,0:0|0:0,0:0:0:0:
60,238,47397,2,0,B|32:147|32:147|58:48,1,180,0|8,0:0|0:0,0:0:0:0:
165,136,47847,1,0,0:0:0:0:
30,311,47997,5,2,0:0:0:0:
26,346,48297,1,0,0:0:0:0:
176,164,48447,1,2,0:0:0:0:
189,197,48747,1,0,0:0:0:0:
30,94,48897,1,2,0:0:0:0:
261,78,49047,1,2,0:0:0:0:
71,204,49197,5,0,3:0:0:0:
71,204,49272,1,0,3:0:0:0:
71,204,49347,1,0,3:0:0:0:
140,19,49497,1,0,3:0:0:0:
271,178,49647,1,0,3:0:0:0:
30,94,49797,1,8,0:0:0:0:
220,17,49947,1,0,3:0:0:0:
166,240,50097,5,8,1:0:0:0:
220,17,50247,1,0,3:0:0:0:
76,265,50397,6,0,P|131:322|256:275,1,198.000006042481,4|0,1:2|0:0,0:0:0:0:
341,182,50847,2,0,B|474:193|474:193|500:271,1,198.000006042481,0|0,1:0|0:0,0:0:0:0:
323,270,51297,1,0,3:0:0:0:
449,109,51447,1,0,3:0:0:0:
255,99,51597,6,0,L|53:83,1,198.000006042481,0|0,1:0|0:0,0:0:0:0:
138,213,52047,1,0,1:0:0:0:
137,15,52197,1,0,0:0:0:0:
1,167,52347,1,0,3:0:0:0:
210,94,52497,1,0,3:0:0:0:
22,82,52647,1,0,3:0:0:0:
243,18,52797,6,0,P|288:66|237:180,1,198.000006042481,0|0,1:0|0:0,0:0:0:0:
80,248,53247,2,0,P|134:251|292:268,1,198.000006042481,0|0,1:0|0:0,0:0:0:0:
396,348,53697,2,0,P|396:295|392:237,1,99.0000030212403,0|0,3:0|3:0,0:0:0:0:
457,122,53997,5,0,1:0:0:0:
493,276,54147,1,0,2:0:0:0:
493,276,54222,1,0,0:0:0:0:
493,276,54297,1,0,0:0:0:0:
277,265,54447,2,0,P|226:261|178:261,1,99.0000030212403,0|0,1:0|0:0,0:0:0:0:
281,363,54747,1,0,3:0:0:0:
223,173,54897,2,0,P|223:120|227:62,1,99.0000030212403,0|0,3:0|3:0,0:0:0:0:
362,137,55197,5,0,1:0:0:0:
106,117,55347,1,0,0:0:0:0:
277,11,55497,1,0,0:0:0:0:
254,225,55647,1,0,1:0:0:0:
176,28,55797,1,0,0:0:0:0:
357,52,55947,1,0,0:0:0:0:
357,52,56022,1,0,0:0:0:0:
357,52,56097,1,0,3:0:0:0:
178,168,56247,1,0,3:0:0:0:
277,11,56397,5,0,1:0:0:0:
449,96,56547,1,0,0:0:0:0:
236,92,56697,1,0,0:0:0:0:
441,15,56847,2,0,P|488:97|459:208,1,198.000006042481,0|0,1:0|3:0,0:0:0:0:
312,334,57297,2,0,P|308:290|320:225,1,99.0000030212403,0|0,3:0|3:0,0:0:0:0:
354,110,57597,5,0,1:0:0:0:
419,302,57747,1,0,0:0:0:0:
198,234,57897,1,0,0:0:0:0:
464,168,58047,1,0,1:0:0:0:
236,92,58197,1,0,0:0:0:0:
316,236,58347,1,0,0:0:0:0:
354,110,58497,2,0,L|376:1,1,99.0000030212403,0|0,3:0|3:0,0:0:0:0:
176,152,58797,5,0,1:0:0:0:
388,186,58947,1,0,0:0:0:0:
388,186,59022,1,0,0:0:0:0:
388,186,59097,1,0,0:0:0:0:
198,234,59247,2,0,P|134:224|113:102,1,198.000006042481,0|0,1:0|3:0,0:0:0:0:
267,173,59697,2,0,P|287:217|282:265,1,99.0000030212403,0|0,3:0|3:0,0:0:0:0:
137,376,59997,6,0,B|188:343|188:343|334:349,1,198.000006042481,4|0,1:2|0:0,0:0:0:0:
391,229,60447,2,0,L|395:6,1,198.000006042481,0|0,1:0|0:0,0:0:0:0:
276,127,60897,1,0,3:0:0:0:
512,144,61047,1,0,3:0:0:0:
306,44,61197,6,0,B|257:34|220:59|220:59|205:50|205:50|165:71|115:56,1,198.000006042481,0|0,1:0|0:0,0:0:0:0:
276,127,61647,1,0,1:0:0:0:
176,267,61797,1,0,0:0:0:0:
162,62,61947,1,0,3:0:0:0:
365,112,62097,1,0,3:0:0:0:
92,144,62247,1,0,3:0:0:0:
306,44,62397,6,0,P|358:78|351:217,1,198.000006042481,0|0,1:0|0:0,0:0:0:0:
236,333,62847,2,0,B|143:387|144:310|19:363,1,198.000006042481,0|0,1:0|0:0,0:0:0:0:
269,260,63297,2,0,P|308:296|320:360,1,99.0000030212403,0|0,3:0|3:0,0:0:0:0:
170,189,63597,5,0,1:0:0:0:
361,178,63747,1,0,0:0:0:0:
361,178,63822,1,0,0:0:0:0:
361,178,63897,1,0,0:0:0:0:
137,110,64047,2,0,P|98:146|152:282,1,198.000006042481,0|0,1:0|0:0,0:0:0:0:
259,115,64497,2,0,P|262:54|269:-2,1,99.0000030212403,0|0,3:0|3:0,0:0:0:0:
470,122,64797,6,0,P|475:171|477:220,1,99.0000030212403,0|0,1:0|0:0,0:0:0:0:
371,64,65097,1,0,0:0:0:0:
257,211,65247,1,0,1:0:0:0:
283,34,65397,1,0,0:0:0:0:
477,220,65547,1,0,0:0:0:0:
459,43,65697,1,0,3:0:0:0:
370,260,65847,1,0,3:0:0:0:
167,164,65997,6,0,P|100:164|52:169,1,99.0000030212403,0|0,1:0|0:0,0:0:0:0:
243,338,66297,2,0,P|310:338|358:333,1,99.0000030212403,0|0,0:0|1:0,0:0:0:0:
269,147,66597,1,0,3:0:0:0:
114,268,66747,1,0,3:0:0:0:
78,83,66897,1,0,3:0:0:0:
251,255,67047,1,0,3:0:0:0:
251,255,67122,1,0,0:0:0:0:
251,255,67197,5,2,0:0:0:0:
316,48,67347,2,0,P|374:91|363:211,1,198.000006042481,0|2,0:0|0:0,0:0:0:0:
221,95,67797,2,0,P|217:27|232:-10,1,99.0000030212403,0|0,0:0|0:0,0:0:0:0:
455,80,68097,2,0,P|467:127|461:176,1,99.0000030212403,2|2,0:0|0:0,0:0:0:0:
275,246,68397,5,0,3:0:0:0:
300,239,68472,1,0,3:0:0:0:
327,239,68547,1,0,3:0:0:0:
353,248,68622,1,0,3:0:0:0:
374,264,68697,1,0,3:0:0:0:
177,308,68847,1,0,3:0:0:0:
323,137,68997,1,8,0:0:0:0:
310,330,69147,1,0,3:0:0:0:
189,190,69297,6,0,L|246:197,1,53.9999983520508,8|0,1:0|0:0,0:0:0:0:
438,213,69447,2,0,L|377:211,1,53.9999983520508,0|0,3:0|0:0,0:0:0:0:
158,264,69597,6,0,P|111:196|160:118,1,180,6|0,0:0|0:0,0:0:0:0:
302,54,70047,2,0,L|103:24,1,180,2|0,0:0|0:0,0:0:0:0:
252,143,70497,2,0,L|340:156,1,90,0|0,3:0|3:0,0:0:0:0:
96,152,70797,6,0,P|60:204|36:352,1,180,2|0,0:0|0:0,0:0:0:0:
192,344,71247,2,0,L|400:344,1,180,2|0,0:0|3:0,0:0:0:0:
396,188,71697,1,8,3:2:0:0:
496,264,71847,1,0,3:0:0:0:
336,116,71997,6,0,P|300:188|352:280,1,180,2|0,0:0|0:0,0:0:0:0:
200,232,72447,2,0,P|128:196|36:248,1,180,2|0,0:0|0:0,0:0:0:0:
124,104,72897,2,0,P|128:28|120:-12,1,90,0|0,3:0|3:0,0:0:0:0:
284,28,73197,6,0,B|376:52|376:52|472:24,1,180,2|0,0:0|0:0,0:0:0:0:
496,168,73647,2,0,B|528:300|528:300|475:273,1,180,2|0,0:0|3:0,0:0:0:0:
304,272,74097,1,4,3:3:0:0:
424,224,74247,1,0,3:0:0:0:
256,200,74397,6,0,P|216:256|276:356,1,180,2|0,0:0|0:0,0:0:0:0:
376,184,74847,2,0,P|384:112|376:-16,1,180,2|0,0:0|0:0,0:0:0:0:
184,20,75297,2,0,P|181:64|185:109,1,90,0|0,3:0|3:0,0:0:0:0:
172,224,75597,6,0,B|40:232|40:232|24:184,1,180,2|0,0:0|0:0,0:0:0:0:
284,244,76047,2,0,P|336:272|400:376,1,180,2|0,0:0|3:0,0:0:0:0:
208,312,76497,1,8,3:2:0:0:
264,144,76647,1,0,3:0:0:0:
416,240,76797,5,2,0:0:0:0:
452,268,77097,1,0,0:0:0:0:
228,116,77247,1,2,0:0:0:0:
192,92,77547,1,0,0:0:0:0:
412,76,77697,1,2,0:0:0:0:
312,248,77847,1,2,0:0:0:0:
300,52,77997,5,0,3:0:0:0:
300,52,78072,1,0,3:0:0:0:
300,52,78147,1,0,3:0:0:0:
440,176,78297,1,0,3:0:0:0:
184,196,78447,1,0,3:0:0:0:
412,76,78597,1,8,0:0:0:0:
192,92,78747,1,0,3:0:0:0:
312,248,78897,1,8,1:0:0:0:
368,4,79047,1,0,3:0:0:0:
144,20,79197,5,6,0:0:0:0:
