osu file format v14

[General]
AudioFilename: No title.mp3
AudioLeadIn: 0
PreviewTime: 50097
Countdown: 0
SampleSet: Soft
StackLeniency: 0.7
Mode: 0
LetterboxInBreaks: 0
WidescreenStoryboard: 0

[Editor]
Bookmarks: 50397,52797,55197,57597,59997,62397,64797,74247
DistanceSpacing: 1.5
BeatDivisor: 2
GridSize: 4
TimelineZoom: 0.7999989

[Metadata]
Title:No title
TitleUnicode:No title
Artist:Reol
ArtistUnicode:Reol
Creator:VINXIS
Version:Misuzu's Normal
Source:
Tags:title- title+ Kamio_Misuzu CelsiusLK deetz byfar Fast jieusieu toybot Hatsune Miku Giga-P dmARTS Anyosupenyosuyaya Lust Irreversible sukiNathan Leader Mishima Yurara
BeatmapID:713703
BeatmapSetID:320118

[Difficulty]
HPDrainRate:4
CircleSize:3
OverallDifficulty:4
ApproachRate:5
SliderMultiplier:0.8
SliderTickRate:1

[Events]
//Background and Video events
0,0,"Misuzu.jpg",0,0
//Break Periods
//Storyboard Layer 0 (Background)
//Storyboard Layer 1 (Fail)
//Storyboard Layer 2 (Pass)
//Storyboard Layer 3 (Foreground)
//Storyboard Sound Samples

[TimingPoints]
2397,300,4,2,9,40,1,0
7197,-100,4,2,9,50,0,0
50397,-100,4,2,9,60,0,1
69597,-100,4,2,9,50,0,0

[Colours]
Combo1 : 222,26,244
Combo2 : 155,255,198
Combo3 : 243,139,215
Combo4 : 0,255,128

[HitObjects]
176,300,2397,6,0,P|224:266|283:267,1,120,2|2,0:0|0:0,0:0:0:0:
412,352,3297,2,0,P|444:355|480:352,1,40,2|0,0:0|0:0,0:0:0:0:
496,328,3597,2,0,L|481:208,1,120,2|2,0:0|0:0,0:0:0:0:
340,12,4797,6,0,L|308:152,1,120,2|2,0:0|0:0,0:0:0:0:
144,328,5997,2,0,L|88:304,1,40,2|0,0:0|0:0,0:0:0:0:
36,240,6447,2,0,P|12:136|100:84,1,200,2|0,0:0|3:0,0:0:0:0:
176,52,7497,6,0,P|186:78|192:116,1,40,2|0,0:0|3:0,0:0:0:0:
320,176,8097,2,0,P|314:195|304:212,1,40,2|0,0:0|0:0,0:0:0:0:
256,232,8397,2,0,L|116:252,1,120,0|0,3:0|3:0,0:0:0:0:
0,328,9297,2,0,L|38:338,1,40,8|0,0:0|0:0,0:0:0:0:
92,340,9597,6,0,L|208:328,1,80,2|0,0:3|0:0,0:0:0:0:
224,328,10047,1,2,0:3:0:0:
316,372,10347,1,0,0:0:0:0:
368,364,10497,2,0,L|444:356,1,40,2|2,0:3|0:3,0:0:0:0:
460,348,10797,2,0,P|504:310|508:252,1,120,8|4,0:3|0:3,0:0:0:0:
440,172,11547,2,0,L|384:168,1,40,2|8,0:0|0:0,0:0:0:0:
316,228,11997,6,0,L|180:252,1,120,4|2,0:0|0:0,0:0:0:0:
60,176,12897,2,0,P|47:160|40:141,1,40,2|0,0:0|0:0,0:0:0:0:
56,92,13197,2,0,L|196:68,1,120,2|2,0:0|0:0,0:0:0:0:
256,204,14097,1,8,0:0:0:0:
256,204,14397,6,0,L|248:288,1,80,0|2,0:0|0:0,0:0:0:0:
292,312,14847,2,0,P|345:287|365:232,1,120,0|2,0:0|0:0,0:0:0:0:
364,128,15597,2,0,L|492:100,2,120,2|2|8,0:0|0:0|0:0,0:0:0:0:
264,96,16797,6,0,L|160:88,1,80,2|2,0:0|0:0,0:0:0:0:
132,88,17247,2,0,B|126:136|126:136|113:165|113:165|110:204,1,120,0|2,0:0|0:0,0:0:0:0:
8,212,17997,2,0,L|20:304,1,80,2|0,0:0|0:0,0:0:0:0:
36,340,18447,2,0,P|87:367|146:359,1,120,2|8,0:0|0:0,0:0:0:0:
224,292,19197,6,0,P|192:267|153:260,1,80,2|0,0:0|0:0,0:0:0:0:
108,264,19647,2,0,L|104:144,1,120,2|2,0:0|0:0,0:0:0:0:
204,108,20397,2,0,P|258:131|318:133,1,120,2|2,0:0|0:0,0:0:0:0:
372,44,21147,2,0,P|391:39|410:36,1,40,2|8,0:0|0:1,0:0:0:0:
488,108,21597,6,0,L|480:228,1,120,2|2,0:0|0:0,0:0:0:0:
436,376,22497,2,0,L|392:344,1,40,2|0,0:0|0:0,0:0:0:0:
360,328,22797,2,0,L|208:356,1,120,2|2,0:0|0:0,0:0:0:0:
168,276,23547,2,0,L|96:288,1,40,2|8,0:0|0:0,0:0:0:0:
28,308,23997,6,0,B|4:228|4:228|8:176,1,120,2|2,0:0|0:0,0:0:0:0:
28,32,24897,2,0,L|88:40,1,40,2|0,0:0|0:0,0:0:0:0:
104,76,25197,2,0,L|240:96,1,120,2|2,0:0|0:0,0:0:0:0:
320,56,25947,2,0,L|380:64,1,40,2|8,0:0|0:1,0:0:0:0:
452,108,26397,6,0,P|464:164|432:220,1,120,2|2,0:0|0:0,0:0:0:0:
288,268,27297,2,0,P|285:293|284:336,1,40,2|0,0:0|0:0,0:0:0:0:
320,348,27597,2,0,L|464:360,1,120,2|2,0:0|0:0,0:0:0:0:
512,280,28347,2,0,P|512:254|500:216,1,40,2|8,0:0|0:0,0:0:0:0:
448,156,28797,6,0,P|383:146|324:192,1,120,2|2,0:3|0:3,0:0:0:0:
224,276,29697,2,0,L|180:268,1,40,2|2,0:3|0:3,0:0:0:0:
136,248,29997,2,0,P|120:192|140:124,1,120,8|4,0:3|0:3,0:0:0:0:
232,12,30897,2,0,L|284:40,1,40,8|0,0:1|0:0,0:0:0:0:
320,40,31197,6,0,L|468:28,1,120,4|2,0:1|0:0,0:0:0:0:
496,160,32097,2,0,L|436:148,1,40,2|0,0:0|0:0,0:0:0:0:
404,148,32397,2,0,L|440:288,1,120,2|2,0:0|0:0,0:0:0:0:
360,336,33147,2,0,L|352:380,2,40,0|8|0,0:0|0:0|0:0,0:0:0:0:
352,284,33597,6,0,L|224:316,1,120,2|2,0:0|0:0,0:0:0:0:
88,364,34497,2,0,L|32:336,1,40,2|0,0:0|0:0,0:0:0:0:
36,304,34797,2,0,P|16:252|32:188,1,120,2|2,0:0|0:0,0:0:0:0:
144,84,35697,2,0,L|180:128,1,40,8|0,0:0|0:0,0:0:0:0:
184,164,35997,6,0,L|312:176,1,120,2|2,0:0|0:0,0:0:0:0:
396,300,36897,2,0,L|464:288,1,40,2|0,0:0|0:0,0:0:0:0:
476,264,37197,2,0,P|496:208|476:140,1,120,2|2,0:0|0:0,0:0:0:0:
420,68,37947,2,0,P|424:40|432:16,2,40,0|8|0,0:0|0:0|0:0,0:0:0:0:
388,108,38397,6,0,L|268:92,1,120,2|2,0:0|0:0,0:0:0:0:
132,16,39297,2,0,L|68:36,1,40,2|0,0:0|0:0,0:0:0:0:
48,56,39597,2,0,L|96:200,1,120,2|2,0:0|0:0,0:0:0:0:
236,208,40497,2,0,L|228:276,1,40,8|0,0:0|0:0,0:0:0:0:
216,300,40797,6,0,P|176:343|118:353,1,120,2|2,0:0|0:0,0:0:0:0:
8,260,41697,2,0,P|27:255|47:255,1,40,2|0,0:0|0:0,0:0:0:0:
100,264,41997,2,0,L|64:124,1,120,2|2,0:0|0:0,0:0:0:0:
160,20,42897,2,0,L|216:32,1,40,8|0,0:0|0:0,0:0:0:0:
232,72,43197,6,0,L|380:44,1,120,0|2,0:0|0:0,0:0:0:0:
452,36,43947,2,0,L|428:-4,2,40,2|0|0,0:0|0:0|0:0,0:0:0:0:
448,88,44397,2,0,L|416:232,1,120,2|2,0:0|0:0,0:0:0:0:
284,276,45297,2,0,L|296:313,1,40,8|0,0:1|0:0,0:0:0:0:
328,356,45597,6,0,P|385:368|436:339,1,120,2|2,0:0|0:0,0:0:0:0:
456,184,46497,2,0,P|432:184|388:196,1,40,2|0,0:0|0:0,0:0:0:0:
372,216,46797,2,0,P|332:173|330:115,1,120,2|2,0:0|0:0,0:0:0:0:
424,8,47697,1,8,0:0:0:0:
504,72,47997,5,2,0:3:0:0:
420,140,48297,2,0,L|356:160,1,40,0|2,0:0|0:3,0:0:0:0:
300,88,48747,2,0,L|311:38,2,40,0|2|2,0:0|0:3|0:3,0:0:0:0:
284,140,49197,2,0,B|236:148|236:148|116:128,1,160,2|2,0:0|0:0,0:0:0:0:
88,92,49947,1,2,0:0:0:0:
40,112,50097,2,0,L|48:176,1,40,8|2,0:0|0:0,0:0:0:0:
36,212,50397,6,0,B|30:260|30:260|17:289|17:289|14:328,1,120,6|2,0:0|0:0,0:0:0:0:
128,368,51147,1,0,0:0:0:0:
188,368,51297,2,0,P|224:368|264:360,1,40,2|0,0:0|0:0,0:0:0:0:
280,336,51597,2,0,L|264:208,1,120,2|2,0:0|0:0,0:0:0:0:
240,100,52347,1,0,0:0:0:0:
228,40,52497,2,0,L|288:40,1,40,8|0,0:0|0:0,0:0:0:0:
324,64,52797,6,0,L|464:56,1,120,2|2,0:0|0:0,0:0:0:0:
504,160,53547,1,0,0:0:0:0:
496,220,53697,2,0,L|516:284,1,40,2|0,0:0|0:0,0:0:0:0:
492,316,53997,2,0,L|344:292,1,120,2|2,0:0|0:0,0:0:0:0:
264,240,54747,1,0,0:0:0:0:
212,272,54897,2,0,L|172:288,1,40,8|0,0:1|0:0,0:0:0:0:
124,320,55197,6,0,L|-8:300,1,120,2|2,0:0|0:0,0:0:0:0:
8,184,55947,1,0,0:0:0:0:
16,124,56097,2,0,L|56:128,1,40,2|0,0:0|0:0,0:0:0:0:
116,120,56397,2,0,B|136:68|136:68|128:56|128:56|144:8,1,120,2|2,0:0|0:0,0:0:0:0:
252,60,57147,1,0,0:0:0:0:
264,120,57297,2,0,L|272:168,1,40,8|0,0:0|0:0,0:0:0:0:
276,220,57597,6,0,L|420:180,1,120,0|2,0:0|0:0,0:0:0:0:
500,156,58347,1,0,0:0:0:0:
496,216,58497,2,0,L|508:276,1,40,2|0,0:0|0:0,0:0:0:0:
492,316,58797,2,0,L|360:300,1,120,2|2,0:0|0:0,0:0:0:0:
260,344,59547,1,0,0:0:0:0:
268,284,59697,2,0,L|276:224,1,40,8|0,0:0|0:0,0:0:0:0:
280,184,59997,6,0,L|140:216,1,120,2|2,0:0|0:0,0:0:0:0:
136,328,60747,1,0,0:0:0:0:
88,360,60897,2,0,L|36:352,1,40,2|0,0:0|0:0,0:0:0:0:
20,300,61197,2,0,L|32:160,1,120,2|2,0:0|0:0,0:0:0:0:
35,60,61947,1,0,0:0:0:0:
92,80,62097,2,0,L|148:112,1,40,8|0,0:0|0:0,0:0:0:0:
184,120,62397,6,0,L|303:132,1,120,2|2,0:0|0:0,0:0:0:0:
320,12,63147,1,0,0:0:0:0:
380,20,63297,2,0,L|448:28,1,40,2|0,0:0|0:0,0:0:0:0:
464,68,63597,2,0,L|472:208,1,120,2|2,0:0|0:0,0:0:0:0:
480,308,64347,2,0,L|484:356,2,40,0|8|0,0:0|0:1|0:0,0:0:0:0:
420,296,64797,6,0,L|308:324,1,80,2|2,0:0|0:0,0:0:0:0:
288,292,65247,1,0,0:0:0:0:
116,348,65697,2,0,L|76:345,1,40,2|2,0:0|0:0,0:0:0:0:
24,312,65997,2,0,L|36:188,1,120,2|2,0:0|0:0,0:0:0:0:
92,172,66597,2,0,L|144:180,2,40,0|0|8,0:0|0:0|0:0,0:0:0:0:
28,68,67197,6,0,L|168:84,1,120,2|2,0:0|0:0,0:0:0:0:
268,92,67947,2,0,L|256:32,2,40,2|0|0,0:0|0:0|0:0,0:0:0:0:
288,148,68397,2,0,B|356:156|356:156|384:144|384:144|448:152,1,160,2|2,0:0|0:0,0:0:0:0:
512,64,69297,1,8,0:0:0:0:
416,24,69597,6,0,L|288:56,1,120,4|2,0:0|0:0,0:0:0:0:
196,68,70347,1,0,0:0:0:0:
144,52,70497,2,0,L|88:36,1,40,2|0,0:0|0:0,0:0:0:0:
56,28,70797,2,0,P|18:73|22:145,1,120,2|2,0:0|0:0,0:0:0:0:
44,232,71547,1,0,0:0:0:0:
76,272,71697,2,0,L|64:328,1,40,8|0,0:0|0:0,0:0:0:0:
52,360,71997,6,0,L|192:340,1,120,2|2,0:0|0:0,0:0:0:0:
272,364,72747,1,0,0:0:0:0:
308,328,72897,2,0,L|368:320,1,40,2|0,0:0|0:0,0:0:0:0:
364,272,73197,2,0,L|508:248,1,120,2|2,0:0|0:0,0:0:0:0:
504,152,73947,1,0,0:0:0:0:
460,124,74097,2,0,L|420:130,1,40,8|0,0:1|0:0,0:0:0:0:
368,140,74397,6,0,L|379:20,1,120,2|2,0:0|0:0,0:0:0:0:
280,52,75147,1,0,0:0:0:0:
276,104,75297,2,0,L|272:144,1,40,2|0,0:0|0:0,0:0:0:0:
268,196,75597,2,0,L|136:216,1,120,2|2,0:0|0:0,0:0:0:0:
140,112,76347,1,0,0:0:0:0:
96,84,76497,2,0,L|36:76,1,40,8|0,0:0|0:0,0:0:0:0:
24,116,76797,6,0,L|4:220,1,80,2|0,0:3|0:0,0:0:0:0:
24,244,77247,1,2,0:3:0:0:
64,340,77547,1,0,0:0:0:0:
116,352,77697,2,0,L|188:336,1,40,2|2,0:3|0:3,0:0:0:0:
184,300,77997,6,0,L|256:284,3,40,8|8|4|4,0:3|0:3|0:3|0:3,0:0:0:0:
248,248,78597,2,0,L|320:232,3,40,4|4|4|4,0:3|0:3|0:3|0:3,0:0:0:0:
316,196,79197,5,4,0:0:0:0:
