osu file format v14

[General]
AudioFilename: No title.mp3
AudioLeadIn: 0
PreviewTime: 50097
Countdown: 0
SampleSet: Soft
StackLeniency: 0.7
Mode: 0
LetterboxInBreaks: 0
WidescreenStoryboard: 1

[Editor]
DistanceSpacing: 1.6
BeatDivisor: 4
GridSize: 4
TimelineZoom: 1.4

[Metadata]
Title:No title
TitleUnicode:No title
Artist:Reol
ArtistUnicode:Reol
Creator:VINXIS
Version:Light Insane
Source:
Tags:title- title+ Kamio_Misuzu CelsiusLK deetz byfar Fast jieusieu toybot Hatsune Miku Giga-P dmARTS Anyosupenyosuyaya Lust Irreversible sukiNathan Leader Mishima Yurara
BeatmapID:713935
BeatmapSetID:320118

[Difficulty]
HPDrainRate:5
CircleSize:4
OverallDifficulty:7.5
ApproachRate:8.8
SliderMultiplier:1.6
SliderTickRate:1

[Events]
//Background and Video events
0,0,"LIGHT Insanae.jpg",0,0
//Break Periods
//Storyboard Layer 0 (Background)
//Storyboard Layer 1 (Fail)
//Storyboard Layer 2 (Pass)
//Storyboard Layer 3 (Foreground)
//Storyboard Sound Samples

[TimingPoints]
2397,300,4,2,1,40,1,0
2397,-142.857142857143,4,2,1,40,0,0
50397,-105.263157894737,4,2,1,70,0,1
69597,-125,4,2,1,50,0,0

[Colours]
Combo1 : 71,85,99
Combo2 : 168,168,168
Combo3 : 255,255,185
Combo4 : 132,255,193

[HitObjects]
221,174,2397,6,0,P|294:190|383:159,1,167.999994873047,2|2,0:0|0:0,0:0:0:0:
122,100,3297,1,0,0:0:0:0:
122,100,3447,1,0,0:0:0:0:
122,100,3597,6,0,B|113:183|113:183|138:280,1,167.999994873047,2|2,0:0|0:0,0:0:0:0:
335,158,4347,2,0,P|283:177|228:170,1,111.999996582031,0|0,0:0|0:0,0:0:0:0:
273,87,4797,6,0,L|262:266,1,167.999994873047,2|2,0:0|0:0,0:0:0:0:
376,334,5547,2,0,P|421:336|496:309,1,111.999996582031,0|0,0:0|0:0,0:0:0:0:
475,180,5997,5,2,0:0:0:0:
475,180,6147,1,0,0:0:0:0:
192,111,6447,2,0,L|195:241,1,111.999996582031,2|0,0:0|0:0,0:0:0:0:
145,306,6897,2,0,L|73:311,1,55.9999982910157,4|0,3:0|0:0,0:0:0:0:
33,234,7197,5,2,0:0:0:0:
192,111,7647,1,2,0:0:0:0:
312,275,8097,2,0,L|317:338,1,55.9999982910157,0|0,0:0|0:0,0:0:0:0:
396,353,8397,5,2,0:0:0:0:
386,151,8847,1,2,0:0:0:0:
259,195,9147,1,0,0:0:0:0:
259,195,9297,2,0,L|186:200,1,55.9999982910157,8|0,0:0|0:0,0:0:0:0:
114,150,9597,6,0,P|101:204|132:273,1,111.999996582031,2|0,0:0|0:0,0:0:0:0:
169,330,10047,2,0,P|214:314|291:320,1,111.999996582031,2|0,0:0|0:0,0:0:0:0:
332,244,10497,2,0,L|341:171,1,55.9999982910157,2|2,0:0|0:0,0:0:0:0:
392,61,10797,5,0,0:0:0:0:
392,61,10872,1,0,0:0:0:0:
392,61,10947,2,0,L|389:106,2,27.9999991455078,0|0|0,0:0|0:0|3:0,0:0:0:0:
302,57,11247,1,0,3:0:0:0:
273,141,11397,2,0,L|264:214,1,55.9999982910157,8|0,0:0|3:0,0:0:0:0:
252,285,11697,2,0,L|243:358,1,55.9999982910157,8|0,1:0|3:0,0:0:0:0:
146,318,11997,6,0,P|105:340|34:326,1,111.999996582031,6|0,0:0|0:0,0:0:0:0:
85,239,12447,2,0,P|126:217|197:231,1,111.999996582031,0|0,0:0|0:0,0:0:0:0:
268,288,12897,2,0,L|331:289,1,55.9999982910157,0|0,0:0|0:0,0:0:0:0:
401,224,13197,6,0,L|273:206,1,111.999996582031,2|0,0:0|0:0,0:0:0:0:
215,140,13647,2,0,L|343:122,1,111.999996582031,0|0,0:0|0:0,0:0:0:0:
416,79,14097,2,0,L|404:24,1,55.9999982910157,8|0,0:0|0:0,0:0:0:0:
303,24,14397,6,0,L|247:25,1,55.9999982910157,2|0,0:0|0:0,0:0:0:0:
214,120,14697,2,0,L|269:118,1,55.9999982910157,0|0,0:0|0:0,0:0:0:0:
369,131,14997,1,0,0:0:0:0:
369,131,15147,1,0,0:0:0:0:
311,213,15297,1,0,0:0:0:0:
311,213,15447,1,0,0:0:0:0:
230,273,15597,6,0,L|227:349,1,55.9999982910157,2|0,0:0|0:0,0:0:0:0:
140,278,15897,2,0,L|143:202,1,55.9999982910157,0|0,0:0|0:0,0:0:0:0:
60,162,16197,2,0,L|57:238,1,55.9999982910157,0|0,0:0|0:0,0:0:0:0:
143,130,16497,1,4,3:0:0:0:
143,130,16647,1,0,0:0:0:0:
232,173,16797,6,0,P|276:177|355:153,1,111.999996582031,2|0,2:0|0:0,0:0:0:0:
397,76,17247,2,0,P|353:72|274:96,1,111.999996582031,0|0,0:0|0:0,0:0:0:0:
210,152,17697,2,0,L|206:232,1,55.9999982910157,0|0,0:0|0:0,0:0:0:0:
157,295,17997,6,0,P|125:312|47:307,1,111.999996582031,2|0,0:0|0:0,0:0:0:0:
101,221,18447,2,0,P|133:204|211:209,1,111.999996582031,0|0,0:0|0:0,0:0:0:0:
300,169,18897,2,0,L|290:97,1,55.9999982910157,8|0,0:0|0:0,0:0:0:0:
227,36,19197,6,0,L|171:44,2,55.9999982910157,2|0|0,0:0|0:0|0:0,0:0:0:0:
328,37,19647,2,0,L|384:29,2,55.9999982910157,0|0|0,0:0|0:0|0:0,0:0:0:0:
262,114,20097,2,0,L|272:186,1,55.9999982910157,0|0,0:0|0:0,0:0:0:0:
331,250,20397,6,0,L|397:251,1,55.9999982910157,2|0,0:0|0:0,0:0:0:0:
386,250,20622,1,0,0:0:0:0:
386,250,20697,1,0,0:0:0:0:
486,235,20847,1,0,0:0:0:0:
443,327,20997,2,0,L|436:382,1,55.9999982910157,0|0,0:0|0:0,0:0:0:0:
341,349,21297,2,0,L|256:346,1,83.9999974365235,4|0,3:0|0:0,0:0:0:0:
257,346,21597,5,6,0:0:0:0:
106,212,21897,1,0,0:0:0:0:
106,212,22047,1,0,0:0:0:0:
263,85,22347,1,0,0:0:0:0:
263,85,22497,2,0,L|323:80,1,55.9999982910157,0|0,0:0|0:0,0:0:0:0:
415,109,22797,6,0,L|430:188,1,55.9999982910157,2|0,0:0|0:0,0:0:0:0:
332,204,23097,2,0,L|347:283,1,55.9999982910157,0|0,0:0|0:0,0:0:0:0:
247,294,23397,2,0,P|189:310|135:304,1,111.999996582031,0|8,0:0|0:0,0:0:0:0:
69,114,23997,6,0,L|76:47,1,55.9999982910157,2|0,0:0|0:0,0:0:0:0:
174,72,24297,2,0,P|201:78|229:78,1,55.9999982910157,0|0,0:0|0:0,0:0:0:0:
427,39,24747,1,0,0:0:0:0:
427,39,24897,2,0,L|430:102,1,55.9999982910157,0|0,0:0|0:0,0:0:0:0:
406,193,25197,6,0,P|374:209|342:209,1,55.9999982910157,2|0,0:0|0:0,0:0:0:0:
274,148,25497,2,0,P|306:132|338:132,1,55.9999982910157,0|0,0:0|0:0,0:0:0:0:
283,222,25797,2,0,L|278:292,1,55.9999982910157,0|0,0:0|0:0,0:0:0:0:
202,343,26097,2,0,P|148:330|105:340,1,83.9999974365235,4|0,3:0|0:0,0:0:0:0:
121,333,26397,6,0,L|114:275,1,55.9999982910157,2|0,0:0|0:0,0:0:0:0:
137,179,26697,1,0,0:0:0:0:
188,92,26847,2,0,P|232:75|257:75,1,55.9999982910157,0|0,0:0|0:0,0:0:0:0:
322,134,27147,1,0,0:0:0:0:
410,85,27297,2,0,L|412:21,1,55.9999982910157,0|0,0:0|0:0,0:0:0:0:
323,78,27597,6,0,L|321:142,1,55.9999982910157,2|0,0:0|0:0,0:0:0:0:
308,233,27897,2,0,L|246:242,1,55.9999982910157,0|0,0:0|0:0,0:0:0:0:
152,227,28197,2,0,L|76:208,1,55.9999982910157,0|0,0:0|0:0,0:0:0:0:
40,129,28497,1,0,0:0:0:0:
74,327,28797,6,0,P|139:339|192:331,1,111.999996582031,2|0,0:0|0:0,0:0:0:0:
259,266,29247,2,0,L|263:144,1,111.999996582031,2|0,0:0|0:0,0:0:0:0:
168,189,29697,1,2,0:0:0:0:
168,189,29847,1,0,0:0:0:0:
106,109,29997,6,0,L|55:102,4,27.9999991455078,0|0|0|0|0,3:0|0:0|3:0|3:0|3:0,0:0:0:0:
198,67,30447,1,0,3:0:0:0:
262,144,30597,2,0,P|305:147|337:140,1,55.9999982910157,8|0,0:0|3:0,0:0:0:0:
405,94,30897,2,0,L|419:162,1,55.9999982910157,8|4,1:0|3:2,0:0:0:0:
391,246,31197,6,0,P|354:277|270:291,1,111.999996582031,2|0,0:0|0:0,0:0:0:0:
204,245,31647,2,0,P|241:214|325:200,1,111.999996582031,0|0,0:0|0:0,0:0:0:0:
247,113,32097,2,0,L|183:118,1,55.9999982910157
103,167,32397,6,0,L|88:288,1,111.999996582031,2|0,0:0|0:0,0:0:0:0:
161,348,32847,2,0,P|198:335|280:357,1,111.999996582031,0|0,0:0|0:0,0:0:0:0:
356,300,33297,2,0,L|366:229,1,55.9999982910157,8|0,0:0|0:0,0:0:0:0:
317,155,33597,5,2,0:0:0:0:
140,251,33897,1,0,0:0:0:0:
140,251,34047,1,0,0:0:0:0:
238,75,34347,1,0,0:0:0:0:
238,75,34497,2,0,L|249:137,1,55.9999982910157
276,227,34797,6,0,P|323:232|344:230,1,55.9999982910157,2|0,0:0|0:0,0:0:0:0:
426,198,35097,1,0,0:0:0:0:
510,257,35247,1,0,0:0:0:0:
483,115,35397,2,0,L|475:52,1,55.9999982910157,0|0,0:0|0:0,0:0:0:0:
398,124,35697,2,0,L|406:187,1,55.9999982910157,4|0,3:0|0:0,0:0:0:0:
401,300,35997,6,0,P|352:325|298:314,1,111.999996582031,2|0,0:0|0:0,0:0:0:0:
231,237,36447,2,0,P|279:211|333:222,1,111.999996582031,0|0,0:0|0:0,0:0:0:0:
388,138,36897,2,0,L|403:68,1,55.9999982910157
320,19,37197,5,2,0:0:0:0:
320,19,37347,2,0,L|251:25,1,55.9999982910157,0|0,0:0|0:0,0:0:0:0:
209,109,37647,1,0,0:0:0:0:
209,109,37797,2,0,P|252:112|268:110,1,55.9999982910157,0|0,0:0|0:0,0:0:0:0:
365,97,38097,2,0,P|408:94|424:96,1,55.9999982910157,8|0,0:0|0:0,0:0:0:0:
489,170,38397,6,0,L|477:291,1,111.999996582031,2|0,0:0|0:0,0:0:0:0:
385,321,38847,2,0,P|343:303|266:321,1,111.999996582031,0|0,0:0|0:0,0:0:0:0:
195,255,39297,2,0,L|185:189,1,55.9999982910157
232,110,39597,6,0,L|299:120,1,55.9999982910157,2|0,0:0|0:0,0:0:0:0:
287,118,39822,1,0,0:0:0:0:
287,118,39897,1,0,0:0:0:0:
384,145,40047,1,0,0:0:0:0:
320,223,40197,2,0,P|300:258|296:282,1,55.9999982910157,0|0,0:0|0:0,0:0:0:0:
395,291,40497,2,0,P|415:256|419:232,1,55.9999982910157,4|0,3:0|0:0,0:0:0:0:
384,145,40797,6,0,B|454:139|454:139|504:157,1,111.999996582031,2|0,0:0|0:0,0:0:0:0:
429,231,41247,2,0,B|359:237|359:237|309:219,1,111.999996582031,0|0,0:0|0:0,0:0:0:0:
221,245,41697,2,0,L|215:315,1,55.9999982910157
133,358,41997,5,2,0:0:0:0:
133,358,42147,2,0,L|66:360,1,55.9999982910157,0|0,0:0|0:0,0:0:0:0:
52,262,42447,1,0,0:0:0:0:
52,262,42597,2,0,P|52:210|55:198,1,55.9999982910157,0|0,0:0|0:0,0:0:0:0:
120,131,42897,2,0,P|120:79|117:67,1,55.9999982910157,8|0,0:0|0:0,0:0:0:0:
218,95,43197,6,0,P|277:114|348:105,1,111.999996582031,2|0,0:0|0:0,0:0:0:0:
422,81,43647,2,0,L|430:201,1,111.999996582031,0|0,0:0|0:0,0:0:0:0:
360,266,44097,1,0,0:0:0:0:
360,266,44247,1,0,0:0:0:0:
266,304,44397,5,2,0:0:0:0:
266,304,44547,2,0,P|229:258|236:191,1,111.999996582031
85,214,44997,2,0,L|157:217,1,55.9999982910157,0|0,0:0|0:0,0:0:0:0:
196,132,45297,2,0,L|124:129,1,55.9999982910157,4|0,3:0|0:0,0:0:0:0:
68,197,45597,6,0,L|52:318,1,111.999996582031,2|0,0:0|0:0,0:0:0:0:
142,259,46047,2,0,L|158:138,1,111.999996582031,0|0,0:0|0:0,0:0:0:0:
244,96,46497,1,0,0:0:0:0:
322,159,46647,1,0,0:0:0:0:
394,88,46797,6,0,P|433:73|503:87,1,111.999996582031,2|0,0:0|0:0,0:0:0:0:
481,184,47247,2,0,L|474:317,1,111.999996582031,0|0,0:0|0:0,0:0:0:0:
383,339,47697,2,0,P|338:346|322:344,1,55.9999982910157,8|0,0:0|0:0,0:0:0:0:
241,291,47997,6,0,B|232:238|232:238|242:159,1,111.999996582031,2|0,0:0|0:0,0:0:0:0:
323,124,48447,2,0,B|330:181|330:181|321:234,1,111.999996582031,2|0,0:0|0:0,0:0:0:0:
382,314,48897,2,0,L|454:311,1,55.9999982910157,2|2,0:0|0:0,0:0:0:0:
458,206,49197,6,0,L|450:160,4,27.9999991455078,0|0|0|0|0,3:0|0:0|3:0|0:0|3:0,0:0:0:0:
388,280,49647,1,0,3:0:0:0:
311,214,49797,2,0,L|239:215,1,55.9999982910157,8|0,0:0|3:0,0:0:0:0:
215,308,50097,2,0,L|287:307,1,55.9999982910157,8|0,1:0|3:0,0:0:0:0:
392,248,50397,6,0,P|396:195|332:127,1,151.999995941162,4|0,1:2|0:0,0:0:0:0:
194,134,50847,2,0,P|125:146|45:121,1,151.999995941162,0|0,1:0|0:0,0:0:0:0:
74,257,51297,2,0,L|84:346,1,75.9999979705811,0|0,3:0|3:0,0:0:0:0:
174,230,51597,6,0,P|248:229|302:291,1,151.999995941162,0|0,1:0|0:0,0:0:0:0:
424,225,52047,2,0,L|407:138,1,75.9999979705811,0|0,1:0|0:0,0:0:0:0:
299,69,52347,1,0,3:0:0:0:
273,203,52497,1,0,3:0:0:0:
327,77,52647,1,0,3:0:0:0:
198,124,52797,6,0,B|131:137|131:137|48:132,1,151.999995941162,0|0,1:0|0:0,0:0:0:0:
155,48,53247,2,0,B|222:35|222:35|305:40,1,151.999995941162,0|0,1:0|0:0,0:0:0:0:
357,166,53697,2,0,P|362:203|355:240,1,75.9999979705811,0|0,3:0|3:0,0:0:0:0:
227,291,53997,6,0,L|149:285,2,75.9999979705811,0|0|0,1:0|0:0|0:0,0:0:0:0:
353,344,54447,2,0,L|510:335,1,151.999995941162,0|0,1:0|3:0,0:0:0:0:
477,200,54897,1,0,3:0:0:0:
340,194,55047,1,0,3:0:0:0:
238,285,55197,6,0,L|227:366,1,75.9999979705811,0|0,1:0|0:0,0:0:0:0:
112,287,55497,2,0,L|123:206,1,75.9999979705811,0|0,0:0|1:0,0:0:0:0:
190,93,55797,2,0,P|227:87|264:93,1,75.9999979705811,0|0,0:0|0:0,0:0:0:0:
348,202,56097,2,0,P|385:207|422:202,1,75.9999979705811,0|0,3:0|3:0,0:0:0:0:
222,189,56397,6,0,L|212:264,1,75.9999979705811,0|0,1:0|0:0,0:0:0:0:
261,360,56697,1,0,0:0:0:0:
92,259,56847,1,0,1:0:0:0:
92,259,57147,1,0,3:0:0:0:
243,174,57297,2,0,P|293:166|343:174,1,75.9999979705811,0|0,3:0|3:0,0:0:0:0:
452,223,57597,6,0,L|443:308,1,75.9999979705811,0|0,1:0|0:0,0:0:0:0:
281,347,57897,2,0,L|290:262,1,75.9999979705811,0|0,0:0|1:0,0:0:0:0:
243,174,58197,1,0,0:0:0:0:
188,266,58347,1,0,0:0:0:0:
174,93,58497,2,0,P|232:75|279:77,1,75.9999979705811,0|0,3:0|3:0,0:0:0:0:
409,147,58797,6,0,P|351:165|304:163,2,75.9999979705811,0|0|0,1:0|0:0|0:0,0:0:0:0:
243,174,59247,2,0,P|236:243|259:331,1,151.999995941162,0|0,1:0|3:0,0:0:0:0:
155,350,59697,2,0,L|73:355,1,75.9999979705811,0|0,3:0|3:0,0:0:0:0:
81,248,59997,6,0,P|122:175|86:124,1,151.999995941162,4|0,1:2|0:0,0:0:0:0:
176,37,60447,2,0,B|204:63|204:63|246:53|286:65|286:65|333:36,1,151.999995941162,0|0,1:0|0:0,0:0:0:0:
395,113,60897,2,0,L|389:197,1,75.9999979705811,0|0,3:0|3:0,0:0:0:0:
327,347,61197,6,0,P|308:295|382:299,1,151.999995941162,0|0,1:0|0:0,0:0:0:0:
229,357,61647,2,0,L|216:255,1,75.9999979705811,0|0,1:0|0:0,0:0:0:0:
197,158,61947,1,0,3:0:0:0:
108,305,62097,1,0,3:0:0:0:
79,200,62247,1,0,3:0:0:0:
216,140,62397,6,0,P|288:134|377:145,1,151.999995941162,0|0,1:0|0:0,0:0:0:0:
444,214,62847,2,0,B|437:260|437:260|457:320|457:320|452:365,1,151.999995941162,0|0,1:0|0:0,0:0:0:0:
330,366,63297,2,0,L|342:291,1,75.9999979705811,0|0,3:0|3:0,0:0:0:0:
250,222,63597,6,0,P|207:226|174:219,1,75.9999979705811,0|0,1:0|0:0,0:0:0:0:
125,115,63897,1,0,0:0:0:0:
60,224,64047,2,0,B|48:276|48:276|72:372,1,151.999995941162,0|0,1:0|0:0,0:0:0:0:
170,351,64497,2,0,L|261:341,1,75.9999979705811,0|0,3:0|3:0,0:0:0:0:
355,298,64797,6,0,P|373:255|354:144,1,151.999995941162,0|0,1:0|0:0,0:0:0:0:
280,80,65247,1,0,1:0:0:0:
226,172,65397,2,0,L|135:184,1,75.9999979705811,0|0,0:0|0:0,0:0:0:0:
81,100,65697,2,0,L|172:88,1,75.9999979705811,0|0,3:0|3:0,0:0:0:0:
340,168,65997,5,0,1:0:0:0:
226,172,66147,1,0,0:0:0:0:
280,80,66297,1,0,0:0:0:0:
279,254,66447,1,0,1:0:0:0:
439,182,66597,1,0,3:0:0:0:
439,182,66747,1,0,3:0:0:0:
430,333,66897,1,0,3:0:0:0:
430,333,67047,1,0,3:0:0:0:
288,270,67197,6,0,P|243:270|198:280,2,75.9999979705811,2|0|0,0:0|0:0|0:0,0:0:0:0:
227,182,67647,2,0,P|189:188|151:187,2,75.9999979705811,2|0|0,0:0|0:0|0:0,0:0:0:0:
166,94,68097,2,0,P|121:94|76:104,1,75.9999979705811,2|2,0:0|0:0,0:0:0:0:
22,201,68397,5,0,3:0:0:0:
18,238,68472,1,0,0:0:0:0:
21,276,68547,1,0,3:0:0:0:
32,313,68622,1,0,3:0:0:0:
48,347,68697,1,0,3:0:0:0:
155,288,68847,1,8,0:0:0:0:
256,355,68997,2,0,P|322:359|361:350,1,75.9999979705811,0|0,3:0|3:0,0:0:0:0:
376,244,69297,2,0,P|310:240|271:249,1,75.9999979705811,8|0,1:0|3:0,0:0:0:0:
415,364,69597,6,0,B|459:343|459:343|490:246,1,128,6|0,0:0|0:0,0:0:0:0:
439,101,70047,2,0,L|403:229,1,128,2|0,0:0|0:0,0:0:0:0:
256,355,70497,1,0,3:0:0:0:
256,355,70647,1,0,3:0:0:0:
256,355,70797,6,0,P|174:360|104:343,1,128,2|0,0:0|0:0,0:0:0:0:
46,298,71247,2,0,P|77:244|51:189,1,128,2|0,0:0|3:0,0:0:0:0:
159,104,71697,1,8,3:2:0:0:
251,211,71847,1,0,3:0:0:0:
357,87,71997,6,0,B|412:82|412:82|505:90,1,128,2|0,0:0|0:0,0:0:0:0:
378,212,72447,2,0,B|323:217|323:217|230:209,1,128,2|0,0:0|0:0,0:0:0:0:
31,132,72897,1,0,3:0:0:0:
31,132,73047,1,0,3:0:0:0:
31,132,73197,6,0,L|26:217,2,64,2|0|0,0:0|0:0|0:0,0:0:0:0:
130,44,73647,1,2,0:0:0:0:
130,44,73947,1,0,3:0:0:0:
210,120,74097,2,0,L|294:124,1,64,4|0,3:3|3:0,0:0:0:0:
408,114,74397,6,0,P|430:172|405:230,1,128,2|0,0:0|0:0,0:0:0:0:
282,351,74847,2,0,P|259:292|284:234,1,128,2|0,0:0|0:0,0:0:0:0:
295,57,75297,1,0,3:0:0:0:
295,57,75447,1,0,3:0:0:0:
295,57,75597,6,0,B|235:77|235:77|146:63,1,128,2|0,0:0|0:0,0:0:0:0:
46,190,76047,2,0,B|106:170|106:170|195:184,1,128,2|0,0:0|3:0,0:0:0:0:
259,266,76497,2,0,P|305:279|356:276,1,96,8|0,3:2|0:0,0:0:0:0:
363,257,76797,6,0,L|377:127,1,128,2|0,0:0|0:0,0:0:0:0:
272,36,77247,1,2,0:0:0:0:
272,36,77547,1,0,0:0:0:0:
229,157,77697,1,2,0:0:0:0:
141,57,77847,1,2,0:0:0:0:
126,235,77997,5,0,3:0:0:0:
126,235,78072,1,0,0:0:0:0:
126,235,78147,2,0,L|132:289,2,32,0|0|0,3:0|0:0|3:0,0:0:0:0:
35,161,78447,1,0,3:0:0:0:
39,331,78597,2,0,P|85:349|119:348,1,64,8|0,0:0|3:0,0:0:0:0:
280,286,78897,2,0,P|234:268|200:269,1,64,8|0,1:0|3:0,0:0:0:0:
361,368,79197,5,6,0:0:0:0:
