osu file format v14

[General]
AudioFilename: No title.mp3
AudioLeadIn: 0
PreviewTime: 50097
Countdown: 0
SampleSet: Soft
StackLeniency: 0.7
Mode: 0
LetterboxInBreaks: 0
WidescreenStoryboard: 0

[Editor]
DistanceSpacing: 0.8
BeatDivisor: 4
GridSize: 4
TimelineZoom: 2.799999

[Metadata]
Title:No title
TitleUnicode:No title
Artist:Reol
ArtistUnicode:Reol
Creator:VINXIS
Version:Insane
Source:
Tags:title- title+ Kamio_Misuzu CelsiusLK deetz byfar Fast jieusieu toybot Hatsune Miku Giga-P dmARTS Anyosupenyosuyaya Lust Irreversible sukiNathan Leader Mishima Yurara
BeatmapID:712376
BeatmapSetID:320118

[Difficulty]
HPDrainRate:5.9
CircleSize:4
OverallDifficulty:8.1
ApproachRate:9.1
SliderMultiplier:1.8
SliderTickRate:1

[Events]
//Background and Video events
0,0,"Insanae.jpg",0,0
//Break Periods
//Storyboard Layer 0 (Background)
//Storyboard Layer 1 (Fail)
//Storyboard Layer 2 (Pass)
//Storyboard Layer 3 (Foreground)
//Storyboard Sound Samples

[TimingPoints]
2397,300,4,2,1,60,1,0
2397,-181.818181818181,4,2,1,60,0,0
6897,-153.846153846153,4,2,1,60,0,0
7197,-142.857142857143,4,2,1,60,0,0
10797,-125,4,2,1,60,0,0
11997,-125,4,2,1,60,0,0
23697,-200,4,2,1,80,0,0
23997,-125,4,2,1,80,0,0
26097,-142.857142857143,4,2,1,80,0,0
26397,-125,4,2,1,80,0,0
50397,-105.263157894737,4,2,1,100,0,1
69597,-125,4,2,1,80,0,0
76797,-142.857142857143,4,2,1,80,0,0

[Colours]
Combo1 : 0,170,170
Combo2 : 151,255,151
Combo3 : 255,89,89
Combo4 : 213,255,170

[HitObjects]
307,292,2397,6,0,P|379:306|446:277,1,148.50000453186,2|2,0:0|0:0,0:0:0:0:
351,117,3297,1,0,0:0:0:0:
272,65,3447,1,0,0:0:0:0:
214,171,3597,6,0,L|210:324,1,148.50000453186,2|2,0:0|0:0,0:0:0:0:
251,192,4347,2,0,B|307:196|307:196|354:186,1,99.0000030212403,0|0,0:0|0:0,0:0:0:0:
168,97,4797,6,0,P|130:158|151:232,1,148.50000453186,2|2,0:0|0:0,0:0:0:0:
346,325,5547,1,0,0:0:0:0:
285,93,5847,1,0,0:0:0:0:
241,178,5997,6,0,L|174:178,1,49.5000015106202,2|0,0:0|0:0,0:0:0:0:
361,217,6447,2,0,P|371:168|350:116,1,99.0000030212403,2|0,0:0|0:0,0:0:0:0:
261,61,6897,2,0,B|216:72|216:72|168:66,1,87.749995983124,4|0,3:0|0:0,0:0:0:0:
153,59,7197,6,0,P|162:109|133:190,1,125.999996154785,2|0,0:0|0:0,0:0:0:0:
228,298,7647,2,0,P|219:248|248:167,1,125.999996154785,2|0,0:0|0:0,0:0:0:0:
355,122,8097,1,0,0:0:0:0:
318,250,8247,1,0,0:0:0:0:
160,163,8397,6,0,B|118:154|118:154|32:166,1,125.999996154785,2|0,0:0|0:0,0:0:0:0:
114,298,8847,2,0,B|156:307|156:307|242:295,1,125.999996154785,2|0,0:0|0:0,0:0:0:0:
418,71,9297,2,0,P|378:45|332:45,1,94.499997116089,8|0,0:0|0:0,0:0:0:0:
332,45,9597,5,2,0:0:0:0:
226,218,9897,1,0,0:0:0:0:
154,151,10047,1,2,0:0:0:0:
154,151,10347,1,0,0:0:0:0:
321,186,10497,1,2,0:0:0:0:
215,319,10647,1,2,0:0:0:0:
240,121,10797,5,0,3:0:0:0:
240,121,10872,1,0,3:0:0:0:
240,121,10947,1,0,3:0:0:0:
240,121,11022,1,0,3:0:0:0:
240,121,11097,1,0,3:0:0:0:
301,289,11247,1,0,3:0:0:0:
134,254,11397,1,8,0:0:0:0:
226,218,11547,1,0,3:0:0:0:
108,358,11697,2,0,L|16:366,1,72,8|0,1:0|3:0,0:0:0:0:
205,217,11997,6,0,P|212:252|207:288,1,72,6|0,0:0|0:0,0:0:0:0:
63,291,12297,2,0,P|55:255|61:220,1,72,0|0,0:0|0:0,0:0:0:0:
119,105,12597,2,0,B|173:121|173:121|243:118,1,108,0|0,0:0|0:0,0:0:0:0:
224,118,12897,1,0,0:0:0:0:
319,48,13047,1,0,0:0:0:0:
365,157,13197,6,0,P|363:197|352:231,1,72,2|0,0:0|0:0,0:0:0:0:
261,315,13497,1,0,0:0:0:0:
195,235,13647,2,0,L|77:229,1,108,0|0,0:0|0:0,0:0:0:0:
87,229,13947,1,0,0:0:0:0:
126,41,14097,1,8,0:0:0:0:
187,122,14247,1,0,0:0:0:0:
90,150,14397,6,0,L|17:153,1,72,2|0,0:0|0:0,0:0:0:0:
284,94,14697,2,0,L|357:91,1,72,0|0,0:0|0:0,0:0:0:0:
248,203,14997,2,0,L|175:206,1,72,0|0,0:0|0:0,0:0:0:0:
126,41,15297,2,0,L|199:38,1,72,0|0,0:0|0:0,0:0:0:0:
383,109,15597,6,0,P|389:144|385:179,2,72,2|0|0,0:0|0:0|0:0,0:0:0:0:
251,177,16047,2,0,P|246:212|253:247,1,72,0|0,0:0|0:0,0:0:0:0:
253,247,16347,1,0,0:0:0:0:
284,94,16497,1,4,3:0:0:0:
137,160,16647,1,0,0:0:0:0:
216,317,16797,6,0,P|250:327|285:323,1,72,2|0,2:0|0:0,0:0:0:0:
139,253,17097,2,0,P|104:242|69:246,1,72,0|0,0:0|0:0,0:0:0:0:
232,221,17397,2,0,L|239:145,1,72,0|0,0:0|0:0,0:0:0:0:
133,56,17697,2,0,L|126:132,1,72,0|0,0:0|0:0,0:0:0:0:
128,295,17997,5,2,0:0:0:0:
245,182,18147,1,0,0:0:0:0:
266,358,18297,1,0,0:0:0:0:
358,238,18447,1,0,0:0:0:0:
218,273,18597,1,0,0:0:0:0:
218,273,18747,1,0,0:0:0:0:
250,77,18897,1,8,0:0:0:0:
250,77,19047,1,0,0:0:0:0:
349,190,19197,6,0,L|265:194,1,72,2|0,0:0|0:0,0:0:0:0:
71,86,19497,2,0,L|155:82,1,72,0|0,0:0|0:0,0:0:0:0:
248,215,19797,2,0,L|245:304,1,72
137,178,20097,2,0,L|140:89,1,72,0|0,0:0|0:0,0:0:0:0:
263,116,20397,5,2,0:0:0:0:
139,205,20547,1,0,0:0:0:0:
139,205,20622,1,0,0:0:0:0:
139,205,20697,1,0,0:0:0:0:
161,25,20847,1,0,0:0:0:0:
248,215,20997,1,0,0:0:0:0:
346,84,21147,1,0,0:0:0:0:
396,305,21297,2,0,P|397:258|386:216,1,72,4|0,3:0|0:0,0:0:0:0:
346,84,21597,5,6,0:0:0:0:
293,201,21747,1,0,0:0:0:0:
466,129,21897,1,0,0:0:0:0:
466,129,22047,1,0,0:0:0:0:
223,51,22347,1,0,0:0:0:0:
148,114,22497,2,0,L|145:187,1,72,0|0,0:0|0:0,0:0:0:0:
189,317,22797,6,0,P|239:319|275:306,1,72,2|0,0:0|0:0,0:0:0:0:
325,221,23097,2,0,P|360:213|395:217,1,72,0|0,0:0|0:0,0:0:0:0:
364,345,23397,1,0,0:0:0:0:
364,345,23547,1,0,0:0:0:0:
217,190,23697,6,0,L|219:110,1,67.5,8|0,0:0|0:0,0:0:0:0:
218,122,23997,5,2,0:0:0:0:
325,221,24147,1,0,0:0:0:0:
205,282,24297,1,0,0:0:0:0:
322,121,24447,2,0,P|391:106|462:118,1,144,0|0,0:0|0:0,0:0:0:0:
364,345,24897,2,0,L|285:343,1,72,0|0,0:0|0:0,0:0:0:0:
160,198,25197,5,2,0:0:0:0:
91,324,25347,1,0,0:0:0:0:
140,174,25497,1,0,0:0:0:0:
181,358,25647,1,0,0:0:0:0:
253,243,25797,2,0,P|289:240|329:244,1,72,0|0,0:0|0:0,0:0:0:0:
152,190,26097,6,0,L|165:81,1,94.499997116089,4|0,3:0|0:0,0:0:0:0:
163,96,26397,5,2,0:0:0:0:
260,32,26547,2,0,L|335:39,1,72,0|0,0:0|0:0,0:0:0:0:
424,105,26847,2,0,P|436:158|423:210,1,108,0|0,0:0|0:0,0:0:0:0:
402,233,27147,1,0,0:0:0:0:
266,152,27297,2,0,L|341:159,1,72,0|0,0:0|0:0,0:0:0:0:
272,272,27597,6,0,P|257:336|239:369,1,72,2|0,0:0|0:0,0:0:0:0:
158,229,27897,2,0,P|173:165|191:132,1,72,0|0,0:0|0:0,0:0:0:0:
270,49,28197,1,0,0:0:0:0:
340,145,28347,1,0,0:0:0:0:
151,69,28497,2,0,L|58:66,1,72,0|0,0:0|0:0,0:0:0:0:
14,197,28797,6,0,P|32:273|104:248,1,144,2|0,0:0|0:0,0:0:0:0:
228,145,29247,2,0,L|259:311,1,144,2|0,0:0|0:0,0:0:0:0:
384,350,29697,2,0,L|368:266,1,72,2|0,0:0|0:0,0:0:0:0:
298,80,29997,5,0,3:0:0:0:
267,61,30072,1,0,3:0:0:0:
232,53,30147,1,0,3:0:0:0:
197,57,30222,1,0,3:0:0:0:
164,72,30297,1,0,3:0:0:0:
97,227,30447,1,0,3:0:0:0:
24,138,30597,1,8,0:0:0:0:
11,323,30747,1,0,3:0:0:0:
197,237,30897,2,0,L|280:233,1,72,8|4,1:0|3:2,0:0:0:0:
434,118,31197,5,2,0:0:0:0:
348,163,31347,1,0,0:0:0:0:
298,80,31497,1,0,0:0:0:0:
188,154,31647,2,0,L|184:232,1,72,0|0,0:0|0:0,0:0:0:0:
236,317,31947,1,0,0:0:0:0:
321,196,32097,1,0,0:0:0:0:
366,376,32247,1,0,0:0:0:0:
432,206,32397,6,0,P|438:146|425:105,1,72,2|0,0:0|0:0,0:0:0:0:
388,37,32697,1,0,0:0:0:0:
281,114,32847,2,0,P|228:124|183:119,1,72,0|0,0:0|0:0,0:0:0:0:
86,95,33147,1,0,0:0:0:0:
130,276,33297,1,8,0:0:0:0:
130,276,33447,1,0,0:0:0:0:
238,208,33597,6,0,L|250:291,1,72,2|0,0:0|0:0,0:0:0:0:
358,313,33897,2,0,P|408:298|428:280,1,72,0|0,0:0|0:0,0:0:0:0:
436,123,34197,1,0,0:0:0:0:
356,208,34347,1,0,0:0:0:0:
496,210,34497,1,0,0:0:0:0:
496,210,34647,1,0,0:0:0:0:
316,88,34797,6,0,P|282:80|246:81,1,72,2|0,0:0|0:0,0:0:0:0:
157,223,35097,2,0,P|191:231|227:230,1,72,0|0,0:0|0:0,0:0:0:0:
88,112,35397,2,0,L|78:188,1,72,0|0,0:0|0:0,0:0:0:0:
103,332,35697,1,4,3:0:0:0:
157,223,35847,1,0,0:0:0:0:
257,308,35997,6,0,B|293:311|293:311|329:306,1,72,2|0,0:0|0:0,0:0:0:0:
417,211,36297,2,0,P|425:171|418:130,1,72,0|0,0:0|0:0,0:0:0:0:
277,76,36597,2,0,P|269:116|276:157,2,72,0|0|0,0:0|0:0|0:0,0:0:0:0:
392,21,37047,1,0,0:0:0:0:
303,240,37197,6,0,P|264:243|231:232,1,72,2|0,0:0|0:0,0:0:0:0:
157,118,37497,2,0,P|122:107|87:111,1,72,0|0,0:0|0:0,0:0:0:0:
29,203,37797,2,0,L|26:304,1,72,0|0,0:0|0:0,0:0:0:0:
158,360,38097,1,8,0:0:0:0:
186,262,38247,1,0,0:0:0:0:
311,333,38397,6,0,B|347:338|347:338|405:328,1,72,2|0,0:0|0:0,0:0:0:0:
301,149,38697,2,0,B|265:144|265:144|207:154,1,72,0|0,0:0|0:0,0:0:0:0:
151,263,38997,2,0,L|146:345,1,72,0|0,0:0|0:0,0:0:0:0:
285,262,39297,2,0,L|290:180,1,72
236,348,39597,6,0,L|317:346,1,72,2|0,0:0|0:0,0:0:0:0:
307,346,39822,1,0,0:0:0:0:
307,346,39897,1,0,0:0:0:0:
405,194,40047,1,0,0:0:0:0:
371,79,40197,1,0,0:0:0:0:
285,262,40347,1,0,0:0:0:0:
280,87,40497,1,4,3:0:0:0:
405,194,40647,6,0,L|316:178,1,72,0|2,0:0|0:0,0:0:0:0:
168,176,40947,1,0,0:0:0:0:
168,176,41097,2,0,P|214:228|245:238,1,72,0|0,0:0|0:0,0:0:0:0:
300,283,41397,2,0,P|334:231|424:189,1,144,0|0,0:0|0:0,0:0:0:0:
239,188,41847,6,0,L|150:172,1,72,0|2,0:0|0:0,0:0:0:0:
3,171,42147,1,0,0:0:0:0:
3,171,42297,2,0,P|49:223|80:233,1,72,0|0,0:0|0:0,0:0:0:0:
135,278,42597,2,0,P|169:226|259:184,1,144,0|8,0:0|0:0,0:0:0:0:
75,181,43047,6,0,L|-13:165,1,72,0|2,0:0|0:0,0:0:0:0:
65,90,43347,2,0,P|117:97|145:131,1,72,0|0,0:0|0:0,0:0:0:0:
86,271,43647,2,0,P|33:263|5:229,1,72,0|0,0:0|0:0,0:0:0:0:
75,181,43947,1,0,0:0:0:0:
215,293,44097,1,0,0:0:0:0:
45,349,44247,1,0,0:0:0:0:
172,180,44397,6,0,P|215:162|252:160,1,72,2|0,0:0|0:0,0:0:0:0:
346,171,44697,1,0,0:0:0:0:
306,291,44847,1,0,0:0:0:0:
346,134,44997,2,0,L|343:37,1,72,0|0,0:0|0:0,0:0:0:0:
212,263,45297,2,0,L|215:360,1,72,4|0,3:0|0:0,0:0:0:0:
71,306,45597,5,2,0:0:0:0:
137,216,45747,1,0,0:0:0:0:
30,191,45897,1,0,0:0:0:0:
155,116,46047,2,0,L|230:112,1,72,0|0,0:0|0:0,0:0:0:0:
306,48,46347,1,0,0:0:0:0:
375,139,46497,2,0,P|380:191|372:228,1,72,0|0,0:0|0:0,0:0:0:0:
305,297,46797,6,0,B|270:308|270:308|235:302,1,72,2|0,0:0|0:0,0:0:0:0:
155,200,47097,2,0,B|190:189|190:189|225:195,1,72,0|0,0:0|0:0,0:0:0:0:
106,309,47397,1,0,0:0:0:0:
106,309,47547,1,0,0:0:0:0:
71,100,47697,1,8,0:0:0:0:
222,114,47847,1,0,0:0:0:0:
49,235,47997,6,0,P|41:164|70:99,1,144,2|0,0:0|0:0,0:0:0:0:
243,147,48447,2,0,P|250:217|221:282,1,144,2|0,0:0|0:0,0:0:0:0:
318,320,48897,2,0,L|400:312,1,72,2|2,0:0|0:0,0:0:0:0:
478,220,49197,5,0,3:0:0:0:
488,177,49272,1,0,3:0:0:0:
489,133,49347,1,0,3:0:0:0:
473,92,49422,1,0,3:0:0:0:
444,59,49497,1,0,3:0:0:0:
367,158,49647,1,0,3:0:0:0:
213,53,49797,5,8,0:0:0:0:
367,158,49947,1,0,3:0:0:0:
181,164,50097,1,8,1:0:0:0:
328,49,50247,1,0,3:0:0:0:
275,229,50397,6,0,P|205:273|119:264,1,170.999995433807,4|0,1:2|0:0,0:0:0:0:
181,164,50847,2,0,P|251:119|337:129,1,170.999995433807,0|0,1:0|0:0,0:0:0:0:
466,192,51297,2,0,L|458:93,1,85.4999977169037,0|0,3:0|3:0,0:0:0:0:
356,168,51597,6,0,B|366:264|366:264|415:323,1,170.999995433807,0|0,1:0|0:0,0:0:0:0:
282,314,52047,2,0,L|271:194,1,85.4999977169037,0|0,1:0|0:0,0:0:0:0:
291,106,52347,1,0,3:0:0:0:
181,164,52497,1,0,3:0:0:0:
118,59,52647,1,0,3:0:0:0:
40,249,52797,6,0,P|99:306|182:303,1,170.999995433807,0|0,1:0|0:0,0:0:0:0:
248,193,53247,2,0,P|331:189|390:247,1,170.999995433807,0|0,1:0|0:0,0:0:0:0:
428,147,53697,2,0,L|410:56,1,85.4999977169037,0|0,3:0|3:0,0:0:0:0:
304,47,53997,6,0,P|246:66|183:62,1,85.4999977169037,0|0,1:0|0:0,0:0:0:0:
91,65,54297,1,0,0:0:0:0:
157,179,54447,2,0,L|169:272,1,85.4999977169037,0|0,1:0|0:0,0:0:0:0:
324,335,54747,1,0,3:0:0:0:
248,217,54897,1,0,3:0:0:0:
222,351,55047,1,0,3:0:0:0:
338,239,55197,6,0,L|350:146,1,85.4999977169037,0|0,1:0|0:0,0:0:0:0:
304,47,55497,1,0,0:0:0:0:
241,126,55647,2,0,P|198:129|157:117,1,85.4999977169037,0|0,1:0|0:0,0:0:0:0:
91,65,55947,1,0,0:0:0:0:
141,224,56097,1,0,3:0:0:0:
141,224,56247,1,0,3:0:0:0:
263,110,56397,6,0,L|366:108,1,85.4999977169037,0|0,1:0|0:0,0:0:0:0:
432,181,56697,1,0,0:0:0:0:
322,327,56847,2,0,P|260:272|264:189,1,170.999995433807,0|0,1:0|3:0,0:0:0:0:
329,26,57297,1,0,3:0:0:0:
329,26,57447,1,0,3:0:0:0:
181,146,57597,6,0,P|134:156|81:150,1,85.4999977169037,0|0,1:0|0:0,0:0:0:0:
253,246,57897,2,0,P|300:236|353:242,1,85.4999977169037,0|0,0:0|1:0,0:0:0:0:
296,132,58197,1,0,0:0:0:0:
296,132,58347,1,0,0:0:0:0:
299,335,58497,1,0,3:0:0:0:
360,218,58647,1,0,3:0:0:0:
228,255,58797,6,0,L|130:262,1,85.4999977169037,0|0,1:0|0:0,0:0:0:0:
142,261,59022,1,0,0:0:0:0:
142,261,59097,1,0,0:0:0:0:
198,110,59247,2,0,P|257:51|341:47,1,170.999995433807,0|0,1:0|3:0,0:0:0:0:
426,143,59697,2,0,L|439:229,1,85.4999977169037,0|0,3:0|3:0,0:0:0:0:
312,181,59997,6,0,P|242:137|156:146,1,170.999995433807,4|0,1:2|0:0,0:0:0:0:
218,246,60447,2,0,P|288:291|374:281,1,170.999995433807,0|0,1:0|0:0,0:0:0:0:
503,218,60897,2,0,L|495:317,1,85.4999977169037,0|0,3:0|3:0,0:0:0:0:
393,242,61197,6,0,B|403:146|403:146|452:87,1,170.999995433807,0|0,1:0|0:0,0:0:0:0:
319,96,61647,2,0,L|308:216,1,85.4999977169037,0|0,1:0|0:0,0:0:0:0:
328,304,61947,1,0,3:0:0:0:
218,246,62097,1,0,3:0:0:0:
155,351,62247,1,0,3:0:0:0:
77,161,62397,6,0,P|136:104|219:107,1,170.999995433807,0|0,1:0|0:0,0:0:0:0:
285,217,62847,2,0,P|368:221|427:163,1,170.999995433807,0|0,1:0|0:0,0:0:0:0:
465,263,63297,2,0,L|447:354,1,85.4999977169037,0|0,3:0|3:0,0:0:0:0:
341,363,63597,6,0,P|283:344|220:348,1,85.4999977169037,0|0,1:0|0:0,0:0:0:0:
128,345,63897,1,0,0:0:0:0:
194,231,64047,2,0,L|206:138,1,85.4999977169037,0|0,1:0|0:0,0:0:0:0:
361,75,64347,1,0,0:0:0:0:
285,193,64497,1,0,3:0:0:0:
259,59,64647,1,0,3:0:0:0:
375,171,64797,6,0,L|387:264,1,85.4999977169037,0|0,1:0|0:0,0:0:0:0:
341,363,65097,1,0,0:0:0:0:
278,284,65247,2,0,P|235:280|194:292,1,85.4999977169037,0|0,1:0|0:0,0:0:0:0:
128,345,65547,1,0,0:0:0:0:
178,186,65697,1,0,3:0:0:0:
178,186,65847,1,0,3:0:0:0:
300,300,65997,6,0,L|403:302,1,85.4999977169037,0|0,1:0|0:0,0:0:0:0:
469,229,66297,1,0,0:0:0:0:
359,82,66447,2,0,P|320:100|297:135,1,85.4999977169037,0|0,1:0|3:0,0:0:0:0:
250,248,66747,1,0,3:0:0:0:
375,171,66897,2,0,L|467:182,1,85.4999977169037,0|0,3:0|3:0,0:0:0:0:
477,317,67197,5,2,0:0:0:0:
300,300,67347,1,0,0:0:0:0:
469,229,67497,1,0,0:0:0:0:
392,348,67647,1,2,0:0:0:0:
375,171,67797,1,0,0:0:0:0:
304,340,67947,1,0,0:0:0:0:
224,192,68097,2,0,L|221:98,1,85.4999977169037,2|2,0:0|0:0,0:0:0:0:
98,112,68397,5,0,3:0:0:0:
95,165,68472,1,0,3:0:0:0:
93,218,68547,1,0,3:0:0:0:
90,272,68622,1,0,3:0:0:0:
88,325,68697,1,0,3:0:0:0:
213,235,68847,1,8,0:0:0:0:
304,340,68997,2,0,P|364:348|406:329,1,85.4999977169037,0|0,3:0|3:0,0:0:0:0:
259,150,69297,2,0,P|199:142|157:161,1,85.4999977169037,8|0,1:0|3:0,0:0:0:0:
329,217,69597,6,0,L|347:59,1,144,6|0,0:0|0:0,0:0:0:0:
258,149,70047,2,0,L|242:293,1,144,2|0,0:0|0:0,0:0:0:0:
117,366,70497,1,0,3:0:0:0:
149,205,70647,1,0,3:0:0:0:
331,245,70797,6,0,L|492:249,1,144,2|0,0:0|0:0,0:0:0:0:
287,119,71247,2,0,L|126:115,1,144,2|0,0:0|3:0,0:0:0:0:
97,285,71697,1,8,3:2:0:0:
196,219,71847,1,0,3:0:0:0:
226,354,71997,6,0,B|301:360|301:360|385:343,1,144,2|0,0:0|0:0,0:0:0:0:
429,111,72447,2,0,B|354:105|354:105|270:122,1,144,2|0,0:0|0:0,0:0:0:0:
331,245,72897,2,0,L|412:239,1,72,0|0,3:0|3:0,0:0:0:0:
219,71,73197,6,0,P|202:119|200:155,2,72,2|0|0,0:0|0:0|0:0,0:0:0:0:
223,244,73647,2,0,P|166:249|83:203,1,144,2|0,0:0|3:0,0:0:0:0:
209,52,74097,2,0,L|296:45,1,72,4|0,3:3|3:0,0:0:0:0:
432,57,74397,6,0,B|428:102|428:102|434:154|434:154|428:202,1,144,2|0,0:0|0:0,0:0:0:0:
340,290,74847,2,0,B|344:245|344:245|338:193|338:193|344:145,1,144,2|0,0:0|0:0,0:0:0:0:
248,57,75297,1,0,3:0:0:0:
248,57,75447,1,0,3:0:0:0:
284,218,75597,6,0,P|352:234|416:203,1,144,2|0,0:0|0:0,0:0:0:0:
227,149,76047,2,0,P|158:132|94:163,1,144,2|0,0:0|3:0,0:0:0:0:
42,291,76497,2,0,L|49:362,1,72,8|0,3:2|3:0,0:0:0:0:
186,360,76797,5,2,0:0:0:0:
322,119,77097,1,0,0:0:0:0:
196,176,77247,1,2,0:0:0:0:
196,176,77547,1,0,0:0:0:0:
290,246,77697,1,2,0:0:0:0:
241,53,77847,1,2,0:0:0:0:
116,103,77997,5,0,3:0:0:0:
93,144,78072,1,0,3:0:0:0:
89,190,78147,1,0,3:0:0:0:
105,234,78222,1,0,3:0:0:0:
138,268,78297,1,0,3:0:0:0:
272,335,78447,1,0,3:0:0:0:
337,144,78597,1,8,0:0:0:0:
196,176,78747,1,0,3:0:0:0:
336,271,78897,2,0,P|393:282|454:268,1,94.499997116089,8|0,1:0|0:0,0:0:0:0:
428,277,79197,5,6,0:0:0:0:
