osu file format v14

[General]
AudioFilename: No title.mp3
AudioLeadIn: 0
PreviewTime: 50097
Countdown: 0
SampleSet: Soft
StackLeniency: 0.3
Mode: 0
LetterboxInBreaks: 0
WidescreenStoryboard: 0

[Editor]
DistanceSpacing: 1.6
BeatDivisor: 4
GridSize: 32
TimelineZoom: 2.2

[Metadata]
Title:No title
TitleUnicode:No title
Artist:Reol
ArtistUnicode:Reol
Creator:VINXIS
Version:Fast's Expert
Source:
Tags:title- title+ Kamio_Misuzu CelsiusLK deetz byfar Fast jieusieu toybot Hatsune Miku Giga-P dmARTS Anyosupenyosuyaya Lust Irreversible sukiNathan Leader Mishima Yurara
BeatmapID:713867
BeatmapSetID:320118

[Difficulty]
HPDrainRate:6.3
CircleSize:4
OverallDifficulty:9
ApproachRate:9.4
SliderMultiplier:1.6
SliderTickRate:2

[Events]
//Background and Video events
0,0,"Fast.jpg",0,0
//Break Periods
//Storyboard Layer 0 (Background)
//Storyboard Layer 1 (Fail)
//Storyboard Layer 2 (Pass)
//Storyboard Layer 3 (Foreground)
//Storyboard Sound Samples

[TimingPoints]
2397,300,4,2,1,40,1,0
2397,-200,4,2,1,40,0,0
6897,-66.6666666666667,4,2,1,40,0,0
7197,-133.333333333333,4,2,1,50,0,0
30447,-100,4,2,1,50,0,0
31047,-111.111111111111,4,2,1,50,0,0
50397,-100,4,2,1,70,0,1
59697,-153.846153846154,4,2,1,70,0,1
59997,-100,4,2,1,70,0,1
69597,-100,4,2,1,50,0,0
77697,-66.6666666666667,4,2,1,50,0,0

[Colours]
Combo1 : 166,0,0
Combo2 : 155,255,198
Combo3 : 85,85,255
Combo4 : 0,113,56

[HitObjects]
88,74,2397,6,0,L|95:167,1,80,2|0,0:0|0:0,0:0:0:0:
148,259,2847,2,0,P|183:252|221:221,1,80,2|0,0:0|0:0,0:0:0:0:
46,250,3297,2,0,L|43:300,1,40,0|0,0:0|0:0,0:0:0:0:
238,317,3597,6,0,L|335:305,1,80,2|0,0:0|0:0,0:0:0:0:
467,235,4047,1,2,0:0:0:0:
472,231,4347,2,0,L|375:219,1,80,0|0,0:0|0:0,0:0:0:0:
199,243,4797,6,0,P|194:205|210:155,1,80,2|0,0:0|0:0,0:0:0:0:
316,29,5247,1,2,0:0:0:0:
320,24,5547,2,0,P|330:62|325:101,1,80,0|0,0:0|0:0,0:0:0:0:
151,231,5997,5,2,0:0:0:0:
61,129,6147,1,0,0:0:0:0:
180,96,6297,1,0,0:0:0:0:
73,239,6447,2,0,L|81:323,1,80,2|0,0:0|0:0,0:0:0:0:
151,231,6897,6,0,P|69:212|61:129,1,180.000006866455,4|0,3:0|0:0,0:0:0:0:
124,164,7197,5,2,0:0:0:0:
224,334,7347,1,0,0:0:0:0:
134,305,7497,1,0,0:0:0:0:
320,257,7647,2,0,L|331:379,1,120.000004577637,2|0,0:0|0:0,0:0:0:0:
211,229,8097,1,2,0:0:0:0:
340,73,8247,1,0,0:0:0:0:
174,132,8397,6,0,P|118:131|60:89,1,120.000004577637,2|0,0:0|0:0,0:0:0:0:
312,170,8847,2,0,P|368:169|426:127,1,120.000004577637,2|0,0:0|0:0,0:0:0:0:
340,73,9297,1,8,0:0:0:0:
378,275,9447,1,0,0:0:0:0:
184,206,9597,1,2,0:0:0:0:
176,199,9897,5,0,0:0:0:0:
420,134,10047,1,2,0:0:0:0:
425,144,10347,5,0,0:0:0:0:
112,74,10497,1,2,0:0:0:0:
114,66,10647,1,2,0:0:0:0:
192,160,10797,5,0,3:0:0:0:
7,219,10947,1,0,3:0:0:0:
28,222,11022,1,0,0:0:0:0:
49,226,11097,1,0,3:0:0:0:
195,345,11247,5,0,3:0:0:0:
79,364,11397,1,8,0:0:0:0:
192,160,11547,5,0,3:0:0:0:
230,233,11697,1,8,1:0:0:0:
109,156,11847,1,0,3:0:0:0:
236,90,11997,5,6,0:0:0:0:
311,250,12147,2,0,L|302:329,1,60.0000022888184,0|0,0:0|0:0,0:0:0:0:
235,190,12447,1,0,0:0:0:0:
396,225,12597,2,0,P|436:214|473:143,1,120.000004577637,0|0,0:0|0:0,0:0:0:0:
431,60,13047,1,0,0:0:0:0:
236,90,13197,6,0,L|245:169,1,60.0000022888184,2|0,0:0|0:0,0:0:0:0:
321,21,13497,1,0,0:0:0:0:
133,79,13647,2,0,L|4:68,1,120.000004577637,0|0,0:0|0:0,0:0:0:0:
242,149,14097,2,0,L|236:90,1,60.0000022888184,8|0,0:0|0:0,0:0:0:0:
25,178,14397,6,0,L|84:174,1,60.0000022888184,2|0,0:0|0:0,0:0:0:0:
298,213,14697,1,0,0:0:0:0:
191,193,14847,1,0,0:0:0:0:
40,293,14997,5,0,0:0:0:0:
147,273,15147,1,0,0:0:0:0:
298,373,15297,5,0,0:0:0:0:
191,353,15447,1,0,0:0:0:0:
31,284,15597,5,2,0:0:0:0:
138,264,15747,1,0,0:0:0:0:
22,275,15897,5,0,0:0:0:0:
191,353,16047,1,0,0:0:0:0:
298,213,16197,2,0,P|299:150|279:85,1,120.000004577637,0|4,0:0|3:0,0:0:0:0:
176,35,16647,1,0,0:0:0:0:
138,264,16797,5,2,2:0:0:0:
218,240,16947,1,0,0:0:0:0:
323,286,17097,5,0,0:0:0:0:
401,247,17247,1,0,0:0:0:0:
245,155,17397,5,0,0:0:0:0:
323,286,17547,1,0,0:0:0:0:
398,153,17697,2,0,L|387:82,1,60.0000022888184,0|0,0:0|0:0,0:0:0:0:
124,77,17997,5,2,0:0:0:0:
153,178,18147,1,0,0:0:0:0:
226,103,18297,1,0,0:0:0:0:
104,80,18447,5,0,0:0:0:0:
160,195,18597,1,0,0:0:0:0:
233,90,18747,1,0,0:0:0:0:
43,28,18897,2,0,P|25:83|29:106,1,60.0000022888184,8|0,0:0|0:0,0:0:0:0:
74,234,19197,5,2,0:0:0:0:
167,212,19347,1,0,0:0:0:0:
334,98,19497,5,0,0:0:0:0:
241,76,19647,1,0,0:0:0:0:
401,238,19797,6,0,L|397:154,1,60.0000022888184,0|0,0:0|0:0,0:0:0:0:
258,269,20097,1,0,0:0:0:0:
280,362,20247,1,0,0:0:0:0:
455,306,20397,5,2,0:0:0:0:
327,136,20547,1,0,0:0:0:0:
325,165,20622,1,0,0:0:0:0:
324,195,20697,1,0,0:0:0:0:
424,74,20847,1,0,0:0:0:0:
243,173,20997,5,0,0:0:0:0:
422,103,21147,1,0,0:0:0:0:
227,7,21297,2,0,L|235:96,1,90.0000034332277,4|0,3:0|0:0,0:0:0:0:
243,173,21597,5,6,0:0:0:0:
424,74,21897,2,0,L|349:66,1,60.0000022888184
154,157,22197,1,0,0:0:0:0:
243,173,22347,5,0,0:0:0:0:
144,165,22497,2,0,L|84:171,1,60.0000022888184,0|0,0:0|0:0,0:0:0:0:
288,250,22797,5,2,0:0:0:0:
243,173,22947,1,0,0:0:0:0:
180,307,23097,5,0,0:0:0:0:
228,183,23247,1,0,0:0:0:0:
333,327,23397,2,0,L|393:321,1,60.0000022888184,0|0,0:0|0:0,0:0:0:0:
356,91,23697,2,0,L|348:180,1,90.0000034332277,8|0,0:0|0:0,0:0:0:0:
341,254,23997,5,2,0:0:0:0:
264,41,24297,2,0,L|272:123,1,60.0000022888184,0|0,0:0|0:0,0:0:0:0:
341,254,24597,1,0,0:0:0:0:
361,176,24747,5,0,0:0:0:0:
349,264,24897,2,0,L|343:323,1,60.0000022888184,0|0,0:0|0:0,0:0:0:0:
152,297,25197,5,2,0:0:0:0:
241,243,25347,1,0,0:0:0:0:
246,249,25422,1,0,0:0:0:0:
251,255,25497,1,0,0:0:0:0:
238,362,25647,5,0,0:0:0:0:
71,325,25797,2,0,P|71:275|82:245,1,60.0000022888184,0|0,0:0|0:0,0:0:0:0:
196,162,26097,2,0,L|295:170,1,90.0000034332277,4|0,3:0|0:0,0:0:0:0:
361,176,26397,5,2,0:0:0:0:
251,255,26547,1,0,0:0:0:0:
118,143,26697,2,0,P|117:114|129:69,1,60.0000022888184,0|0,0:0|0:0,0:0:0:0:
345,15,26997,5,0,0:0:0:0:
338,92,27147,1,0,0:0:0:0:
277,140,27297,1,0,0:0:0:0:
200,128,27447,1,0,0:0:0:0:
154,65,27597,6,0,P|125:57|96:56,1,60.0000022888184,2|0,0:0|0:0,0:0:0:0:
251,255,27897,2,0,P|237:228|230:198,1,60.0000022888184,0|0,0:0|0:0,0:0:0:0:
345,15,28197,5,0,0:0:0:0:
277,140,28347,1,0,0:0:0:0:
421,39,28497,5,0,0:0:0:0:
200,128,28647,1,0,0:0:0:0:
301,230,28797,5,2,0:0:0:0:
359,99,28947,1,0,0:0:0:0:
230,199,29097,5,0,0:0:0:0:
419,164,29247,1,2,0:0:0:0:
345,15,29397,5,0,0:0:0:0:
386,251,29547,1,0,0:0:0:0:
230,199,29697,5,2,0:0:0:0:
419,164,29847,1,0,0:0:0:0:
292,349,29997,5,0,3:0:0:0:
110,222,30147,1,0,3:0:0:0:
115,204,30222,1,0,3:0:0:0:
120,187,30297,1,0,3:0:0:0:
176,316,30447,6,0,L|118:308,1,40,0|0,3:0|0:0,0:0:0:0:
47,298,30597,1,8,0:0:0:0:
216,227,30747,5,0,3:0:0:0:
35,282,30897,1,8,1:0:0:0:
135,81,31047,5,2,3:2:0:0:
280,181,31197,2,0,P|293:226|287:263,1,71.9999978027344,6|0,0:0|0:0,0:0:0:0:
176,316,31497,1,0,0:0:0:0:
103,181,31647,2,0,L|188:190,1,71.9999978027344
388,190,31947,1,0,0:0:0:0:
303,75,32097,1,0,0:0:0:0:
388,190,32247,6,0,L|280:181,1,107.999996704102,2|0,0:0|0:0,0:0:0:0:
216,227,32547,2,0,P|203:193|204:157,1,71.9999978027344
303,75,32847,1,0,0:0:0:0:
336,253,32997,2,0,L|324:328,1,71.9999978027344
204,157,33297,1,8,0:0:0:0:
336,253,33447,6,0,P|361:266|457:233,1,107.999996704102,2|0,0:0|0:0,0:0:0:0:
394,118,33747,2,0,L|388:190,1,71.9999978027344
338,52,34047,1,0,0:0:0:0:
480,129,34197,5,0,0:0:0:0:
265,209,34347,1,0,0:0:0:0:
394,118,34497,1,0,0:0:0:0:
246,22,34647,6,0,L|256:134,1,107.999996704102,2|0,0:0|0:0,0:0:0:0:
265,209,34947,1,0,0:0:0:0:
265,209,35097,1,0,0:0:0:0:
394,116,35247,1,0,0:0:0:0:
190,184,35397,2,0,L|54:169,1,107.999996704102
3,162,35697,1,4,3:0:0:0:
169,273,35847,6,0,P|239:265|300:327,1,143.999995605469,2|0,0:0|0:0,0:0:0:0:
94,356,36297,1,0,0:0:0:0:
59,246,36447,1,0,0:0:0:0:
113,362,36597,5,0,0:0:0:0:
142,171,36747,1,0,0:0:0:0:
51,258,36897,1,0,0:0:0:0:
214,353,37047,6,0,L|371:325,1,143.999995605469,2|0,0:0|0:0,0:0:0:0:
451,346,37497,2,0,P|447:301|430:266,1,71.9999978027344,0|0,0:0|0:0,0:0:0:0:
273,189,37797,1,0,0:0:0:0:
268,269,37947,1,0,0:0:0:0:
351,174,38097,5,8,0:0:0:0:
173,229,38247,2,0,P|161:180|193:68,1,143.999995605469,2|0,0:0|0:0,0:0:0:0:
444,70,38697,5,0,0:0:0:0:
349,49,38847,1,0,0:0:0:0:
167,71,38997,5,0,0:0:0:0:
262,92,39147,1,0,0:0:0:0:
358,44,39297,1,0,0:0:0:0:
453,65,39447,1,0,0:0:0:0:
296,187,39597,5,2,0:0:0:0:
158,106,39747,1,0,0:0:0:0:
162,88,39822,1,0,0:0:0:0:
167,71,39897,1,0,0:0:0:0:
223,219,40047,1,0,0:0:0:0:
55,162,40197,6,0,L|46:90,1,71.9999978027344,0|0,0:0|0:0,0:0:0:0:
13,247,40497,1,4,3:0:0:0:
174,152,40647,6,0,P|243:141|296:187,1,143.999995605469,2|0,0:0|0:0,0:0:0:0:
243,344,41097,1,0,0:0:0:0:
223,219,41247,1,0,0:0:0:0:
221,355,41397,5,0,0:0:0:0:
350,303,41547,1,0,0:0:0:0:
479,355,41697,1,0,0:0:0:0:
327,288,41847,6,0,P|317:221|347:135,1,143.999995605469,2|0,0:0|0:0,0:0:0:0:
471,91,42297,1,0,0:0:0:0:
512,309,42447,1,0,0:0:0:0:
512,309,42597,2,0,L|404:296,1,107.999996704102,0|0,0:0|0:0,0:0:0:0:
327,288,42897,1,8,0:0:0:0:
483,231,43047,6,0,P|493:164|463:78,1,143.999995605469,2|0,0:0|0:0,0:0:0:0:
281,53,43497,1,0,0:0:0:0:
224,143,43647,2,0,L|376:131,1,143.999995605469,0|0,0:0|0:0,0:0:0:0:
143,40,44097,1,0,0:0:0:0:
115,176,44247,1,0,0:0:0:0:
247,133,44397,5,2,0:0:0:0:
72,73,44547,1,0,0:0:0:0:
96,67,44622,1,0,0:0:0:0:
121,62,44697,1,0,0:0:0:0:
22,158,44847,5,0,0:0:0:0:
207,72,44997,1,0,0:0:0:0:
141,246,45147,5,0,0:0:0:0:
224,83,45297,1,4,3:0:0:0:
324,235,45447,6,0,P|256:209|197:219,1,107.999996704102,2|0,0:0|0:0,0:0:0:0:
141,246,45747,2,0,P|87:245|61:228,1,71.9999978027344,0|0,0:0|0:0,0:0:0:0:
182,142,46047,1,0,0:0:0:0:
116,329,46197,2,0,L|44:337,1,71.9999978027344
255,362,46497,2,0,L|329:353,1,71.9999978027344
178,193,46797,5,2,0:0:0:0:
162,313,46947,1,0,0:0:0:0:
291,238,47097,2,0,L|280:108,1,107.999996704102,0|0,0:0|0:0,0:0:0:0:
214,103,47397,2,0,L|311:116,1,71.9999978027344,0|0,0:0|0:0,0:0:0:0:
406,130,47697,1,8,0:0:0:0:
214,197,47847,5,0,0:0:0:0:
113,82,47997,2,0,P|113:28|125:-2,1,71.9999978027344,2|0,0:0|0:0,0:0:0:0:
214,197,48297,5,0,0:0:0:0:
14,161,48447,2,0,P|57:155|99:162,1,71.9999978027344,2|0,0:0|0:0,0:0:0:0:
214,197,48747,5,0,0:0:0:0:
317,92,48897,2,0,P|317:38|305:8,1,71.9999978027344,2|2,0:0|0:0,0:0:0:0:
197,284,49197,5,0,3:0:0:0:
250,274,49272,1,0,3:0:0:0:
303,265,49347,1,0,3:0:0:0:
356,255,49422,1,0,0:0:0:0:
409,246,49497,1,0,3:0:0:0:
198,194,49647,1,0,3:0:0:0:
298,356,49797,1,8,0:0:0:0:
351,115,49947,5,0,3:0:0:0:
310,346,50097,1,8,1:0:0:0:
203,80,50247,1,0,3:0:0:0:
161,268,50397,6,0,P|81:257|19:208,1,160,4|0,1:2|0:0,0:0:0:0:
314,240,50847,2,0,P|392:229|455:181,1,160,0|0,1:0|0:0,0:0:0:0:
137,70,51297,2,0,L|143:173,1,80,0|0,3:0|3:0,0:0:0:0:
261,350,51597,6,0,P|275:307|260:189,1,160,0|0,1:0|0:0,0:0:0:0:
151,59,52047,1,0,1:0:0:0:
9,228,52197,2,0,L|109:221,1,80,0|0,0:0|3:0,0:0:0:0:
302,98,52497,1,0,3:0:0:0:
240,239,52647,1,0,3:0:0:0:
442,157,52797,6,0,P|380:108|302:98,1,160,0|0,1:0|0:0,0:0:0:0:
98,298,53247,2,0,P|177:287|240:239,1,160,0|0,1:0|0:0,0:0:0:0:
91,105,53697,2,0,L|80:199,1,80,0|0,3:0|3:0,0:0:0:0:
14,377,53997,6,0,L|195:363,1,160,0|0,1:0|0:0,0:0:0:0:
386,316,54447,2,0,P|310:296|268:231,1,160,0|0,1:0|3:0,0:0:0:0:
230,84,54897,1,0,3:0:0:0:
230,84,55047,1,0,3:0:0:0:
108,270,55197,5,0,1:0:0:0:
266,229,55347,1,0,0:0:0:0:
425,189,55497,1,0,0:0:0:0:
294,128,55647,5,0,1:0:0:0:
266,229,55797,1,0,0:0:0:0:
240,332,55947,1,0,0:0:0:0:
192,155,56097,5,0,3:0:0:0:
341,304,56247,1,0,3:0:0:0:
108,270,56397,5,0,1:0:0:0:
266,229,56547,1,0,0:0:0:0:
240,332,56697,5,0,0:0:0:0:
192,155,56847,1,0,1:0:0:0:
425,189,56997,5,0,0:0:0:0:
266,229,57147,1,0,3:0:0:0:
294,128,57297,5,0,3:0:0:0:
341,304,57447,1,0,3:0:0:0:
192,155,57597,6,0,L|202:57,1,80,0|0,1:0|0:0,0:0:0:0:
413,73,57897,1,0,0:0:0:0:
269,13,58047,1,0,1:0:0:0:
251,220,58197,5,0,0:0:0:0:
415,180,58347,1,0,0:0:0:0:
281,22,58497,2,0,L|279:127,1,80,0|0,3:0|3:0,0:0:0:0:
366,292,58797,5,0,1:0:0:0:
206,206,58947,2,0,L|199:276,1,40
159,339,59097,1,0,0:0:0:0:
6,132,59247,2,0,B|-18:73|21:24|21:24|99:42,1,160,0|0,1:0|3:0,0:0:0:0:
252,112,59697,6,0,P|210:121|173:117,1,77.9999964294435,0|0,3:0|0:0,0:0:0:0:
86,211,59997,6,0,P|135:191|265:223,1,160,4|0,1:2|0:0,0:0:0:0:
401,363,60447,2,0,L|218:346,1,160,0|0,1:0|0:0,0:0:0:0:
42,289,60897,2,0,L|51:372,1,80,0|0,3:0|3:0,0:0:0:0:
168,189,61197,6,0,P|185:110|169:49,1,120,0|0,1:0|0:0,0:0:0:0:
124,14,61497,1,0,0:0:0:0:
46,184,61647,1,0,1:0:0:0:
261,222,61797,2,0,L|371:205,1,80,0|0,0:0|3:0,0:0:0:0:
151,112,62097,1,0,3:0:0:0:
127,280,62247,1,0,3:0:0:0:
361,351,62397,6,0,L|353:180,1,160,0|0,1:0|0:0,0:0:0:0:
242,23,62847,2,0,P|238:89|142:164,1,160,0|0,1:0|0:0,0:0:0:0:
2,273,63297,2,0,L|85:282,1,80,0|0,3:0|3:0,0:0:0:0:
267,364,63597,5,0,1:0:0:0:
175,199,63747,1,0,0:0:0:0:
177,234,63822,1,0,0:0:0:0:
179,270,63897,1,0,0:0:0:0:
340,129,64047,1,0,1:0:0:0:
345,122,64347,5,0,0:0:0:0:
183,205,64497,1,0,3:0:0:0:
45,86,64647,1,0,3:0:0:0:
202,8,64797,6,0,L|189:141,1,120,0|0,1:0|0:0,0:0:0:0:
183,205,65097,1,0,0:0:0:0:
183,205,65247,1,0,1:0:0:0:
88,99,65397,5,0,0:0:0:0:
295,183,65547,1,0,0:0:0:0:
118,320,65697,1,0,3:0:0:0:
163,185,65847,1,0,3:0:0:0:
231,374,65997,5,0,1:0:0:0:
32,251,66147,1,0,0:0:0:0:
238,140,66297,1,0,0:0:0:0:
167,293,66447,1,0,1:0:0:0:
140,73,66597,5,0,3:0:0:0:
253,293,66747,1,0,3:0:0:0:
52,251,66897,5,0,3:0:0:0:
303,222,67047,1,0,3:0:0:0:
241,27,67197,5,2,0:0:0:0:
222,274,67347,1,0,0:0:0:0:
468,222,67497,1,0,0:0:0:0:
161,140,67647,5,2,0:0:0:0:
364,289,67797,1,0,0:0:0:0:
446,34,67947,1,0,0:0:0:0:
213,237,68097,2,0,L|313:225,1,80,2|2,0:0|0:0,0:0:0:0:
120,54,68397,5,0,3:0:0:0:
113,110,68472,1,0,3:0:0:0:
107,166,68547,1,0,3:0:0:0:
100,222,68622,1,0,3:0:0:0:
94,278,68697,1,0,3:0:0:0:
224,124,68847,1,0,3:0:0:0:
315,341,68997,5,8,0:0:0:0:
106,292,69147,1,0,3:0:0:0:
311,146,69297,1,8,1:0:0:0:
194,368,69447,1,0,3:0:0:0:
32,188,69597,6,0,L|194:201,1,160,6|0,0:0|0:0,0:0:0:0:
405,304,70047,2,0,P|345:295|224:347,1,160,2|0,0:0|0:0,0:0:0:0:
109,197,70497,2,0,P|121:152|153:109,1,80,0|0,3:0|3:0,0:0:0:0:
316,111,70797,6,0,L|475:133,1,160,2|0,0:0|0:0,0:0:0:0:
206,34,71247,2,0,L|227:223,1,160,2|0,0:0|3:0,0:0:0:0:
240,352,71697,1,8,3:2:0:0:
240,352,71847,1,0,3:0:0:0:
388,226,71997,6,0,P|393:166|338:69,1,160,2|0,0:0|0:0,0:0:0:0:
141,170,72447,2,0,L|327:174,1,160,2|0,0:0|0:0,0:0:0:0:
44,82,72897,2,0,L|52:189,1,80,0|0,3:0|3:0,0:0:0:0:
64,310,73197,5,2,0:0:0:0:
154,186,73347,1,0,0:0:0:0:
45,295,73497,1,0,0:0:0:0:
240,352,73647,2,0,P|292:348|411:300,1,160,2|0,0:0|3:0,0:0:0:0:
474,145,74097,2,0,L|469:243,1,80,4|0,3:3|3:0,0:0:0:0:
361,21,74397,6,0,L|382:216,1,160,2|0,0:0|0:0,0:0:0:0:
402,335,74847,1,2,0:0:0:0:
409,328,75147,2,0,P|418:271|408:229,1,80,0|0,0:0|3:0,0:0:0:0:
292,178,75447,1,0,3:0:0:0:
158,298,75597,6,0,L|345:283,1,160,2|0,0:0|0:0,0:0:0:0:
493,202,76047,2,0,P|414:193|349:128,1,160,2|0,0:0|3:0,0:0:0:0:
310,14,76497,1,8,3:2:0:0:
306,21,76647,6,0,L|301:85,1,40,0|0,3:0|0:0,0:0:0:0:
292,178,76797,1,2,0:0:0:0:
287,188,77097,5,0,0:0:0:0:
387,109,77247,2,0,B|507:103|507:103|465:130,1,160,2|0,0:0|0:0,0:0:0:0:
338,251,77697,6,0,P|286:266|220:234,1,120,2|2,0:0|0:0,0:0:0:0:
110,105,77997,5,0,3:0:0:0:
113,64,78072,1,0,3:0:0:0:
117,24,78147,1,0,3:0:0:0:
217,183,78297,5,0,3:0:0:0:
0,92,78447,1,0,3:0:0:0:
260,35,78597,5,8,0:0:0:0:
43,191,78747,1,0,3:0:0:0:
310,132,78897,5,8,1:0:0:0:
161,323,79047,1,0,3:0:0:0:
436,111,79197,5,6,0:0:0:0:
