osu file format v14

[General]
AudioFilename: No title.mp3
AudioLeadIn: 0
PreviewTime: 50097
Countdown: 0
SampleSet: Soft
StackLeniency: 0.7
Mode: 0
LetterboxInBreaks: 0
WidescreenStoryboard: 1

[Editor]
Bookmarks: 6447
DistanceSpacing: 0.7
BeatDivisor: 4
GridSize: 4
TimelineZoom: 1

[Metadata]
Title:No title
TitleUnicode:No title
Artist:Reol
ArtistUnicode:Reol
Creator:VINXIS
Version:Celsius' Extra
Source:
Tags:title- title+ Kamio_Misuzu CelsiusLK deetz byfar Fast jieusieu toybot Hatsune Miku Giga-P dmARTS Anyosupenyosuyaya Lust Irreversible sukiNathan Leader Mishima Yurara
BeatmapID:714175
BeatmapSetID:320118

[Difficulty]
HPDrainRate:7
CircleSize:4
OverallDifficulty:8.2
ApproachRate:9.3
SliderMultiplier:2
SliderTickRate:2

[Events]
//Background and Video events
0,0,"Celsius2.jpg",0,0
//Break Periods
//Storyboard Layer 0 (Background)
//Storyboard Layer 1 (Fail)
//Storyboard Layer 2 (Pass)
//Storyboard Layer 3 (Foreground)
//Storyboard Sound Samples

[TimingPoints]
2397,300,4,2,99,50,1,0
2397,-200,4,2,99,50,0,0
11997,-133.333333333333,4,2,99,75,0,0
21297,-83.3333333333333,4,2,99,75,0,0
21597,-133.333333333333,4,2,99,75,0,0
23697,-83.3333333333333,4,2,99,75,0,0
23997,-133.333333333333,4,2,99,75,0,0
26097,-83.3333333333333,4,2,99,75,0,0
26397,-133.333333333333,4,2,99,75,0,0
28497,-83.3333333333333,4,2,99,75,0,0
28797,-133.333333333333,4,2,99,75,0,0
30897,-83.3333333333333,4,2,99,75,0,0
31197,-133.333333333333,4,2,99,75,0,0
35697,-83.3333333333333,4,2,99,75,0,0
35997,-133.333333333333,4,2,99,75,0,0
38097,-83.3333333333333,4,2,99,75,0,0
38397,-133.333333333333,4,2,99,75,0,0
40497,-83.3333333333333,4,2,99,75,0,0
40797,-133.333333333333,4,2,99,75,0,0
42897,-83.3333333333333,4,2,99,75,0,0
43197,-133.333333333333,4,2,99,75,0,0
45297,-83.3333333333333,4,2,99,75,0,0
45597,-133.333333333333,4,2,99,75,0,0
47697,-83.3333333333333,4,2,99,75,0,0
47997,-133.333333333333,4,2,99,75,0,0
50097,-83.3333333333333,4,2,99,75,0,0
50397,-100,4,2,99,90,0,1
69597,-100,4,2,99,90,0,0
76497,-66.6666666666667,4,2,99,90,0,0
76797,-100,4,2,99,50,0,0

[Colours]
Combo1 : 0,128,192
Combo2 : 255,191,255
Combo3 : 193,132,132
Combo4 : 185,185,255

[HitObjects]
252,192,2397,5,8,0:0:0:0:
76,152,2847,1,8,0:0:0:0:
240,76,3297,1,2,0:0:0:0:
140,64,3447,1,2,0:0:0:0:
388,36,3597,5,8,0:0:0:0:
388,36,4047,1,8,0:0:0:0:
340,180,4347,1,2,0:0:0:0:
284,320,4647,1,2,0:0:0:0:
216,96,4797,5,8,0:0:0:0:
216,96,5247,1,8,0:0:0:0:
128,216,5547,2,0,P|130:165|136:96,1,100,8|2,0:0|0:0,0:0:0:0:
320,40,5997,5,8,0:0:0:0:
136,20,6147,1,8,0:0:0:0:
136,20,6447,2,0,L|236:16,1,100,8|2,0:0|0:0,0:0:0:0:
448,20,6897,1,8,0:0:0:0:
448,20,7197,6,0,L|444:92,2,50,4|0|2,0:0|0:0|0:0,0:0:0:0:
352,124,7647,2,0,P|348:167|348:223,1,100,8|2,0:0|0:0,0:0:0:0:
444,328,8097,1,8,0:0:0:0:
444,328,8247,1,8,0:0:0:0:
272,284,8397,6,0,P|220:274|152:272,1,100,8|2,0:0|0:0,0:0:0:0:
48,352,8847,1,8,0:0:0:0:
48,352,8997,2,0,P|84:332|104:312,1,50,2|0,0:0|0:0,0:0:0:0:
96,172,9297,2,0,L|28:164,1,50,8|0,0:0|0:0,0:0:0:0:
216,148,9597,5,8,0:0:0:0:
208,160,9897,5,2,0:0:0:0:
416,128,10047,1,8,0:0:0:0:
424,140,10347,5,8,0:0:0:0:
248,64,10497,1,2,0:0:0:0:
304,232,10647,1,8,0:0:0:0:
360,16,10797,5,4,0:0:0:0:
392,220,10947,1,8,3:0:0:0:
388,236,11022,1,8,3:0:0:0:
384,252,11097,1,8,3:0:0:0:
264,144,11247,1,8,3:0:0:0:
264,144,11397,2,0,L|196:148,1,50,0|0,3:0|0:0,0:0:0:0:
40,240,11697,1,8,0:0:0:0:
120,108,11847,1,8,0:0:0:0:
216,272,11997,6,0,P|212:308|200:356,1,75.0000028610231,4|0,0:0|0:0,0:0:0:0:
116,192,12297,1,2,0:0:0:0:
296,216,12447,1,8,0:0:0:0:
216,72,12597,2,0,P|212:116|220:164,1,75.0000028610231
344,52,12897,1,8,0:0:0:0:
344,52,13047,1,8,0:0:0:0:
404,216,13197,6,0,L|308:208,1,75.0000028610231,8|0,0:0|0:0,0:0:0:0:
172,280,13497,1,2,0:0:0:0:
52,148,13647,2,0,P|56:112|72:52,1,75.0000028610231,8|0,0:0|0:0,0:0:0:0:
236,32,13947,1,2,0:0:0:0:
124,200,14097,1,8,0:0:0:0:
284,116,14247,1,2,0:0:0:0:
148,28,14397,6,0,P|156:68|188:128,1,75.0000028610231,8|0,0:0|0:0,0:0:0:0:
320,212,14697,1,2,0:0:0:0:
112,168,14847,2,0,P|80:160|20:152,1,75.0000028610231,8|0,0:0|0:0,0:0:0:0:
80,308,15147,1,2,0:0:0:0:
216,192,15297,2,0,L|228:92,1,75.0000028610231,8|0,0:0|0:0,0:0:0:0:
380,8,15597,5,8,0:0:0:0:
428,156,15747,1,8,0:0:0:0:
288,40,15897,1,2,0:0:0:0:
500,60,16047,1,8,0:0:0:0:
336,136,16197,2,0,L|236:128,1,75.0000028610231,2|0,0:0|0:0,0:0:0:0:
104,292,16497,2,0,L|204:284,1,75.0000028610231,8|0,0:0|0:0,0:0:0:0:
332,216,16797,6,0,P|360:288|376:372,1,150.000005722046,8|0,0:0|0:0,0:0:0:0:
440,196,17247,2,0,P|464:140|492:24,1,150.000005722046,8|2,0:0|0:0,0:0:0:0:
344,132,17697,1,8,0:0:0:0:
344,132,17847,1,8,0:0:0:0:
204,56,17997,6,0,B|156:48|156:48|40:68,1,150.000005722046,8|0,0:0|0:0,0:0:0:0:
108,268,18447,2,0,P|160:204|172:136,1,150.000005722046,8|2,0:0|0:0,0:0:0:0:
4,200,18897,1,8,0:0:0:0:
4,200,19047,1,2,0:0:0:0:
108,348,19197,6,0,B|168:356|168:356|288:344,1,150.000005722046,8|0,0:0|0:0,0:0:0:0:
336,148,19647,2,0,L|328:308,1,150.000005722046,8|2,0:0|0:0,0:0:0:0:
196,172,20097,1,8,0:0:0:0:
196,172,20247,1,2,0:0:0:0:
336,44,20397,6,0,L|328:148,1,75.0000028610231,8|8,0:0|0:0,0:0:0:0:
330,118,20622,1,8,0:0:0:0:
330,118,20697,1,8,0:0:0:0:
188,52,20847,2,0,P|160:56|116:80,1,75.0000028610231,8|2,0:0|0:0,0:0:0:0:
32,212,21147,1,2,0:0:0:0:
208,324,21297,6,0,P|272:304|336:276,1,119.999996337891,8|0,0:0|0:0,0:0:0:0:
192,336,21597,6,0,L|356:344,1,150.000005722046,4|0,0:0|0:0,0:0:0:0:
448,216,22047,2,0,P|455:147|464:52,1,150.000005722046,8|0,0:0|0:0,0:0:0:0:
356,200,22497,1,8,0:0:0:0:
356,200,22647,1,8,0:0:0:0:
244,80,22797,6,0,P|208:88|148:112,1,75.0000028610231,8|0,0:0|0:0,0:0:0:0:
44,188,23097,1,2,0:0:0:0:
224,248,23247,2,0,P|236:204|236:156,1,75.0000028610231,8|0,0:0|0:0,0:0:0:0:
108,272,23547,1,2,0:0:0:0:
292,316,23697,6,0,L|412:312,1,119.999996337891,8|0,0:0|0:0,0:0:0:0:
260,356,23997,6,0,L|419:350,1,150.000005722046,4|0,0:0|0:0,0:0:0:0:
464,168,24447,2,0,P|392:168|328:224,1,150.000005722046,8|0,0:0|0:0,0:0:0:0:
260,356,24897,1,8,0:0:0:0:
260,356,25047,1,8,0:0:0:0:
80,264,25197,6,0,P|72:212|76:168,1,75.0000028610231,8|8,0:0|0:0,0:0:0:0:
72,189,25422,1,8,0:0:0:0:
72,189,25497,1,8,0:0:0:0:
212,112,25647,2,0,P|204:168|188:216,1,75.0000028610231,8|0,0:0|0:0,0:0:0:0:
76,80,25947,1,2,0:0:0:0:
288,24,26097,6,0,P|308:84|304:164,1,119.999996337891,8|0,0:0|0:0,0:0:0:0:
246,274,26397,6,0,P|274:186|318:130,1,150.000005722046,4|0,0:0|0:0,0:0:0:0:
493,307,26847,2,0,L|344:296,1,150.000005722046,8|0,0:0|0:0,0:0:0:0:
168,228,27297,1,8,0:0:0:0:
168,228,27447,1,8,0:0:0:0:
96,376,27597,6,0,L|92:288,1,75.0000028610231,8|0,0:0|0:0,0:0:0:0:
88,136,27897,1,2,0:0:0:0:
264,192,28047,1,8,0:0:0:0:
112,156,28197,1,2,0:0:0:0:
264,80,28347,1,2,0:0:0:0:
220,264,28497,6,0,P|192:232|200:136,1,119.999996337891,8|0,0:0|0:0,0:0:0:0:
376,244,28797,6,0,L|272:236,1,75.0000028610231,4|0,0:0|0:0,0:0:0:0:
188,157,29097,1,2,0:0:0:0:
360,104,29247,1,8,0:0:0:0:
356,120,29547,5,2,0:0:0:0:
224,28,29697,1,8,0:0:0:0:
280,188,29847,1,2,0:0:0:0:
448,100,29997,5,8,0:0:0:0:
460,76,30072,1,8,0:0:0:0:
472,52,30147,1,8,0:0:0:0:
320,16,30297,1,2,0:0:0:0:
416,192,30447,1,8,3:0:0:0:
244,112,30597,1,8,3:0:0:0:
424,88,30747,1,8,3:0:0:0:
300,248,30897,6,0,L|164:240,1,119.999996337891,8|0,0:0|0:0,0:0:0:0:
28,276,31197,6,0,L|192:272,1,150.000005722046,4|0,0:0|0:0,0:0:0:0:
328,136,31647,2,0,L|152:128,1,150.000005722046,8|0,0:0|0:0,0:0:0:0:
20,64,32097,1,8,0:0:0:0:
20,64,32247,1,8,0:0:0:0:
104,192,32397,6,0,P|108:224|112:276,1,75.0000028610231,8|0,0:0|0:0,0:0:0:0:
16,152,32697,1,2,0:0:0:0:
191,212,32847,2,0,P|263:220|340:219,1,150.000005722046,8|0,0:0|0:0,0:0:0:0:
468,128,33297,2,0,P|476:86|480:40,1,75.0000028610231,8|0,0:0|0:0,0:0:0:0:
341,219,33597,6,0,P|324:272|329:371,1,150.000005722046,8|0,0:0|0:0,0:0:0:0:
388,148,34047,2,0,P|340:108|248:80,1,150.000005722046,8|0,0:0|0:0,0:0:0:0:
84,152,34497,1,8,0:0:0:0:
240,184,34647,1,2,0:0:0:0:
108,60,34797,6,0,L|100:138,1,75.0000028610231,8|8,0:0|0:0,0:0:0:0:
101,134,35022,1,8,0:0:0:0:
101,134,35097,1,8,0:0:0:0:
156,280,35247,2,0,P|160:240|156:188,1,75.0000028610231,8|0,0:0|0:0,0:0:0:0:
12,184,35547,1,2,0:0:0:0:
100,348,35697,6,0,P|160:364|224:336,1,119.999996337891,8|0,0:0|0:0,0:0:0:0:
328,224,35997,6,0,P|288:240|240:276,1,75.0000028610231,4|0,0:0|0:0,0:0:0:0:
392,352,36297,1,2,0:0:0:0:
468,184,36447,2,0,L|464:20,1,150.000005722046,8|0,0:0|0:0,0:0:0:0:
368,180,36897,1,8,0:0:0:0:
368,180,37047,1,8,0:0:0:0:
232,100,37197,6,0,L|240:4,1,75.0000028610231,8|0,0:0|0:0,0:0:0:0:
276,188,37497,1,2,0:0:0:0:
164,284,37647,2,0,B|120:292|120:292|4:280,1,150.000005722046,8|0,0:0|0:0,0:0:0:0:
104,136,38097,6,0,P|156:148|108:192,1,119.999996337891,8|0,0:0|0:0,0:0:0:0:
44,48,38397,6,0,L|193:55,1,150.000005722046,4|0,0:0|0:0,0:0:0:0:
332,176,38847,2,0,L|488:164,1,150.000005722046,8|0,0:0|0:0,0:0:0:0:
336,80,39297,1,8,0:0:0:0:
336,80,39447,1,8,0:0:0:0:
216,188,39597,6,0,P|212:232|212:288,1,75.0000028610231,4|8,0:0|0:0,0:0:0:0:
211,262,39822,1,8,0:0:0:0:
211,262,39897,1,8,0:0:0:0:
344,344,40047,2,0,P|320:312|288:288,1,75.0000028610231,8|0,0:0|0:0,0:0:0:0:
132,348,40347,1,2,0:0:0:0:
16,224,40497,6,0,L|135:220,1,119.999996337891,8|0,0:0|0:0,0:0:0:0:
296,188,40797,6,0,B|260:196|260:196|208:232,1,75.0000028610231,4|0,0:0|0:0,0:0:0:0:
388,264,41097,1,2,0:0:0:0:
312,84,41247,2,0,B|240:100|240:100|168:140,1,150.000005722046,8|0,0:0|0:0,0:0:0:0:
224,304,41697,1,8,0:0:0:0:
308,192,41847,1,8,0:0:0:0:
376,364,41997,6,0,P|387:287|395:215,1,150.000005722046,8|0,0:0|0:0,0:0:0:0:
224,304,42447,2,0,P|216:240|216:128,1,150.000005722046,8|0,0:0|0:0,0:0:0:0:
352,32,42897,6,0,P|344:100|310:148,1,119.999996337891,8|0,0:0|0:0,0:0:0:0:
160,52,43197,6,0,P|104:48|10:59,1,150.000005722046,4|0,0:0|0:0,0:0:0:0:
28,232,43647,2,0,B|104:252|105:219|177:235,1,150.000005722046,8|0,0:0|0:0,0:0:0:0:
308,348,44097,1,8,0:0:0:0:
308,348,44247,1,8,0:0:0:0:
264,200,44397,6,0,L|276:112,1,75.0000028610231,4|8,0:0|0:0,0:0:0:0:
274,125,44622,1,8,0:0:0:0:
274,125,44697,1,8,0:0:0:0:
364,8,44847,2,0,L|372:83,1,75.0000028610231,8|0,0:0|0:0,0:0:0:0:
420,232,45147,1,2,0:0:0:0:
274,125,45297,6,0,P|344:120|428:136,1,119.999996337891,8|0,0:0|0:0,0:0:0:0:
252,276,45597,6,0,L|84:252,1,150.000005722046,4|0,0:0|0:0,0:0:0:0:
152,32,46047,2,0,B|156:84|156:84|128:188,1,150.000005722046,8|0,0:0|0:0,0:0:0:0:
24,48,46497,1,8,0:0:0:0:
24,48,46647,1,8,0:0:0:0:
130,178,46797,6,0,L|204:175,1,75.0000028610231,8|0,0:0|0:0,0:0:0:0:
320,64,47097,1,2,0:0:0:0:
432,196,47247,2,0,L|424:288,1,75.0000028610231,8|0,0:0|0:0,0:0:0:0:
268,304,47547,1,2,0:0:0:0:
376,140,47697,6,0,L|508:136,1,119.999996337891,8|0,0:0|0:0,0:0:0:0:
296,200,47997,5,8,3:0:0:0:
292,220,48297,5,2,0:0:0:0:
72,176,48447,1,8,3:0:0:0:
56,192,48747,5,2,0:0:0:0:
276,108,48897,1,8,0:0:0:0:
84,76,49047,1,8,0:0:0:0:
180,276,49197,5,8,3:0:0:0:
156,284,49272,1,8,3:0:0:0:
132,292,49347,1,8,3:0:0:0:
180,144,49497,1,2,0:0:0:0:
276,296,49647,1,8,0:0:0:0:
368,112,49797,1,2,0:0:0:0:
168,160,49947,1,8,0:0:0:0:
352,224,50097,6,0,L|504:220,1,119.999996337891,8|0,0:0|0:0,0:0:0:0:
276,296,50397,6,0,P|180:292|104:208,1,200,4|0,0:0|0:0,0:0:0:0:
264,20,50847,2,0,L|248:236,1,200,8|0,0:0|0:0,0:0:0:0:
112,76,51297,1,8,0:0:0:0:
112,76,51447,1,8,0:0:0:0:
12,260,51597,6,0,L|216:256,1,200,4|0,0:0|0:0,0:0:0:0:
384,192,52047,1,8,0:0:0:0:
180,144,52197,1,2,0:0:0:0:
352,80,52347,1,2,0:0:0:0:
304,272,52497,2,0,L|296:380,1,100,8|0,0:0|0:0,0:0:0:0:
108,272,52797,6,0,P|88:196|120:72,1,200,4|0,0:0|0:0,0:0:0:0:
189,306,53247,2,0,P|200:216|260:116,1,200,8|0,0:0|0:0,0:0:0:0:
264,360,53697,2,0,P|288:312|336:264,1,100,8|0,0:0|0:0,0:0:0:0:
488,152,53997,5,4,0:0:0:0:
420,332,54147,1,2,0:0:0:0:
420,332,54222,1,2,0:0:0:0:
420,332,54297,1,2,0:0:0:0:
256,208,54447,2,0,L|156:204,1,100,8|0,0:0|0:0,0:0:0:0:
4,96,54747,1,2,0:0:0:0:
68,284,54897,1,8,0:0:0:0:
128,112,55047,1,2,0:0:0:0:
0,320,55197,6,0,L|99:314,1,100,4|0,0:0|0:0,0:0:0:0:
288,344,55497,1,2,0:0:0:0:
212,140,55647,2,0,L|96:144,1,100,8|0,0:0|0:0,0:0:0:0:
196,304,55947,1,2,0:0:0:0:
368,224,56097,2,0,P|372:184|364:120,1,100,8|0,0:0|0:0,0:0:0:0:
176,24,56397,5,4,0:0:0:0:
344,88,56547,1,2,0:0:0:0:
140,108,56697,1,2,0:0:0:0:
284,272,56847,2,0,P|284:224|280:172,1,100,8|0,0:0|0:0,0:0:0:0:
176,24,57147,1,2,0:0:0:0:
92,220,57297,1,8,0:0:0:0:
244,92,57447,1,2,0:0:0:0:
28,40,57597,6,0,P|40:104|59:149,1,100,4|0,0:0|0:0,0:0:0:0:
176,308,57897,1,2,0:0:0:0:
244,92,58047,1,8,0:0:0:0:
312,272,58197,1,2,0:0:0:0:
128,200,58347,1,8,0:0:0:0:
364,136,58497,1,8,0:0:0:0:
152,108,58647,1,2,0:0:0:0:
264,359,58797,6,0,P|291:319|315:251,1,100,4|8,0:0|0:0,0:0:0:0:
311,271,59022,1,8,0:0:0:0:
311,271,59097,1,8,0:0:0:0:
164,136,59247,2,0,P|155:217|192:360,1,200,4|2,0:0|0:0,0:0:0:0:
300,192,59697,1,8,0:0:0:0:
300,192,59847,1,8,0:0:0:0:
208,16,59997,6,0,P|112:12|0:16,1,200,4|0,0:0|0:0,0:0:0:0:
76,224,60447,2,0,P|175:227|275:223,1,200,8|0,0:0|0:0,0:0:0:0:
480,168,60897,1,8,0:0:0:0:
480,168,61047,1,8,0:0:0:0:
303,25,61197,6,0,P|287:101|275:229,1,200,4|0,0:0|0:0,0:0:0:0:
448,344,61647,1,8,0:0:0:0:
380,160,61797,1,2,0:0:0:0:
280,312,61947,1,2,0:0:0:0:
488,212,62097,1,8,0:0:0:0:
275,222,62247,1,2,0:0:0:0:
468,60,62397,6,0,L|452:276,1,200,4|0,0:0|0:0,0:0:0:0:
316,68,62847,2,0,P|352:180|364:276,1,200,8|0,0:0|0:0,0:0:0:0:
156,332,63297,1,8,0:0:0:0:
348,284,63447,1,2,0:0:0:0:
196,136,63597,6,0,L|192:240,1,100,4|8,0:0|0:0,0:0:0:0:
192,235,63822,1,8,0:0:0:0:
192,235,63897,1,8,0:0:0:0:
348,284,64047,2,0,B|325:140|325:140|309:192,1,200,4|2,0:0|0:0,0:0:0:0:
220,368,64497,2,0,L|216:252,1,100,8|0,0:0|0:0,0:0:0:0:
176,104,64797,6,0,P|192:56|240:0,1,100,4|0,0:0|0:0,0:0:0:0:
396,72,65097,1,2,0:0:0:0:
228,192,65247,2,0,L|104:188,1,100,8|0,0:0|0:0,0:0:0:0:
16,36,65547,1,2,0:0:0:0:
220,16,65697,1,8,0:0:0:0:
220,16,65847,1,8,0:0:0:0:
308,200,65997,6,0,P|316:152|320:84,1,100,4|0,0:0|0:0,0:0:0:0:
140,72,66297,1,2,0:0:0:0:
360,28,66447,1,8,0:0:0:0:
224,196,66597,1,2,0:0:0:0:
120,24,66747,1,2,0:0:0:0:
319,100,66897,1,8,0:0:0:0:
132,172,67047,1,2,0:0:0:0:
273,325,67197,5,4,0:0:0:0:
273,325,67347,2,0,P|272:272|264:216,1,100,2|0,0:0|0:0,0:0:0:0:
168,40,67647,1,8,0:0:0:0:
156,56,67947,5,8,0:0:0:0:
276,44,68097,1,8,0:0:0:0:
396,32,68247,1,8,0:0:0:0:
265,226,68397,5,4,0:0:0:0:
432,156,68547,1,8,3:0:0:0:
444,124,68622,1,8,3:0:0:0:
456,92,68697,1,8,3:0:0:0:
276,44,68847,1,2,0:0:0:0:
360,256,68997,1,8,0:0:0:0:
396,32,69147,1,2,0:0:0:0:
184,136,69297,1,8,0:0:0:0:
280,328,69447,1,2,0:0:0:0:
280,328,69522,1,2,0:0:0:0:
280,328,69597,6,0,P|320:248|340:124,1,200,4|0,0:0|0:0,0:0:0:0:
180,344,70047,2,0,P|120:272|72:160,1,200,8|0,0:0|0:0,0:0:0:0:
216,40,70497,1,8,0:0:0:0:
216,40,70647,1,8,0:0:0:0:
376,176,70797,6,0,B|316:199|316:199|248:175|248:175|176:187,1,200,4|0,0:0|0:0,0:0:0:0:
408,284,71247,2,0,L|428:72,1,200,8|0,0:0|0:0,0:0:0:0:
308,288,71697,2,0,L|304:180,1,100,8|0,0:0|0:0,0:0:0:0:
212,8,71997,6,0,P|148:76|112:200,1,200,4|0,0:0|0:0,0:0:0:0:
244,336,72447,1,8,0:0:0:0:
210,151,72597,2,0,P|162:159|94:183,1,100,2|0,0:0|0:0,0:0:0:0:
168,360,72897,1,8,0:0:0:0:
168,360,73047,1,8,0:0:0:0:
292,240,73197,6,0,L|304:120,1,100,4|2,0:0|0:0,0:0:0:0:
301,140,73422,1,2,0:0:0:0:
301,140,73497,1,2,0:0:0:0:
436,16,73647,2,0,B|452:88|452:88|440:236,1,200,4|2,0:0|0:0,0:0:0:0:
284,356,74097,2,0,L|280:236,1,100,8|0,0:0|0:0,0:0:0:0:
256,40,74397,6,0,P|252:140|232:260,1,200,4|0,0:0|0:0,0:0:0:0:
36,304,74847,2,0,P|8:168|16:72,1,200,8|0,0:0|0:0,0:0:0:0:
180,16,75297,1,8,0:0:0:0:
180,16,75447,1,8,0:0:0:0:
304,172,75597,6,0,B|256:204|256:204|228:176|228:176|180:200|96:184,1,200,4|0,0:0|0:0,0:0:0:0:
272,68,76047,2,0,B|348:28|408:40|408:40|460:108,1,200,8|0,0:0|0:0,0:0:0:0:
448,288,76497,6,0,P|400:236|396:156,1,150.000005722046,8|0,0:0|0:0,0:0:0:0:
356,336,76797,5,2,0:0:0:0:
340,348,77097,5,2,0:0:0:0:
64,232,77247,1,8,0:0:0:0:
72,248,77547,5,2,0:0:0:0:
368,184,77697,1,8,0:0:0:0:
152,148,77847,1,2,0:0:0:0:
328,56,77997,5,8,0:0:0:0:
328,56,78072,1,8,0:0:0:0:
328,56,78147,1,8,0:0:0:0:
248,252,78297,1,2,0:0:0:0:
160,24,78447,1,2,0:0:0:0:
344,156,78597,1,2,0:0:0:0:
120,140,78747,1,2,0:0:0:0:
360,44,78897,1,8,0:0:0:0:
180,204,79047,1,8,0:0:0:0:
156,248,79122,1,8,0:0:0:0:
140,296,79197,1,8,0:0:0:0:
