osu file format v14

[General]
AudioFilename: No title.mp3
AudioLeadIn: 0
PreviewTime: 50097
Countdown: 0
SampleSet: Soft
StackLeniency: 0.3
Mode: 0
LetterboxInBreaks: 0
WidescreenStoryboard: 0

[Editor]
DistanceSpacing: 0.9
BeatDivisor: 4
GridSize: 4
TimelineZoom: 1

[Metadata]
Title:No title
TitleUnicode:No title
Artist:Reol
ArtistUnicode:Reol
Creator:VINXIS
Version:toybot's Insane
Source:
Tags:title- title+ Kamio_Misuzu CelsiusLK deetz byfar Fast jieusieu toybot Hatsune Miku Giga-P dmARTS Anyosupenyosuyaya Lust Irreversible sukiNathan Leader Mishima Yurara
BeatmapID:715074
BeatmapSetID:320118

[Difficulty]
HPDrainRate:6
CircleSize:4
OverallDifficulty:7.5
ApproachRate:9
SliderMultiplier:1.7
SliderTickRate:1

[Events]
//Background and Video events
0,0,"toybot.jpg",0,0
//Break Periods
//Storyboard Layer 0 (Background)
//Storyboard Layer 1 (Fail)
//Storyboard Layer 2 (Pass)
//Storyboard Layer 3 (Foreground)
//Storyboard Sound Samples

[TimingPoints]
2397,300,4,2,1,40,1,0
2397,-181.818181818181,4,2,1,40,0,0
6897,-125,4,2,1,40,0,0
7197,-142.857142857143,4,2,1,50,0,0
10797,-125,4,2,1,60,0,0
11997,-125,4,2,1,50,0,0
14997,-111.111111111111,4,2,1,50,0,0
15597,-100,4,2,1,50,0,0
16797,-125,4,2,1,50,0,0
20397,-111.111111111111,4,2,1,50,0,0
20997,-100,4,2,1,50,0,0
21747,-125,4,2,1,50,0,0
23697,-111.111111111111,4,2,1,50,0,0
23997,-125,4,2,1,50,0,0
26097,-111.111111111111,4,2,1,50,0,0
26397,-125,4,2,1,50,0,0
29997,-100,4,2,1,50,0,0
31497,-125,4,2,1,50,0,0
32247,-100,4,2,1,50,0,0
32697,-125,4,2,1,50,0,0
33447,-100,4,2,1,50,0,0
33897,-125,4,2,1,50,0,0
34647,-100,4,2,1,50,0,0
35097,-111.111111111111,4,2,1,50,0,0
35847,-100,4,2,1,50,0,0
36297,-125,4,2,1,50,0,0
37047,-100,4,2,1,50,0,0
37497,-125,4,2,1,50,0,0
38247,-100,4,2,1,50,0,0
38697,-125,4,2,1,50,0,0
40647,-100,4,2,1,50,0,0
41097,-125,4,2,1,50,0,0
41847,-100,4,2,1,50,0,0
42297,-125,4,2,1,50,0,0
43047,-100,4,2,1,50,0,0
43497,-125,4,2,1,50,0,0
44397,-111.111111111111,4,2,1,50,0,0
45447,-100,4,2,1,50,0,0
46047,-125,4,2,1,50,0,0
47847,-142.857142857143,4,2,1,30,0,0
48897,-125,4,2,1,30,0,0
49197,-111.111111111111,4,2,1,50,0,0
50397,-105.263157894737,4,2,1,70,0,1
55197,-111.111111111111,4,2,1,70,0,1
59697,-105.263157894737,4,2,1,70,0,1
59997,-100,4,2,1,70,0,1
69597,-125,4,2,1,50,0,0
76797,-142.857142857143,4,2,1,50,0,0
78597,-200,4,2,1,50,0,0
78897,-111.111111111111,4,2,1,50,0,0

[Colours]
Combo1 : 102,204,0
Combo2 : 198,140,255
Combo3 : 102,202,255
Combo4 : 82,82,218

[HitObjects]
56,196,2397,6,0,L|164:200,1,93.5000028533937,2|0,0:0|0:0,0:0:0:0:
276,176,2847,1,2,0:0:0:0:
292,180,3297,1,0,0:0:0:0:
220,100,3447,1,0,0:0:0:0:
236,240,3597,6,0,L|232:340,1,93.5000028533937,2|0,0:0|0:0,0:0:0:0:
408,280,4047,2,0,P|368:260|308:272,1,93.5000028533937,2|0,0:0|0:0,0:0:0:0:
232,380,4647,1,0,0:0:0:0:
148,332,4797,6,0,L|48:328,1,93.5000028533937,2|0,0:0|0:0,0:0:0:0:
128,244,5247,2,0,L|124:144,1,93.5000028533937,2|0,0:0|0:0,0:0:0:0:
124,150,5847,1,0,0:0:0:0:
236,104,5997,6,0,L|172:100,1,46.7500014266968,2|0,0:0|0:0,0:0:0:0:
264,216,6447,2,0,L|372:212,1,93.5000028533937,2|0,0:0|0:0,0:0:0:0:
477,180,6897,6,0,P|439:165|452:203,1,102
453,204,7197,6,0,B|456:136|456:136|448:112|448:112|452:68,1,118.999996368408,2|8,1:2|0:0,0:0:0:0:
376,24,7647,2,0,L|244:28,1,118.999996368408,2|0,0:0|0:0,0:0:0:0:
204,128,8097,1,8,0:0:0:0:
132,52,8247,1,8,0:0:0:0:
96,160,8397,6,0,L|99:230,1,59.4999981842042,2|0,1:2|0:0,0:0:0:0:
144,292,8697,1,8,0:0:0:0:
291,244,8847,2,0,P|244:212|172:224,1,118.999996368408,2|0,0:0|0:0,0:0:0:0:
144,376,9297,1,10,0:0:0:0:
220,300,9447,1,0,0:0:0:0:
152,208,9597,6,0,P|152:144|148:84,1,118.999996368408,0|0,3:0|1:0,0:0:0:0:
320,28,10047,2,0,P|315:88|316:156,1,118.999996368408,0|2,3:0|0:0,0:0:0:0:
364,288,10497,1,0,1:0:0:0:
248,240,10647,1,0,1:0:0:0:
364,288,10797,6,0,L|456:284,1,68,4|0,0:0|0:0,0:0:0:0:
456,292,11022,1,2,0:0:0:0:
480,300,11097,1,8,0:0:0:0:
280,368,11247,2,0,L|276:288,1,68,0|0,1:0|0:0,0:0:0:0:
188,228,11547,1,0,1:0:0:0:
272,128,11697,1,8,1:0:0:0:
144,56,11847,1,8,1:0:0:0:
288,132,11997,6,0,L|368:128,1,68,4|0,1:2|0:0,0:0:0:0:
456,104,12297,1,0,0:0:0:0:
352,216,12447,1,0,1:0:0:0:
352,216,12597,2,0,P|336:280|388:360,1,136,0|0,0:0|1:0,0:0:0:0:
432,272,13047,1,0,0:0:0:0:
255,224,13197,6,0,L|183:228,1,68,0|0,1:0|0:0,0:0:0:0:
88,300,13497,1,0,0:0:0:0:
8,152,13647,2,0,P|72:176|156:144,1,136,0|0,1:0|0:0,0:0:0:0:
188,64,14097,1,8,1:0:0:0:
260,220,14247,1,0,0:0:0:0:
260,220,14397,6,0,L|360:216,1,68,0|0,1:0|0:0,0:0:0:0:
396,116,14697,2,0,L|312:120,1,68,0|0,0:0|1:0,0:0:0:0:
248,232,14997,6,0,L|344:236,1,76.4999976654053
408,100,15297,2,0,L|331:96,1,76.4999976654053,0|0,1:0|0:0,0:0:0:0:
236,240,15597,6,0,L|240:332,1,85,0|0,1:0|0:0,0:0:0:0:
331,96,15897,2,0,L|327:11,1,85,0|0,0:0|1:0,0:0:0:0:
192,164,16197,2,0,P|140:184|64:148,1,127.5
75,160,16497,2,0,L|80:248,1,85,8|0,1:0|0:0,0:0:0:0:
84,376,16797,5,0,1:0:0:0:
160,292,16947,1,0,0:0:0:0:
224,360,17097,2,0,L|300:356,1,68,0|0,0:0|1:0,0:0:0:0:
324,232,17397,2,0,L|224:228,1,68
120,152,17697,1,0,1:0:0:0:
120,152,17847,1,0,0:0:0:0:
235,76,17997,6,0,P|240:110|236:144,1,68,0|0,1:0|0:0,0:0:0:0:
128,240,18297,1,0,0:0:0:0:
104,32,18447,1,0,1:0:0:0:
235,76,18597,2,0,L|323:72,1,68
432,152,18897,2,0,L|352:148,1,68,8|0,1:0|0:0,0:0:0:0:
208,220,19197,5,0,1:0:0:0:
208,220,19347,1,0,0:0:0:0:
344,280,19497,2,0,L|428:276,1,68,0|0,0:0|1:0,0:0:0:0:
312,176,19797,1,0,0:0:0:0:
228,332,19947,1,0,0:0:0:0:
120,248,20097,2,0,P|72:240|36:244,1,68,0|0,1:0|0:0,0:0:0:0:
192,84,20397,6,0,L|196:172,1,76.4999976654053,0|0,1:0|0:0,0:0:0:0:
195,160,20622,1,0,3:0:0:0:
195,160,20697,1,2,3:2:0:0:
104,88,20847,1,0,1:0:0:0:
276,176,20997,1,0,0:0:0:0:
224,16,21147,1,0,1:0:0:0:
168,248,21297,2,0,P|112:276|31:214,1,170,8|0,1:0|1:0,0:0:0:0:
108,196,21747,5,0,0:0:0:0:
92,352,21897,1,0,0:0:0:0:
248,288,22047,1,0,1:0:0:0:
264,292,22497,2,0,L|372:288,1,102,0|0,1:0|0:0,0:0:0:0:
392,304,22797,6,0,P|388:256|392:216,1,68,0|0,1:0|0:0,0:0:0:0:
292,136,23097,2,0,P|292:176|288:224,1,68,0|0,0:0|1:0,0:0:0:0:
456,80,23397,2,0,L|336:76,1,102
328,56,23697,6,0,P|260:92|200:76,1,114.749996498108,8|0,1:0|0:0,0:0:0:0:
160,52,23997,6,0,L|80:48,1,68,0|0,1:0|0:0,0:0:0:0:
20,116,24297,1,0,0:0:0:0:
104,208,24447,1,0,1:0:0:0:
120,200,24897,2,0,L|192:204,1,68,0|0,1:0|0:0,0:0:0:0:
272,168,25197,5,0,1:0:0:0:
264,260,25347,1,0,0:0:0:0:
356,132,25497,1,0,0:0:0:0:
352,228,25647,1,0,1:0:0:0:
352,228,25797,2,0,P|400:232|440:216,1,68
496,336,26097,6,0,P|436:312|376:328,1,114.749996498108,8|0,1:0|0:0,0:0:0:0:
328,360,26397,5,0,1:0:0:0:
272,292,26547,1,0,0:0:0:0:
340,212,26697,2,0,L|344:136,1,68,0|0,0:0|1:0,0:0:0:0:
184,248,26997,2,0,L|188:328,1,68
236,160,27297,2,0,L|148:156,1,68,0|0,1:0|1:0,0:0:0:0:
296,296,27597,6,0,L|436:292,1,136,0|0,1:0|0:0,0:0:0:0:
496,216,28047,1,0,1:0:0:0:
392,96,28197,1,0,0:0:0:0:
372,212,28347,1,0,0:0:0:0:
500,68,28497,2,0,P|504:28|496:-4,1,68,8|0,1:0|0:0,0:0:0:0:
376,104,28797,6,0,B|288:112|328:92|241:100,1,136,0|0,1:0|0:0,0:0:0:0:
176,172,29247,1,0,1:0:0:0:
176,172,29397,2,0,L|180:252,1,68
84,344,29697,2,0,P|86:311|88:276,1,68,0|0,1:0|0:0,0:0:0:0:
192,372,29997,5,0,1:0:0:0:
288,296,30147,1,2,0:3:0:0:
309,297,30222,1,2,0:3:0:0:
330,298,30297,1,2,0:3:0:0:
436,352,30447,1,0,1:0:0:0:
396,160,30597,1,0,1:0:0:0:
328,280,30747,2,0,L|232:276,1,85,0|8,1:0|1:0,0:0:0:0:
72,164,31047,6,0,P|124:128|236:160,1,170,6|0,1:2|0:0,0:0:0:0:
292,240,31497,1,0,0:0:0:0:
340,108,31647,2,0,P|337:66|336:28,1,68,0|0,1:0|0:0,0:0:0:0:
223,147,31947,1,0,0:0:0:0:
292,240,32097,1,0,1:0:0:0:
184,312,32247,6,0,P|92:304|8:304,1,170,2|0,1:2|0:0,0:0:0:0:
264,376,32697,1,0,0:0:0:0:
336,284,32847,2,0,P|333:245|336:192,1,68,0|0,1:0|0:0,0:0:0:0:
192,144,33147,2,0,L|188:240,1,68,0|8,0:0|1:0,0:0:0:0:
440,100,33447,6,0,B|336:124|376:68|271:93,1,170,2|0,1:2|0:0,0:0:0:0:
144,68,33897,1,0,0:0:0:0:
208,200,34047,1,0,1:0:0:0:
200,8,34197,1,0,0:0:0:0:
72,176,34347,1,0,0:0:0:0:
72,176,34497,1,0,1:0:0:0:
280,72,34647,6,0,P|356:60|440:124,1,170,2|0,1:2|0:0,0:0:0:0:
444,248,35097,1,0,0:0:0:0:
336,180,35247,1,0,1:0:0:0:
316,340,35397,2,0,L|416:336,1,76.4999976654053
412,180,35697,1,8,1:0:0:0:
228,224,35847,6,0,B|156:220|156:220|132:232|132:232|44:228,1,170,2|0,1:2|0:0,0:0:0:0:
192,132,36297,1,0,0:0:0:0:
176,304,36447,1,0,1:0:0:0:
96,152,36597,2,0,P|92:84|104:64,1,68
180,12,36897,1,0,1:0:0:0:
342,108,37047,6,0,P|270:152|166:104,1,170,2|0,1:2|0:0,0:0:0:0:
93,84,37497,2,0,L|97:184,1,68,0|0,0:0|1:0,0:0:0:0:
248,344,37797,2,0,P|250:268|252:204,1,136,0|8,0:0|1:0,0:0:0:0:
8,280,38247,6,0,B|124:296|68:256|200:273,1,170,2|0,1:2|0:0,0:0:0:0:
288,304,38697,1,0,0:0:0:0:
328,164,38847,1,0,1:0:0:0:
186,199,38997,1,0,0:3:0:0:
380,260,39147,2,0,L|476:256,1,68,0|0,0:0|1:0,0:0:0:0:
264,104,39447,5,0,0:0:0:0:
264,104,39597,2,0,L|164:100,1,68,2|0,1:2|0:0,0:0:0:0:
172,104,39822,1,2,0:0:0:0:
148,108,39897,1,0,0:0:0:0:
272,248,40047,1,0,1:0:0:0:
352,80,40197,2,0,P|349:38|348:-16,2,68,0|0|8,0:0|0:0|1:0,0:0:0:0:
444,264,40647,6,0,P|376:244|288:296,1,170,6|0,1:2|0:0,0:0:0:0:
260,372,41097,2,0,L|164:368,1,68,0|0,0:0|1:0,0:0:0:0:
64,288,41397,2,0,P|136:297|195:235,1,136,0|0,0:0|1:0,0:0:0:0:
112,44,41847,6,0,P|108:128|110:213,1,170,2|0,1:2|0:0,0:0:0:0:
196,312,42297,1,0,0:0:0:0:
264,160,42447,1,0,1:0:0:0:
264,160,42597,2,0,L|180:156,1,68
344,264,42897,1,8,1:0:0:0:
400,104,43047,6,0,P|344:128|236:52,1,170,2|0,1:2|0:0,0:0:0:0:
208,12,43497,1,0,0:0:0:0:
140,168,43647,1,0,1:0:0:0:
140,168,43947,1,0,0:0:0:0:
68,72,44097,2,0,L|-4:68,1,68,0|0,1:0|0:0,0:0:0:0:
140,168,44397,6,0,L|224:164,1,76.4999976654053,2|0,1:2|0:0,0:0:0:0:
352,108,44697,2,0,L|348:200,1,76.4999976654053,0|0,0:0|1:0,0:0:0:0:
160,308,44997,2,0,P|160:248|152:188,1,114.749996498108
140,168,45297,1,8,1:0:0:0:
208,44,45447,6,0,B|320:28|260:64|385:45,1,170,2|0,1:2|0:0,0:0:0:0:
472,8,45897,1,0,0:0:0:0:
408,128,46047,2,0,P|404:192|412:216,1,68,0|0,1:0|0:0,0:0:0:0:
336,360,46497,1,0,1:0:0:0:
264,272,46647,1,0,1:0:0:0:
264,272,46797,6,0,L|257:204,1,68,0|0,1:0|0:0,0:0:0:0:
188,132,47097,2,0,P|136:112|44:144,2,136,0|0|8,0:0|0:0|1:0,0:0:0:0:
264,200,47847,5,2,0:0:0:0:
324,128,47997,2,0,L|320:8,1,118.999996368408,0|0,3:0|0:0,0:0:0:0:
180,188,48447,2,0,L|184:56,1,118.999996368408,0|0,3:0|0:0,0:0:0:0:
336,224,48897,2,0,L|408:220,1,68,0|0,3:0|3:0,0:0:0:0:
168,288,49197,5,2,1:2:0:0:
104,156,49347,1,0,0:0:0:0:
104,156,49422,1,0,0:0:0:0:
104,156,49497,1,0,0:0:0:0:
252,224,49647,5,2,1:2:0:0:
248,72,49797,1,0,0:0:0:0:
364,208,49947,5,0,1:0:0:0:
436,44,50097,2,0,L|528:40,1,76.4999976654053,12|4,1:2|0:0,0:0:0:0:
320,128,50397,6,0,L|136:124,1,161.499995687485,6|0,1:2|0:0,0:0:0:0:
40,48,50847,2,0,P|72:92|36:208,1,161.499995687485,2|0,1:2|0:0,0:0:0:0:
0,272,51297,2,0,L|103:269,1,80.7499978437424,0|0,1:0|1:0,0:0:0:0:
284,328,51597,6,0,P|220:300|152:328,1,121.124996765614,2|0,1:2|0:0,0:0:0:0:
156,328,51897,2,0,L|160:240,1,80.7499978437424,0|2,0:0|1:2,0:0:0:0:
292,84,52197,1,0,0:0:0:0:
312,216,52347,1,0,0:0:0:0:
396,168,52497,1,8,1:0:0:0:
212,132,52647,1,0,0:0:0:0:
396,168,52797,6,0,L|484:164,1,80.7499978437424,2|0,1:2|0:0,0:0:0:0:
484,356,53097,1,0,0:0:0:0:
392,272,53247,2,0,P|324:244|236:268,1,161.499995687485,2|0,1:2|0:0,0:0:0:0:
156,352,53697,2,0,P|168:304|156:264,1,80.7499978437424,0|0,1:0|0:0,0:0:0:0:
58,127,53997,6,0,L|55:208,1,80.7499978437424,2|0,1:2|0:0,0:0:0:0:
56,208,54297,1,0,0:0:0:0:
176,32,54447,2,0,B|284:56|244:8|364:36,1,161.499995687485,2|0,1:2|0:0,0:0:0:0:
392,128,54897,1,8,1:0:0:0:
276,172,55047,1,0,0:0:0:0:
396,256,55197,6,0,P|430:255|484:252,1,76.4999976654053,0|0,1:0|0:0,0:0:0:0:
296,312,55497,1,0,0:0:0:0:
404,368,55647,1,0,1:0:0:0:
376,240,55797,1,0,0:0:0:0:
272,300,55947,2,0,P|230:297|184:296,1,76.4999976654053,0|0,0:0|1:0,0:0:0:0:
100,224,56247,1,0,0:0:0:0:
100,224,56397,6,0,P|104:172|104:112,1,76.4999976654053,0|0,1:0|0:0,0:0:0:0:
248,72,56697,1,0,0:0:0:0:
192,188,56847,2,0,P|184:248|272:324,1,152.999995330811,0|0,1:0|0:0,0:0:0:0:
356,232,57297,2,0,L|279:228,1,76.4999976654053,8|0,1:0|0:0,0:0:0:0:
108,132,57597,6,0,L|4:136,1,76.4999976654053,0|0,1:0|0:0,0:0:0:0:
176,40,57897,1,0,0:0:0:0:
192,188,58047,1,0,1:0:0:0:
264,80,58197,2,0,P|302:82|348:84,1,76.4999976654053
460,184,58497,2,0,P|420:184|372:188,1,76.4999976654053,0|0,1:0|0:0,0:0:0:0:
276,288,58797,5,0,1:0:0:0:
288,140,58947,1,0,0:0:0:0:
384,292,59097,1,0,0:0:0:0:
220,204,59247,2,0,B|112:188|172:224|39:207,1,152.999995330811,0|0,1:0|0:0,0:0:0:0:
8,144,59697,2,0,L|12:36,1,80.7499978437424,12|0,1:2|0:0,0:0:0:0:
168,16,59997,6,0,P|204:68|164:184,1,170,6|0,1:2|0:0,0:0:0:0:
40,284,60447,2,0,L|216:280,1,170,2|0,1:2|0:0,0:0:0:0:
312,336,60897,2,0,P|300:292|312:236,1,85,0|0,1:0|0:0,0:0:0:0:
365,91,61197,6,0,L|372:176,1,85,2|0,1:2|0:0,0:0:0:0:
184,72,61497,1,0,0:0:0:0:
160,164,61647,2,0,P|208:164|256:136,1,85,2|0,1:2|0:0,0:0:0:0:
296,40,61947,1,0,0:0:0:0:
332,216,62097,1,8,1:0:0:0:
484,124,62247,1,0,0:0:0:0:
484,124,62397,6,0,B|456:124|440:116|440:116|412:128|412:128|376:112|316:128,1,170,2|0,1:2|0:0,0:0:0:0:
204,248,62847,2,0,P|212:192|188:148,1,85,2|0,1:2|0:0,0:0:0:0:
112,88,63147,1,0,0:0:0:0:
48,212,63297,2,0,L|140:208,1,85,0|0,1:0|0:0,0:0:0:0:
284,112,63597,6,0,P|238:111|184:108,1,85,2|0,1:2|0:0,0:0:0:0:
112,88,63897,1,0,0:0:0:0:
228,264,64047,2,0,P|280:224|388:264,1,170,2|0,1:2|0:0,0:0:0:0:
308,316,64497,1,8,1:0:0:0:
216,168,64647,1,0,0:0:0:0:
388,128,64797,5,0,1:0:0:0:
396,132,65097,2,0,L|484:128,1,85,0|0,0:0|1:0,0:0:0:0:
224,200,65397,2,0,L|128:196,1,85
296,68,65697,1,0,1:0:0:0:
296,68,65847,1,0,0:0:0:0:
320,264,65997,6,0,L|324:172,1,85,0|0,1:0|0:0,0:0:0:0:
96,136,66297,1,0,0:0:0:0:
172,48,66447,1,0,1:0:0:0:
152,224,66597,2,0,L|240:220,1,85
360,124,66897,2,0,P|316:124|264:120,1,85,8|0,1:0|0:0,0:0:0:0:
96,52,67197,5,0,1:0:0:0:
24,160,67347,2,0,P|71:157|124:156,1,85
232,244,67647,1,0,1:0:0:0:
112,312,67797,6,0,L|20:308,1,85
232,244,68097,2,0,L|348:252,1,85,0|0,1:0|0:0,0:0:0:0:
380,292,68322,1,0,0:0:0:0:
400,276,68397,6,0,P|408:224|396:188,1,85,2|0,1:2|0:0,0:0:0:0:
280,96,68697,1,0,0:0:0:0:
228,256,68847,2,0,L|232:348,1,85,0|0,1:0|0:0,0:0:0:0:
396,84,69147,1,6,0:0:0:0:
284,160,69297,5,12,1:0:0:0:
258,159,69372,1,2,0:3:0:0:
232,158,69447,1,2,0:3:0:0:
206,157,69522,1,2,0:3:0:0:
180,156,69597,6,0,P|152:120|168:24,1,136,4|0,1:2|0:0,0:0:0:0:
280,132,70047,2,0,L|272:272,1,136,2|0,1:2|0:0,0:0:0:0:
204,332,70497,2,0,L|128:328,1,68,0|0,1:0|1:0,1:0:0:0:
64,232,70797,6,0,B|156:216|112:248|224:232,1,136,2|0,1:2|0:0,0:0:0:0:
352,168,71247,2,0,P|308:144|216:172,1,136,2|0,1:2|0:0,0:0:0:0:
160,312,71697,1,8,1:0:0:0:
64,232,71847,1,0,0:0:0:0:
160,312,71997,6,0,P|157:244|156:176,1,136,2|0,1:2|0:0,0:0:0:0:
260,56,72447,2,0,P|236:104|272:200,1,136,2|0,1:2|0:0,0:0:0:0:
336,228,72897,1,0,1:0:0:0:
456,196,73047,1,0,1:0:0:0:
382,159,73197,6,0,B|364:204|388:244|388:244|384:292,1,136,2|0,1:2|0:0,0:0:0:0:
472,88,73647,2,0,L|316:84,1,136,2|4,1:2|0:0,0:0:0:0:
192,60,74097,1,8,1:0:0:0:
192,60,74397,6,0,P|192:126|196:204,1,136,2|0,1:2|0:0,0:0:0:0:
296,348,74847,1,2,1:2:0:0:
308,336,75297,2,0,P|320:288|308:248,1,68,0|0,1:0|1:0,0:0:0:0:
252,176,75597,6,0,L|104:180,1,136,2|0,1:2|0:0,0:0:0:0:
304,88,76047,2,0,L|452:96,1,136,2|0,1:2|0:0,0:0:0:0:
240,0,76497,1,12,1:2:0:0:
188,108,76647,1,0,0:0:0:0:
332,196,76797,6,0,L|408:192,1,59.4999981842042,4|0,3:0|0:0,0:0:0:0:
304,88,77097,1,8,0:0:0:0:
248,160,77247,2,0,L|124:156,1,118.999996368408,6|0,1:3|0:0,0:0:0:0:
16,248,77697,2,0,L|20:312,1,59.4999981842042,2|2,1:2|0:0,0:0:0:0:
196,336,77997,5,0,1:0:0:0:
200,300,78072,1,0,0:0:0:0:
204,264,78147,1,0,3:0:0:0:
68,192,78297,1,0,3:0:0:0:
188,120,78447,1,0,3:0:0:0:
188,120,78597,6,0,L|244:124,1,42.5,2|0,3:0|3:0,0:0:0:0:
352,152,78897,2,0,L|349:75,1,76.4999976654053,12|4,0:0|0:0,0:0:0:0:
288,280,79197,5,4,1:2:0:0:
