osu file format v14

[General]
AudioFilename: No title.mp3
AudioLeadIn: 0
PreviewTime: 50097
Countdown: 0
SampleSet: Soft
StackLeniency: 0.6
Mode: 0
LetterboxInBreaks: 0
WidescreenStoryboard: 0

[Editor]
Bookmarks: 50372
DistanceSpacing: 0.6
BeatDivisor: 4
GridSize: 4
TimelineZoom: 1

[Metadata]
Title:No title
TitleUnicode:No title
Artist:Reol
ArtistUnicode:Reol
Creator:VINXIS
Version:deetz' Expert
Source:
Tags:title- title+ Kamio_Misuzu CelsiusLK deetz byfar Fast jieusieu toybot Hatsune Miku Giga-P dmARTS Anyosupenyosuyaya Lust Irreversible sukiNathan Leader Mishima Yurara
BeatmapID:713442
BeatmapSetID:320118

[Difficulty]
HPDrainRate:6
CircleSize:4
OverallDifficulty:9
ApproachRate:9.3
SliderMultiplier:1.8
SliderTickRate:1

[Events]
//Background and Video events
0,0,"deetz.jpg",0,0
//Break Periods
//Storyboard Layer 0 (Background)
//Storyboard Layer 1 (Fail)
//Storyboard Layer 2 (Pass)
//Storyboard Layer 3 (Foreground)
//Storyboard Sound Samples

[TimingPoints]
2397,300,4,2,1,60,1,0
2397,-133.333333333333,4,2,1,60,0,0
7197,-111.111111111111,4,2,1,60,0,0
9597,-83.3333333333333,4,2,1,60,0,0
10797,-100,4,2,1,60,0,0
11547,-133.333333333333,4,2,1,60,0,0
11997,-100,4,2,1,60,0,0
47997,-83.3333333333333,4,2,1,60,0,0
49197,-100,4,2,1,60,0,0
50397,-90.9090909090909,4,2,1,60,0,1
69597,-100,4,2,1,60,0,0

[Colours]
Combo1 : 128,255,128
Combo2 : 255,203,151
Combo3 : 140,140,140
Combo4 : 0,121,0

[HitObjects]
116,248,2397,6,0,P|184:256|312:188,1,202.500007724762,2|2,0:0|0:0,0:0:0:0:
300,176,3297,2,0,L|300:268,1,67.5000025749208,0|0,0:0|0:0,0:0:0:0:
216,148,3597,6,0,P|248:100|340:96,1,135.000005149842,2|0,0:0|0:0,0:0:0:0:
384,204,4047,2,0,P|352:252|260:256,2,135.000005149842,2|0|0,0:0|0:0|0:0,0:0:0:0:
412,148,4797,6,0,B|384:200|384:200|412:368,1,202.500007724762,2|2,0:0|0:0,0:0:0:0:
280,164,5547,2,0,L|320:296,1,135.000005149842,0|0,0:0|0:0,0:0:0:0:
176,204,5997,5,2,0:0:0:0:
176,204,6147,2,0,L|236:280,1,67.5000025749208,0|0,0:0|0:0,0:0:0:0:
380,216,6447,2,0,L|364:364,1,135.000005149842,2|0,0:0|0:0,0:0:0:0:
456,168,6897,2,0,L|432:80,1,67.5000025749208,4|0,3:0|0:0,0:0:0:0:
481,243,7197,5,2,0:0:0:0:
308,260,7347,2,0,L|216:288,1,80.9999975280763,0|0,0:0|0:0,0:0:0:0:
144,148,7647,2,0,L|152:344,1,161.999995056153,2|0,0:0|0:0,0:0:0:0:
216,364,8097,1,0,0:0:0:0:
84,328,8247,1,0,0:0:0:0:
244,336,8397,5,2,0:0:0:0:
56,328,8547,2,0,L|56:236,1,80.9999975280763,0|0,0:0|0:0,0:0:0:0:
180,152,8847,2,0,P|152:200|240:248,1,161.999995056153,2|0,0:0|0:0,0:0:0:0:
112,192,9297,2,0,P|72:172|24:180,1,80.9999975280763,8|0,0:0|0:0,0:0:0:0:
156,328,9597,6,0,P|248:336|320:216,1,215.999993408203,2|0,0:0|0:0,0:0:0:0:
248,116,10047,1,2,0:0:0:0:
248,116,10347,5,0,0:0:0:0:
344,152,10497,2,0,L|452:136,1,107.999996704102,2|2,0:0|0:0,0:0:0:0:
248,240,10797,6,0,L|194:227,1,45
116,292,10947,1,0,0:0:0:0:
92,288,11022,1,0,0:0:0:0:
68,284,11097,1,0,3:0:0:0:
176,152,11247,1,0,3:0:0:0:
176,340,11397,1,8,0:0:0:0:
276,240,11547,2,0,L|344:236,2,67.5000025749208,0|8|0,3:0|1:0|3:0,0:0:0:0:
412,196,11997,5,6,0:0:0:0:
384,300,12147,1,0,0:0:0:0:
332,160,12297,5,0,0:0:0:0:
322,53,12447,1,0,0:0:0:0:
304,240,12597,2,0,L|196:220,1,90,0|0,0:0|0:0,0:0:0:0:
80,196,12897,1,0,0:0:0:0:
80,196,13047,1,0,0:0:0:0:
252,116,13197,6,0,L|144:128,1,90,2|0,0:0|0:0,0:0:0:0:
68,100,13497,1,0,0:0:0:0:
172,220,13647,2,0,P|232:240|360:224,1,180,0|0,0:0|0:0,0:0:0:0:
460,104,14097,2,0,P|432:172|392:208,1,90,8|0,0:0|0:0,0:0:0:0:
348,148,14397,5,2,0:0:0:0:
424,264,14547,1,0,0:0:0:0:
261,228,14697,2,0,P|217:220|161:220,1,90,0|0,0:0|0:0,0:0:0:0:
408,304,14997,1,0,0:0:0:0:
340,116,15147,1,0,0:0:0:0:
220,304,15297,2,0,P|276:312|320:288,1,90,0|0,0:0|0:0,0:0:0:0:
436,164,15597,5,2,0:0:0:0:
208,128,15747,1,0,0:0:0:0:
388,100,15897,1,0,0:0:0:0:
128,184,16047,1,0,0:0:0:0:
264,36,16197,1,0,0:0:0:0:
288,252,16347,2,0,L|296:348,1,90,0|4,0:0|3:0,0:0:0:0:
304,128,16647,1,0,0:0:0:0:
160,44,16797,5,2,2:0:0:0:
304,128,16947,1,0,0:0:0:0:
160,44,17097,2,0,P|160:108|148:140,1,90,0|0,0:0|0:0,0:0:0:0:
8,192,17397,1,0,0:0:0:0:
48,64,17547,1,0,0:0:0:0:
136,220,17697,6,0,P|192:220|224:208,1,90,0|0,0:0|0:0,0:0:0:0:
308,344,17997,2,0,P|244:324|212:288,1,90,2|0,0:0|0:0,0:0:0:0:
192,136,18297,1,0,0:0:0:0:
404,180,18447,1,0,0:0:0:0:
304,40,18597,6,0,L|308:152,1,90,0|0,0:0|0:0,0:0:0:0:
388,216,18897,1,8,0:0:0:0:
152,240,19047,1,0,0:0:0:0:
272,332,19197,6,0,P|276:288|260:228,1,90,2|0,0:0|0:0,0:0:0:0:
60,168,19497,2,0,P|56:212|72:272,1,90,0|0,0:0|0:0,0:0:0:0:
288,220,19797,1,0,0:0:0:0:
152,240,19947,1,0,0:0:0:0:
212,128,20097,1,0,0:0:0:0:
268,256,20247,1,0,0:0:0:0:
124,100,20397,5,2,0:0:0:0:
176,256,20547,1,0,0:0:0:0:
167,300,20622,1,0,0:0:0:0:
159,344,20697,1,0,0:0:0:0:
292,132,20847,1,0,0:0:0:0:
88,200,20997,2,0,P|20:212|-4:200,1,90,0|0,0:0|0:0,0:0:0:0:
280,232,21297,2,0,L|292:340,1,90,4|0,3:0|0:0,0:0:0:0:
220,64,21597,5,6,0:0:0:0:
220,64,21897,1,0,0:0:0:0:
312,120,22047,2,0,L|496:108,1,180,0|0,0:0|0:0,0:0:0:0:
208,168,22497,1,0,0:0:0:0:
176,164,22797,6,0,L|160:256,1,90,2|0,0:0|0:0,0:0:0:0:
288,344,23097,2,0,L|272:248,1,90,0|0,0:0|0:0,0:0:0:0:
72,292,23397,1,0,0:0:0:0:
208,332,23547,1,0,0:0:0:0:
240,172,23697,2,0,L|124:160,1,90,8|0,0:0|0:0,0:0:0:0:
424,200,23997,5,2,0:0:0:0:
424,200,24297,1,0,0:0:0:0:
304,248,24447,2,0,L|288:48,1,180,0|0,0:0|0:0,0:0:0:0:
400,308,24897,1,0,0:0:0:0:
416,328,25197,6,0,L|308:324,1,90,2|0,0:0|0:0,0:0:0:0:
208,208,25497,1,0,0:0:0:0:
288,328,25647,1,0,0:0:0:0:
328,148,25797,2,0,L|324:44,1,90,0|0,0:0|0:0,0:0:0:0:
176,188,26097,2,0,L|164:296,1,90,4|0,3:0|0:0,0:0:0:0:
240,112,26397,1,2,0:0:0:0:
392,232,26547,6,0,L|284:228,1,90,0|0,0:0|0:0,0:0:0:0:
96,132,26847,2,0,L|88:248,1,90,0|0,0:0|0:0,0:0:0:0:
344,120,27147,1,0,0:0:0:0:
296,36,27297,1,0,0:0:0:0:
240,112,27447,1,0,0:0:0:0:
464,72,27597,6,0,L|472:176,1,90,2|0,0:0|0:0,0:0:0:0:
280,224,27897,1,0,0:0:0:0:
280,224,28047,1,0,0:0:0:0:
424,272,28197,1,0,0:0:0:0:
244,252,28347,1,0,0:0:0:0:
352,108,28497,2,0,P|356:172|380:208,1,90,0|0,0:0|0:0,0:0:0:0:
500,172,28797,5,2,0:0:0:0:
344,268,28947,1,0,0:0:0:0:
504,212,29097,1,0,0:0:0:0:
312,188,29247,1,2,0:0:0:0:
508,248,29397,2,0,L|496:352,1,90,0|0,0:0|0:0,0:0:0:0:
448,104,29697,1,2,0:0:0:0:
448,104,29847,1,0,0:0:0:0:
364,288,29997,5,0,3:0:0:0:
228,160,30147,1,0,3:0:0:0:
232,115,30222,1,0,3:0:0:0:
237,70,30297,1,0,3:0:0:0:
212,304,30447,1,0,3:0:0:0:
124,180,30597,2,0,L|32:200,1,90,8|0,0:0|3:0,0:0:0:0:
324,144,30897,1,8,1:0:0:0:
200,48,31047,6,0,P|204:136|224:232,1,180,6|0,3:2|0:0,0:0:0:0:
324,236,31497,2,0,L|432:236,1,90,0|0,0:0|0:0,0:0:0:0:
176,312,31797,1,0,0:0:0:0:
316,364,31947,2,0,P|280:316|256:272,1,90,0|0,0:0|0:0,0:0:0:0:
28,224,32247,6,0,P|88:248|216:208,1,180,2|0,0:0|0:0,0:0:0:0:
240,136,32697,2,0,L|224:48,1,90,0|0,0:0|0:0,0:0:0:0:
284,284,32997,1,0,0:0:0:0:
216,160,33147,1,0,0:0:0:0:
168,328,33297,1,8,0:0:0:0:
324,148,33447,6,0,P|392:136|504:192,1,180,2|0,0:0|0:0,0:0:0:0:
196,236,33897,2,0,P|148:256|96:264,1,90,0|0,0:0|0:0,0:0:0:0:
360,224,34197,1,0,0:0:0:0:
240,124,34347,1,0,0:0:0:0:
296,312,34497,1,0,0:0:0:0:
92,268,34647,6,0,P|80:212|100:88,1,180,2|0,0:0|0:0,0:0:0:0:
244,100,35097,1,0,0:0:0:0:
40,76,35247,2,0,L|48:192,1,90,0|0,0:0|0:0,0:0:0:0:
216,248,35547,1,0,0:0:0:0:
152,124,35697,1,4,3:0:0:0:
192,328,35847,6,0,B|232:332|264:320|284:292|284:292|316:316|368:296,1,180,2|0,0:0|0:0,0:0:0:0:
332,140,36297,2,0,L|328:252,1,90,0|0,0:0|0:0,0:0:0:0:
424,160,36597,1,0,0:0:0:0:
308,236,36747,1,0,0:0:0:0:
208,144,36897,1,0,0:0:0:0:
104,238,37047,6,0,B|108:200|88:176|88:176|100:148|100:148|84:124|86:86|96:64,1,180,2|0,0:0|0:0,0:0:0:0:
268,64,37497,2,0,P|264:144|252:176,1,90,0|0,0:0|0:0,0:0:0:0:
204,264,37797,1,0,0:0:0:0:
164,100,37947,1,0,0:0:0:0:
344,144,38097,1,8,0:0:0:0:
140,116,38247,6,0,B|104:168|104:168|120:288,1,180,2|0,0:0|0:0,0:0:0:0:
304,336,38697,2,0,L|288:232,1,90
424,216,38997,1,0,0:0:0:0:
212,280,39147,1,0,0:0:0:0:
340,168,39297,1,0,0:0:0:0:
120,188,39447,1,0,0:0:0:0:
256,76,39597,5,2,0:0:0:0:
228,252,39747,1,0,0:0:0:0:
184,264,39822,1,0,0:0:0:0:
140,276,39897,1,0,0:0:0:0:
372,284,40047,1,0,0:0:0:0:
172,160,40197,2,0,P|128:144|72:140,1,90,0|0,0:0|0:0,0:0:0:0:
284,80,40497,1,4,3:0:0:0:
408,152,40647,6,0,P|384:196|272:160,1,180,2|0,0:0|0:0,0:0:0:0:
192,64,41097,1,0,0:0:0:0:
192,64,41247,1,0,0:0:0:0:
96,164,41397,2,0,L|88:280,1,90,0|0,0:0|0:0,0:0:0:0:
208,44,41697,1,0,0:0:0:0:
248,184,41847,6,0,P|316:212|420:188,1,180,2|0,0:0|0:0,0:0:0:0:
480,324,42297,2,0,P|424:304|360:312,1,90,0|0,0:0|0:0,0:0:0:0:
180,332,42597,1,0,0:0:0:0:
260,164,42747,1,0,0:0:0:0:
328,376,42897,1,8,0:0:0:0:
424,228,43047,6,0,L|216:244,1,180,2|0,0:0|0:0,0:0:0:0:
188,112,43497,1,0,0:0:0:0:
120,228,43647,2,0,L|128:336,1,90,0|0,0:0|0:0,0:0:0:0:
224,136,43947,1,0,0:0:0:0:
88,124,44097,1,0,0:0:0:0:
176,20,44247,1,0,0:0:0:0:
244,176,44397,5,2,0:0:0:0:
92,272,44547,2,0,L|4:244,1,90,0|0,0:0|0:0,0:0:0:0:
304,248,44847,1,0,0:0:0:0:
156,156,44997,1,0,0:0:0:0:
188,288,45147,1,0,0:0:0:0:
320,256,45297,1,4,3:0:0:0:
288,124,45447,6,0,P|200:124|104:108,1,180,2|0,0:0|0:0,0:0:0:0:
56,208,45897,2,0,P|52:260|44:308,1,90,0|0,0:0|0:0,0:0:0:0:
88,80,46197,1,0,0:0:0:0:
196,160,46347,1,0,0:0:0:0:
308,84,46497,1,0,0:0:0:0:
408,180,46647,1,0,0:0:0:0:
272,56,46797,5,2,0:0:0:0:
320,256,46947,1,0,0:0:0:0:
112,216,47097,2,0,L|-12:192,1,90
216,332,47397,1,0,0:0:0:0:
216,332,47547,1,0,0:0:0:0:
224,172,47697,1,8,0:0:0:0:
128,328,47847,1,0,0:0:0:0:
264,160,47997,6,0,P|336:120|424:224,1,215.999993408203,2|0,0:0|0:0,0:0:0:0:
252,248,48447,2,0,P|181:205|227:77,1,215.999993408203,2|0,0:0|0:0,0:0:0:0:
336,216,48897,2,0,L|328:356,1,107.999996704102,2|2,0:0|0:0,0:0:0:0:
168,328,49197,5,0,3:0:0:0:
368,344,49347,1,0,3:0:0:0:
412,337,49422,1,0,3:0:0:0:
456,330,49497,1,0,3:0:0:0:
176,348,49647,1,0,3:0:0:0:
312,144,49797,1,8,0:0:0:0:
292,372,49947,1,0,3:0:0:0:
196,164,50097,2,0,P|136:168|92:180,1,90,8|0,1:0|3:0,0:0:0:0:
392,244,50397,6,0,L|392:32,1,198.000006042481,4|0,1:2|0:0,0:0:0:0:
304,280,50847,2,0,P|256:252|104:256,1,198.000006042481,0|0,1:0|0:0,0:0:0:0:
384,336,51297,2,0,L|500:320,1,99.0000030212403,0|0,3:0|3:0,0:0:0:0:
224,336,51597,6,0,B|188:272|188:272|208:128,1,198.000006042481,0|0,1:0|0:0,0:0:0:0:
396,92,52047,1,0,1:0:0:0:
168,52,52197,1,0,0:0:0:0:
168,52,52347,1,0,3:0:0:0:
368,172,52497,1,0,3:0:0:0:
368,172,52647,1,0,3:0:0:0:
80,184,52797,6,0,P|148:188|248:96,1,198.000006042481,0|0,1:0|0:0,0:0:0:0:
24,276,53247,2,0,L|260:252,1,198.000006042481,0|0,1:0|0:0,0:0:0:0:
420,236,53697,1,0,3:0:0:0:
420,236,53847,1,0,3:0:0:0:
312,72,53997,6,0,L|320:272,1,198.000006042481,0|0,1:0|0:0,0:0:0:0:
424,48,54447,1,0,1:0:0:0:
236,160,54597,2,0,P|176:148|128:112,1,99.0000030212403,0|0,0:0|3:0,0:0:0:0:
476,172,54897,2,0,P|496:208|488:288,1,99.0000030212403,0|0,3:0|3:0,0:0:0:0:
240,308,55197,5,0,1:0:0:0:
440,344,55347,1,0,0:0:0:0:
312,144,55497,1,0,0:0:0:0:
316,360,55647,1,0,1:0:0:0:
112,204,55797,5,0,0:0:0:0:
344,168,55947,1,0,0:0:0:0:
184,36,56097,1,0,3:0:0:0:
216,280,56247,1,0,3:0:0:0:
336,71,56397,5,0,1:0:0:0:
336,328,56547,1,0,0:0:0:0:
185,120,56697,1,0,0:0:0:0:
429,199,56847,1,0,1:0:0:0:
444,220,57147,1,0,3:0:0:0:
244,315,57297,2,0,P|186:309|143:312,1,99.0000030212403,0|0,3:0|3:0,0:0:0:0:
75,163,57597,6,0,P|133:169|176:166,1,99.0000030212403,0|0,1:0|0:0,0:0:0:0:
408,164,57897,1,0,0:0:0:0:
168,144,58047,1,0,1:0:0:0:
316,272,58197,1,0,0:0:0:0:
360,80,58347,5,0,0:0:0:0:
328,308,58497,1,0,3:0:0:0:
328,308,58647,1,0,3:0:0:0:
120,240,58797,5,0,1:0:0:0:
380,230,58947,1,0,0:0:0:0:
369,257,59022,1,0,0:0:0:0:
357,284,59097,1,0,0:0:0:0:
224,56,59247,1,0,1:0:0:0:
232,76,59547,5,0,3:0:0:0:
216,172,59697,2,0,L|100:160,1,99.0000030212403,0|0,3:0|3:0,0:0:0:0:
408,136,59997,6,0,P|440:180|408:348,1,198.000006042481,4|0,1:2|0:0,0:0:0:0:
500,164,60447,2,0,L|272:148,1,198.000006042481,0|0,1:0|0:0,0:0:0:0:
144,268,60897,2,0,L|280:264,1,99.0000030212403,0|0,3:0|3:0,0:0:0:0:
76,84,61197,6,0,B|72:224|72:224|48:280,1,198.000006042481,0|0,1:0|0:0,0:0:0:0:
152,28,61647,1,0,1:0:0:0:
302,150,61797,1,0,0:0:0:0:
302,150,61947,1,0,3:0:0:0:
120,224,62097,1,0,3:0:0:0:
120,224,62247,1,0,3:0:0:0:
311,61,62397,6,0,P|386:116|368:208,1,198.000006042481,0|0,1:0|0:0,0:0:0:0:
488,40,62847,2,0,L|456:248,1,198.000006042481,0|0,1:0|0:0,0:0:0:0:
212,188,63297,1,0,3:0:0:0:
212,188,63447,1,0,3:0:0:0:
408,304,63597,5,0,1:0:0:0:
328,112,63747,2,0,L|320:224,1,99.0000030212403,0|0,0:0|0:0,0:0:0:0:
264,32,64047,1,0,1:0:0:0:
96,96,64197,2,0,P|152:112|212:100,1,99.0000030212403,0|0,0:0|0:0,0:0:0:0:
416,152,64497,2,0,L|423:53,1,99.0000030212403,0|0,3:0|3:0,0:0:0:0:
212,188,64797,6,0,B|200:236|200:236|256:376,1,198.000006042481,0|0,1:0|0:0,0:0:0:0:
124,188,65247,1,0,1:0:0:0:
376,212,65397,2,0,L|280:232,1,99.0000030212403,0|0,0:0|0:0,0:0:0:0:
72,272,65697,1,0,3:0:0:0:
72,272,65847,1,0,3:0:0:0:
232,128,65997,5,0,1:0:0:0:
204,324,66147,1,0,0:0:0:0:
96,176,66297,1,0,0:0:0:0:
360,216,66447,1,0,1:0:0:0:
204,352,66597,5,0,3:0:0:0:
152,116,66747,1,0,3:0:0:0:
96,284,66897,1,0,3:0:0:0:
268,208,67047,1,0,3:0:0:0:
84,312,67197,5,2,0:0:0:0:
40,120,67347,2,0,L|140:128,1,99.0000030212403,0|0,0:0|0:0,0:0:0:0:
292,296,67647,1,2,0:0:0:0:
248,72,67797,2,0,L|240:204,1,99.0000030212403,0|0,0:0|0:0,0:0:0:0:
96,284,68097,2,0,L|88:172,1,99.0000030212403,2|2,0:0|0:0,0:0:0:0:
368,128,68397,5,0,3:0:0:0:
284,308,68547,1,0,3:0:0:0:
235,298,68622,1,0,3:0:0:0:
186,288,68697,1,0,3:0:0:0:
380,160,68847,1,8,0:0:0:0:
436,344,68997,1,0,3:0:0:0:
184,252,69147,1,0,3:0:0:0:
464,236,69297,1,8,1:0:0:0:
148,180,69447,1,0,3:0:0:0:
408,312,69597,6,0,L|416:108,1,180,6|0,0:0|0:0,0:0:0:0:
292,76,70047,1,2,0:0:0:0:
316,80,70347,1,0,0:0:0:0:
188,116,70497,1,0,3:0:0:0:
360,152,70647,1,0,3:0:0:0:
200,200,70797,6,0,P|140:188|116:76,1,180,2|0,0:0|0:0,0:0:0:0:
292,200,71247,1,2,0:0:0:0:
188,288,71397,2,0,L|60:276,1,90,0|0,0:0|3:0,0:0:0:0:
312,284,71697,1,8,3:2:0:0:
312,284,71847,1,0,3:0:0:0:
200,200,71997,6,0,P|152:200|208:128,1,180,2|0,0:0|0:0,0:0:0:0:
272,144,72447,1,2,0:0:0:0:
91,261,72597,2,0,P|49:183|64:96,1,180,0|0,0:0|3:0,0:0:0:0:
296,144,73047,1,0,3:0:0:0:
224,304,73197,6,0,L|120:328,1,90,2|0,0:0|0:0,0:0:0:0:
200,200,73497,1,0,0:0:0:0:
184,336,73647,2,0,L|80:360,1,90,2|0,0:0|0:0,0:0:0:0:
288,236,73947,1,0,3:0:0:0:
92,260,74097,1,4,3:3:0:0:
184,160,74247,1,0,3:0:0:0:
308,320,74397,6,0,B|356:296|356:296|384:168,1,180,2|0,0:0|0:0,0:0:0:0:
276,88,74847,1,2,0:0:0:0:
272,104,75147,1,0,0:0:0:0:
144,156,75297,1,0,3:0:0:0:
180,24,75447,1,0,3:0:0:0:
236,180,75597,6,0,B|244:224|244:224|208:376,1,180,2|0,0:0|0:0,0:0:0:0:
100,284,76047,1,2,0:0:0:0:
352,256,76197,2,0,L|456:240,1,90,0|0,0:0|3:0,0:0:0:0:
296,96,76497,5,8,3:2:0:0:
272,292,76647,1,0,3:0:0:0:
148,68,76797,1,2,0:0:0:0:
120,88,77097,5,0,0:0:0:0:
284,64,77247,1,2,0:0:0:0:
272,32,77547,5,0,0:0:0:0:
224,152,77697,2,0,L|124:168,1,90,2|2,0:0|0:0,0:0:0:0:
428,120,77997,5,0,3:0:0:0:
472,248,78147,1,0,3:0:0:0:
336,128,78297,5,0,3:0:0:0:
352,280,78447,1,0,3:0:0:0:
236,128,78597,5,8,0:0:0:0:
220,296,78747,1,0,3:0:0:0:
136,116,78897,5,8,1:0:0:0:
88,304,79047,1,0,3:0:0:0:
48,52,79197,5,6,0:0:0:0:
