osu file format v14

[General]
AudioFilename: No title.mp3
AudioLeadIn: 0
PreviewTime: 50097
Countdown: 0
SampleSet: Soft
StackLeniency: 0.7
Mode: 0
LetterboxInBreaks: 0
WidescreenStoryboard: 0

[Editor]
DistanceSpacing: 1
BeatDivisor: 4
GridSize: 4
TimelineZoom: 1.3

[Metadata]
Title:No title
TitleUnicode:No title
Artist:Reol
ArtistUnicode:Reol
Creator:VINXIS
Version:Lust's Insane
Source:
Tags:title- title+ Kamio_Misuzu CelsiusLK deetz byfar Fast jieusieu toybot Hatsune Miku Giga-P dmARTS Anyosupenyosuyaya Lust Irreversible sukiNathan Leader Mishima Yurara
BeatmapID:738063
BeatmapSetID:320118

[Difficulty]
HPDrainRate:7
CircleSize:4
OverallDifficulty:8
ApproachRate:9.3
SliderMultiplier:2
SliderTickRate:1

[Events]
//Background and Video events
0,0,"Lust.jpg",0,0
//Break Periods
//Storyboard Layer 0 (Background)
//Storyboard Layer 1 (Fail)
//Storyboard Layer 2 (Pass)
//Storyboard Layer 3 (Foreground)
//Storyboard Sound Samples

[TimingPoints]
2397,300,4,2,0,50,1,0
11997,-100,4,2,0,75,0,0
50397,-100,4,2,0,90,0,1
69597,-100,4,2,0,70,0,0
76797,-100,4,2,0,40,0,0

[Colours]
Combo1 : 128,128,255
Combo2 : 0,128,255
Combo3 : 145,255,255
Combo4 : 0,128,128

[HitObjects]
133,114,11997,6,0,L|109:232,1,100,4|0,1:0|0:0,0:0:0:0:
137,308,12297,1,0,0:0:0:0:
42,282,12447,1,0,1:0:0:0:
209,239,12597,2,0,P|261:234|410:262,1,200,0|0,0:0|1:0,0:0:0:0:
476,330,13047,1,0,0:0:0:0:
476,189,13197,6,0,P|488:137|486:89,1,100,0|0,1:0|0:0,0:0:0:0:
415,19,13497,1,0,0:0:0:0:
344,89,13647,2,0,P|332:141|334:189,1,100,0|0,1:0|0:0,0:0:0:0:
415,19,13947,1,0,0:0:0:0:
273,18,14097,2,0,L|173:9,1,100,8|0,1:2|0:0,0:0:0:0:
133,114,14397,5,0,1:0:0:0:
201,187,14547,1,0,0:0:0:0:
230,91,14697,1,2,0:3:0:0:
103,209,14847,1,0,1:0:0:0:
170,282,14997,1,0,0:0:0:0:
268,262,15147,1,0,0:0:0:0:
300,167,15297,2,0,L|194:188,1,100,0|0,1:0|0:0,0:0:0:0:
71,303,15597,5,0,1:0:0:0:
138,377,15747,1,0,0:0:0:0:
236,357,15897,1,2,0:3:0:0:
268,262,16047,1,0,1:0:0:0:
170,282,16197,2,0,L|203:182,1,100,0|0,0:0|0:0,0:0:0:0:
133,114,16497,2,0,L|206:193,1,100,8|0,1:2|0:0,0:0:0:0:
334,337,16797,5,0,1:0:0:0:
404,266,16947,1,0,0:0:0:0:
338,190,17097,1,0,0:0:0:0:
268,262,17247,1,0,1:0:0:0:
430,363,17397,2,0,P|479:330|501:286,1,100,0|0,0:0|0:0,0:0:0:0:
432,168,17697,2,0,P|382:168|338:190,1,100,0|0,1:0|0:0,0:0:0:0:
334,337,17997,5,0,1:0:0:0:
430,363,18147,1,0,0:0:0:0:
501,292,18297,1,2,0:0:0:0:
404,266,18447,1,0,1:0:0:0:
268,262,18597,2,0,P|241:206|245:154,1,100,2|0,0:3|0:0,0:0:0:0:
458,75,18897,2,0,P|456:124|432:168,1,100,8|0,1:2|0:0,0:0:0:0:
311,98,19197,5,0,1:0:0:0:
375,21,19347,1,0,0:0:0:0:
338,190,19497,1,2,0:3:0:0:
241,169,19647,1,0,1:0:0:0:
214,72,19797,2,0,L|287:0,1,100,0|0,0:0|0:0,0:0:0:0:
144,143,20097,1,0,1:0:0:0:
117,46,20247,1,0,0:0:0:0:
241,169,20397,6,0,P|214:213|169:242,1,100,0|0,1:0|0:0,0:0:0:0:
47,117,20697,2,0,L|155:146,1,100,2|0,0:0|1:0,0:0:0:0:
338,190,20997,2,0,L|446:219,2,100,0|0|2,0:0|0:0|0:0,0:0:0:0:
338,190,21597,5,0,1:0:0:0:
271,264,21897,1,2,0:3:0:0:
241,169,22047,1,0,1:0:0:0:
307,94,22197,1,0,0:0:0:0:
404,114,22347,1,0,0:0:0:0:
437,208,22497,1,0,1:0:0:0:
372,284,22647,1,0,0:0:0:0:
241,169,22797,6,0,P|212:117|211:71,1,100,0|0,1:0|0:0,0:0:0:0:
404,114,23097,1,2,0:0:0:0:
338,190,23247,1,0,1:0:0:0:
170,239,23397,2,0,L|70:213,1,100
267,265,23697,2,0,P|296:317|297:363,1,100,8|0,1:2|0:0,0:0:0:0:
145,140,23997,6,0,P|210:75|322:109,2,200,0|2|0,1:0|0:3|0:0,0:0:0:0:
170,239,24747,1,0,0:0:0:0:
241,169,24897,2,0,L|218:71,1,100,0|0,1:0|0:0,0:0:0:0:
170,239,25197,5,0,1:0:0:0:
267,265,25347,1,0,0:0:0:0:
338,190,25497,1,2,0:0:0:0:
145,140,25647,1,0,0:0:0:0:
241,169,25797,1,0,0:0:0:0:
308,95,25947,1,0,0:0:0:0:
212,66,26097,2,0,P|154:42|112:47,1,100,8|0,1:2|0:0,0:0:0:0:
241,169,26397,5,0,1:0:0:0:
308,95,26547,2,0,L|283:-7,1,100,0|0,0:0|0:0,0:0:0:0:
241,169,26847,2,0,L|270:280,1,100,0|0,1:0|0:0,0:0:0:0:
145,140,27147,1,0,0:0:0:0:
338,190,27297,2,0,P|387:155|405:118,1,100,0|0,1:0|1:0,0:0:0:0:
241,169,27597,5,0,1:0:0:0:
170,239,27747,1,0,0:0:0:0:
195,335,27897,1,2,0:0:0:0:
267,265,28047,1,0,1:0:0:0:
145,140,28197,2,0,P|98:166|74:211,1,100,0|0,0:0|0:0,0:0:0:0:
195,335,28497,2,0,L|169:233,1,100,8|0,1:2|0:0,0:0:0:0:
114,45,28797,5,0,1:0:0:0:
212,66,28947,2,0,L|315:97,1,100,0|2,0:0|0:0,0:0:0:0:
406,116,29247,1,0,1:0:0:0:
436,211,29397,2,0,P|334:202|265:271,1,200,0|0,0:0|1:0,0:0:0:0:
338,336,29847,1,0,0:0:0:0:
241,169,29997,5,2,0:0:0:0:
241,169,30072,1,0,0:0:0:0:
241,169,30147,1,0,0:0:0:0:
75,212,30297,1,2,0:0:0:0:
212,66,30447,1,0,0:0:0:0:
406,116,30597,1,4,3:0:0:0:
267,265,30747,1,0,0:0:0:0:
145,140,30897,1,8,0:3:0:0:
307,94,31047,6,0,P|373:97|433:224,1,200,0|0,0:0|0:0,0:0:0:0:
241,169,31497,1,0,0:0:0:0:
145,140,31647,2,0,P|115:78|116:43,1,100,0|0,1:0|0:0,0:0:0:0:
307,94,31947,2,0,L|419:119,1,100,0|0,0:0|1:0,0:0:0:0:
267,265,32247,6,0,L|212:66,1,200,0|0,0:0|0:0,0:0:0:0:
436,211,32697,2,0,L|363:285,1,100,0|0,0:0|1:0,0:0:0:0:
301,359,32997,1,0,0:0:0:0:
202,341,33147,1,0,0:0:0:0:
241,169,33297,1,0,1:0:0:0:
267,265,33447,6,0,P|165:247|67:271,1,200,0|0,0:0|0:0,0:0:0:0:
1,339,33897,1,0,0:0:0:0:
101,362,34047,1,0,1:0:0:0:
1,197,34197,2,0,P|3:142|27:100,1,100,0|0,0:0|0:0,0:0:0:0:
120,75,34497,1,0,1:0:0:0:
193,143,34647,6,0,L|397:120,1,200,0|0,0:0|0:0,0:0:0:0:
462,49,35097,1,2,0:0:0:0:
365,23,35247,1,0,1:0:0:0:
462,191,35397,2,0,P|460:246|436:288,1,100,0|0,0:0|0:0,0:0:0:0:
367,355,35697,1,8,1:2:0:0:
296,284,35847,6,0,P|270:187|295:87,1,200,0|0,0:0|0:0,0:0:0:0:
365,23,36297,1,0,0:0:0:0:
388,120,36447,1,0,1:0:0:0:
221,20,36597,2,0,P|169:17|117:31,1,100,0|0,0:0|0:0,0:0:0:0:
51,99,36897,1,0,1:0:0:0:
121,169,37047,6,0,P|147:266|122:366,1,200,0|0,0:0|0:0,0:0:0:0:
124,360,37497,1,0,0:0:0:0:
53,289,37647,1,0,1:0:0:0:
225,355,37797,2,0,L|297:283,1,100,0|0,0:0|0:0,0:0:0:0:
312,185,38097,1,8,1:2:0:0:
388,120,38247,6,0,P|286:89|219:149,1,200,0|0,0:0|0:0,0:0:0:0:
231,243,38697,1,0,0:0:0:0:
312,185,38847,1,0,1:0:0:0:
121,169,38997,2,0,L|7:172,1,100,0|2,0:0|0:0,0:0:0:0:
191,98,39297,2,0,L|305:95,1,100,0|0,1:0|0:0,0:0:0:0:
406,218,39597,6,0,P|426:280|419:326,1,100,2|0,0:0|0:0,0:0:0:0:
247,338,39897,2,0,P|229:292|231:243,1,100,2|0,0:0|0:0,0:0:0:0:
290,95,40197,1,2,0:0:0:0:
312,185,40347,1,0,1:0:0:0:
247,338,40497,1,8,1:2:0:0:
231,243,40647,6,0,P|117:213|15:235,1,200,0|0,0:0|0:0,0:0:0:0:
11,323,41097,1,0,0:0:0:0:
108,297,41247,1,0,1:0:0:0:
31,125,41397,2,0,P|16:71|23:24,1,100,0|0,0:0|0:0,0:0:0:0:
114,69,41697,1,0,1:0:0:0:
121,169,41847,6,0,P|223:151|319:190,1,200,0|0,0:0|0:0,0:0:0:0:
330,283,42297,1,0,0:0:0:0:
231,243,42447,1,0,1:0:0:0:
405,217,42597,2,0,P|403:159|383:116,1,100
292,86,42897,1,0,1:0:0:0:
330,283,43047,6,0,P|430:313|504:240,2,200,0|0|0,0:0|0:0|1:0,0:0:0:0:
311,184,43797,1,0,0:0:0:0:
405,217,43947,1,0,0:0:0:0:
231,243,44097,2,0,L|109:231,1,100,0|0,1:0|0:0,0:0:0:0:
311,184,44397,5,0,1:0:0:0:
330,283,44547,1,0,0:0:0:0:
219,143,44697,2,0,P|202:90|211:41,1,100,0|0,0:0|1:0,0:0:0:0:
405,217,44997,2,0,P|425:273|422:321,1,100,0|0,0:0|0:0,0:0:0:0:
350,381,45297,1,8,1:2:0:0:
311,184,45447,6,0,P|379:122|485:155,1,200,0|0,0:0|0:0,0:0:0:0:
502,243,45897,1,0,0:0:0:0:
431,314,46047,1,0,1:0:0:0:
231,243,46197,2,0,P|172:231|137:201,1,100
125,108,46497,1,0,1:0:0:0:
202,44,46647,1,0,0:0:0:0:
311,184,46797,6,0,P|330:248|317:289,1,100,0|0,1:0|0:0,0:0:0:0:
219,143,47097,2,0,P|256:99|303:82,1,100,0|0,0:0|1:0,0:0:0:0:
231,243,47397,2,0,L|29:264,1,200,2|8,0:0|1:2,0:0:0:0:
45,362,47847,6,0,L|247:341,1,200,0|0,0:0|0:0,0:0:0:0:
322,278,48297,1,0,0:0:0:0:
231,243,48447,1,4,3:0:0:0:
336,377,48597,2,0,P|390:353|417:317,1,100,0|0,0:0|0:0,0:0:0:0:
311,184,48897,1,8,3:0:0:0:
243,341,49047,1,0,0:0:0:0:
404,222,49197,5,12,0:3:0:0:
404,222,49272,1,8,0:3:0:0:
404,222,49347,1,8,0:3:0:0:
219,143,49497,1,0,3:0:0:0:
151,303,49647,1,0,0:0:0:0:
336,377,49797,1,4,0:0:0:0:
311,184,49947,5,0,0:0:0:0:
139,203,50097,1,0,3:0:0:0:
243,341,50247,1,0,0:0:0:0:
412,322,50397,6,0,P|479:286|488:166,1,200,4|0,0:0|0:0,0:0:0:0:
390,122,50847,2,0,B|223:249,1,200,0|0,1:0|0:0,0:0:0:0:
151,303,51297,2,0,P|90:291|61:266,1,100,0|2,1:0|0:0,0:0:0:0:
45,168,51597,6,0,P|126:104|212:134,1,200,4|0,0:0|0:0,0:0:0:0:
139,203,52047,2,0,L|96:3,1,200,0|0,1:0|0:0,0:0:0:0:
59,263,52497,2,0,L|71:366,1,100,4|2,1:0|0:0,0:0:0:0:
170,374,52797,6,0,P|272:364|351:288,1,200,4|0,0:0|0:0,0:0:0:0:
272,231,53247,2,0,P|345:203|438:271,1,200,0|0,1:0|0:0,0:0:0:0:
174,257,53697,2,0,P|177:196|204:154,1,100,0|0,1:0|0:0,0:0:0:0:
246,328,53997,6,0,P|159:355|79:285,1,200,4|0,0:0|0:0,0:0:0:0:
343,302,54447,2,0,B|495:343|495:343|468:300,1,200,0|0,1:0|0:0,0:0:0:0:
272,231,54897,1,0,1:0:0:0:
246,328,55047,1,0,0:0:0:0:
369,205,55197,6,0,P|396:149|392:103,1,100,4|0,0:0|0:0,0:0:0:0:
325,38,55497,1,0,0:0:0:0:
228,62,55647,1,0,1:0:0:0:
272,231,55797,2,0,L|298:130,1,100,0|0,0:0|0:0,0:0:0:0:
325,38,56097,1,0,1:0:0:0:
131,86,56247,1,0,0:0:0:0:
174,257,56397,6,0,P|243:326|351:294,1,200,0|0,1:0|0:0,0:0:0:0:
369,205,56847,2,0,P|283:132|197:163,1,200,0|0,1:0|0:0,0:0:0:0:
110,179,57297,2,0,L|70:282,1,100,8|0,1:2|0:0,0:0:0:0:
272,231,57597,6,0,L|298:130,1,100,0|0,1:0|0:0,0:0:0:0:
228,62,57897,1,2,0:0:0:0:
174,257,58047,1,0,1:0:0:0:
369,205,58197,1,2,0:0:0:0:
200,158,58347,5,0,0:0:0:0:
246,328,58497,1,0,1:0:0:0:
369,205,58647,1,0,0:0:0:0:
174,257,58797,5,0,1:0:0:0:
174,257,58872,1,0,0:0:0:0:
174,257,58947,1,0,0:0:0:0:
343,301,59097,1,2,0:0:0:0:
296,134,59247,2,0,P|217:61|125:91,1,200,0|0,1:0|0:0,0:0:0:0:
369,205,59697,2,0,P|393:155|392:107,1,100,8|0,1:2|0:0,0:0:0:0:
272,231,59997,6,0,P|339:300|443:274,1,200,4|0,0:0|0:0,0:0:0:0:
200,158,60447,2,0,L|145:369,1,200,0|0,1:0|0:0,0:0:0:0:
131,86,60897,2,0,P|101:40|57:15,1,100,0|0,1:0|0:0,0:0:0:0:
272,231,61197,6,0,L|327:20,1,200,4|0,0:0|0:0,0:0:0:0:
175,255,61647,2,0,P|243:326|347:298,1,200,0|0,1:0|0:0,0:0:0:0:
371,215,62097,1,0,1:0:0:0:
308,137,62247,1,0,0:0:0:0:
110,179,62397,6,0,P|81:284|156:356,1,200,4|0,0:0|0:0,0:0:0:0:
371,215,62847,2,0,P|401:104|339:42,1,200,0|0,1:0|0:0,0:0:0:0:
131,86,63297,1,0,1:0:0:0:
175,255,63447,1,0,0:0:0:0:
308,137,63597,6,0,L|99:181,1,200,4|0,0:0|0:0,0:0:0:0:
175,255,64047,2,0,L|374:214,1,200,0|0,1:0|0:0,0:0:0:0:
408,121,64497,2,0,P|385:74|342:44,1,100,8|0,1:2|0:0,0:0:0:0:
370,214,64797,6,0,P|463:203|507:107,1,200,0|0,1:0|0:0,0:0:0:0:
308,137,65247,1,0,1:0:0:0:
272,230,65397,2,0,P|237:288|237:329,1,100,0|0,0:0|0:0,0:0:0:0:
334,307,65697,1,0,1:0:0:0:
308,137,65847,1,0,0:0:0:0:
175,255,65997,5,0,1:0:0:0:
334,307,66147,1,0,0:0:0:0:
470,199,66297,1,0,0:0:0:0:
308,137,66447,1,0,1:0:0:0:
235,323,66597,5,0,0:0:0:0:
370,214,66747,1,0,0:0:0:0:
344,43,66897,1,8,1:2:0:0:
209,151,67047,1,0,0:0:0:0:
334,307,67197,5,2,0:0:0:0:
308,137,67347,1,0,0:0:0:0:
173,245,67497,1,0,0:0:0:0:
432,293,67647,5,2,0:0:0:0:
308,137,67797,1,0,0:0:0:0:
110,167,67947,1,2,0:0:0:0:
235,323,68097,2,0,L|272:229,1,100,0|2,1:0|0:0,0:0:0:0:
344,43,68397,5,4,0:0:0:0:
344,43,68472,1,0,0:0:0:0:
344,43,68547,1,0,0:0:0:0:
209,151,68697,1,0,0:0:0:0:
235,323,68847,1,0,0:0:0:0:
370,214,68997,1,0,1:0:0:0:
245,59,69147,5,0,0:0:0:0:
271,229,69297,1,8,1:2:0:0:
408,121,69447,1,0,0:0:0:0:
408,121,69522,1,0,0:0:0:0:
408,121,69597,2,0,L|205:152,1,200,4|0,0:0|0:0,0:0:0:0:
110,167,70047,2,0,P|145:73|239:53,1,200,0|0,1:0|0:0,0:0:0:0:
344,43,70497,1,0,1:0:0:0:
308,137,70647,1,0,0:0:0:0:
271,229,70797,6,0,L|66:262,1,200,0|0,1:0|0:0,0:0:0:0:
11,181,71247,2,0,L|216:149,1,200,0|0,1:0|0:0,0:0:0:0:
308,137,71697,1,8,1:2:0:0:
370,215,71847,1,0,0:0:0:0:
333,308,71997,6,0,P|428:295|470:204,1,200,0|0,1:0|0:0,0:0:0:0:
408,121,72447,2,0,P|303:143|272:238,1,200,0|0,1:0|0:0,0:0:0:0:
234,315,72897,1,0,1:0:0:0:
333,308,73047,1,0,0:0:0:0:
370,215,73197,6,0,L|239:51,1,200,0|0,1:0|0:0,0:0:0:0:
173,129,73647,2,0,P|125:195|142:322,1,200,0|0,1:0|0:0,0:0:0:0:
234,315,74097,2,0,P|225:264|193:226,1,100,8|0,1:2|0:0,0:0:0:0:
133,308,74397,6,0,L|339:308,1,200,0|0,1:0|0:0,0:0:0:0:
433,293,74847,2,0,P|469:211|412:124,1,200,0|0,1:0|0:0,0:0:0:0:
370,215,75297,2,0,P|423:224|474:205,1,100,0|0,1:0|0:0,0:0:0:0:
313,132,75597,6,0,B|265:149|265:149|114:130,1,200,0|0,1:0|0:0,0:0:0:0:
46,59,76047,2,0,B|94:42|94:42|245:61,1,200,0|0,1:0|0:0,0:0:0:0:
409,100,76497,2,0,P|381:59|338:35,1,100,0|0,1:0|0:0,0:0:0:0:
370,215,76797,6,0,B|426:215|426:215|405:176,1,100,4|0,3:0|0:0,0:0:0:0:
313,132,77097,1,0,3:0:0:0:
216,157,77247,2,0,B|160:157|160:157|181:196,2,100,0|0|0,0:0|0:0|0:0,0:0:0:0:
286,228,77697,1,8,3:0:0:0:
241,60,77847,1,8,0:3:0:0:
409,105,77997,5,8,0:3:0:0:
409,105,78072,1,0,0:0:0:0:
409,105,78147,1,2,0:0:0:0:
189,253,78297,1,0,0:0:0:0:
241,60,78447,1,4,0:3:0:0:
357,298,78597,1,0,0:3:0:0:
216,157,78747,5,4,0:3:0:0:
337,34,78897,1,8,0:3:0:0:
383,202,79047,1,0,1:0:0:0:
261,325,79197,5,4,0:1:0:0:
