osu file format v14

[General]
AudioFilename: no.mp3
AudioLeadIn: 0
PreviewTime: 50111
Countdown: 0
SampleSet: Soft
StackLeniency: 0.7
Mode: 0
LetterboxInBreaks: 0
WidescreenStoryboard: 0

[Editor]
Bookmarks: 15386
DistanceSpacing: 1.4
BeatDivisor: 4
GridSize: 4
TimelineZoom: 2

[Metadata]
Title:No title
TitleUnicode:No title
Artist:Reol
ArtistUnicode:れをる
Creator:Pho
Version:Extra
Source:
Tags:title− giga_p OKiku
BeatmapID:759316
BeatmapSetID:343672

[Difficulty]
HPDrainRate:6
CircleSize:4
OverallDifficulty:8.5
ApproachRate:9.4
SliderMultiplier:1.8
SliderTickRate:1

[Events]
//Background and Video events
0,0,"bg.jpg",0,0
//Break Periods
//Storyboard Layer 0 (Background)
//Storyboard Layer 1 (Fail)
//Storyboard Layer 2 (Pass)
//Storyboard Layer 3 (Foreground)
//Storyboard Sound Samples

[TimingPoints]
86.5409811161696,300,4,2,1,40,1,0
2486,-181.818181818181,4,2,1,40,0,0
2786,-181.818181818181,4,2,1,15,0,0
2936,-181.818181818181,4,2,1,40,0,0
3236,-181.818181818181,4,2,1,15,0,0
3386,-181.818181818181,4,2,1,40,0,0
3986,-181.818181818181,4,2,1,15,0,0
4136,-181.818181818181,4,2,1,40,0,0
5186,-181.818181818181,4,2,1,15,0,0
5336,-181.818181818181,4,2,1,40,0,0
7286,-133.333333333333,4,2,1,40,0,0
7436,-133.333333333333,4,2,1,70,0,0
7586,-133.333333333333,4,2,1,40,0,0
7736,-133.333333333333,4,2,1,70,0,0
8036,-133.333333333333,4,2,1,20,0,0
8186,-133.333333333333,4,2,2,50,0,0
8486,-133.333333333333,4,2,1,40,0,0
8786,-133.333333333333,4,2,1,20,0,0
8936,-133.333333333333,4,2,1,70,0,0
9686,-133.333333333333,4,3,0,70,0,0
10886,-133.333333333333,4,2,3,70,0,0
11786,-133.333333333333,4,2,1,70,0,0
11936,-133.333333333333,4,2,3,70,0,0
12086,-111.111111111111,4,2,1,70,0,0
12236,-111.111111111111,4,2,1,20,0,0
12386,-111.111111111111,4,2,1,70,0,0
12836,-111.111111111111,4,2,1,60,0,0
12986,-111.111111111111,4,2,1,70,0,0
13136,-111.111111111111,4,2,1,50,0,0
13286,-111.111111111111,4,2,1,70,0,0
13886,-111.111111111111,4,2,1,20,0,0
14036,-111.111111111111,4,2,1,70,0,0
15236,-111.111111111111,4,2,1,60,0,0
15386,-111.111111111111,4,2,1,70,0,0
15536,-111.111111111111,4,2,1,50,0,0
15686,-111.111111111111,4,2,1,70,0,0
17636,-111.111111111111,4,2,1,60,0,0
17786,-111.111111111111,4,2,1,70,0,0
17936,-111.111111111111,4,2,1,50,0,0
18086,-111.111111111111,4,2,1,70,0,0
20036,-111.111111111111,4,2,1,60,0,0
20186,-111.111111111111,4,2,1,70,0,0
20336,-111.111111111111,4,2,1,50,0,0
20486,-111.111111111111,4,2,1,70,0,0
22436,-111.111111111111,4,2,1,60,0,0
22586,-111.111111111111,4,2,1,70,0,0
22736,-111.111111111111,4,2,1,50,0,0
22886,-111.111111111111,4,2,1,70,0,0
24836,-111.111111111111,4,2,1,60,0,0
24986,-111.111111111111,4,2,1,70,0,0
25136,-111.111111111111,4,2,1,50,0,0
25286,-111.111111111111,4,2,1,70,0,0
27236,-111.111111111111,4,2,1,60,0,0
27386,-111.111111111111,4,2,1,70,0,0
27536,-111.111111111111,4,2,1,50,0,0
27686,-111.111111111111,4,2,1,70,0,0
28886,-111.111111111111,4,2,0,70,0,0
30086,-111.111111111111,4,3,3,70,0,0
30311,-111.111111111111,4,3,3,20,0,0
30386,-111.111111111111,4,3,3,70,0,0
30461,-111.111111111111,4,3,3,20,0,0
30536,-111.111111111111,4,3,3,70,0,0
30611,-111.111111111111,4,3,3,20,0,0
30686,-111.111111111111,4,3,3,70,0,0
30836,-111.111111111111,4,3,3,70,0,0
31136,-111.111111111111,4,2,1,70,0,0
31736,-111.111111111111,4,2,1,60,0,0
31886,-111.111111111111,4,2,1,70,0,0
32186,-111.111111111111,4,2,1,60,0,0
32336,-111.111111111111,4,2,1,70,0,0
33086,-111.111111111111,4,2,1,40,0,0
33236,-111.111111111111,4,2,1,70,0,0
34136,-111.111111111111,4,2,1,60,0,0
34286,-111.111111111111,4,2,1,70,0,0
34436,-111.111111111111,4,2,1,60,0,0
34511,-111.111111111111,4,2,1,20,0,0
34586,-111.111111111111,4,2,1,70,0,0
34661,-111.111111111111,4,2,1,20,0,0
34736,-111.111111111111,4,2,1,70,0,0
36536,-111.111111111111,4,2,1,60,0,0
36686,-111.111111111111,4,2,1,70,0,0
36836,-111.111111111111,4,2,1,50,0,0
36986,-111.111111111111,4,2,1,70,0,0
38936,-111.111111111111,4,2,1,60,0,0
39086,-111.111111111111,4,2,1,70,0,0
39236,-111.111111111111,4,2,1,50,0,0
39386,-111.111111111111,4,2,1,70,0,0
39536,-111.111111111111,4,2,1,50,0,0
39686,-111.111111111111,4,2,1,80,0,0
40061,-111.111111111111,4,2,1,5,0,0
40136,-111.111111111111,4,2,1,80,0,0
40211,-111.111111111111,4,2,1,5,0,0
40286,-111.111111111111,4,2,1,80,0,0
40511,-111.111111111111,4,2,1,5,0,0
40586,-111.111111111111,4,2,1,80,0,0
40661,-111.111111111111,4,2,1,5,0,0
40736,-111.111111111111,4,2,1,70,0,0
43736,-111.111111111111,4,2,1,60,0,0
43886,-111.111111111111,4,2,1,70,0,0
44036,-111.111111111111,4,2,1,50,0,0
44186,-111.111111111111,4,2,1,70,0,0
46136,-111.111111111111,4,2,1,60,0,0
46661,-111.111111111111,4,2,1,20,0,0
46736,-111.111111111111,4,2,1,60,0,0
46811,-111.111111111111,4,2,1,20,0,0
46886,-111.111111111111,4,2,1,70,0,0
48086,-111.111111111111,4,3,0,70,0,0
49286,-111.111111111111,4,2,3,70,0,0
50261,-111.111111111111,4,2,3,20,0,0
50336,-111.111111111111,4,2,3,70,0,0
50411,-111.111111111111,4,2,3,20,0,0
50486,-100,4,2,1,80,0,0
55286,-100,4,2,1,70,0,0
60086,-100,4,2,1,80,0,0
64886,-100,4,2,1,70,0,0
67286,-100,4,3,0,70,0,0
68486,-100,4,3,3,80,0,0
69236,-100,4,3,3,70,0,0
69386,-100,4,2,1,60,0,0
69536,-100,4,3,3,50,0,0
69686,-111.111111111111,4,2,1,70,0,0
76886,-111.111111111111,4,3,0,70,0,0
78086,-111.111111111111,4,2,3,60,0,0
78986,-111.111111111111,4,2,3,60,0,0
79136,-111.111111111111,4,2,3,60,0,0
79286,-111.111111111111,4,2,2,50,0,0
85511,-111.111111111111,4,2,2,60,0,0
85736,-111.111111111111,4,2,2,60,0,0
89036,-111.111111111111,4,2,2,20,0,0
89186,-111.111111111111,4,2,2,60,0,0
94436,-111.111111111111,4,2,2,20,0,0
94586,-111.111111111111,4,2,2,60,0,0
94661,-111.111111111111,4,2,2,20,0,0
94736,-111.111111111111,4,2,2,60,0,0
94811,-111.111111111111,4,2,2,20,0,0
94886,-111.111111111111,4,2,2,60,0,0
95636,-111.111111111111,4,2,2,20,0,0
95786,-111.111111111111,4,2,2,60,0,0
96086,-111.111111111111,4,2,2,60,0,0
97286,-111.111111111111,4,2,3,70,0,0
97736,-111.111111111111,4,2,3,70,0,0
97886,-111.111111111111,4,2,3,70,0,0
98186,-111.111111111111,4,2,3,70,0,0
98336,-111.111111111111,4,2,3,70,0,0
98486,-111.111111111111,4,2,1,70,0,0
99011,-111.111111111111,4,2,1,20,0,0
99086,-111.111111111111,4,2,1,70,0,0
101411,-111.111111111111,4,2,1,20,0,0
101486,-111.111111111111,4,2,1,70,0,0
101711,-111.111111111111,4,2,1,20,0,0
101786,-111.111111111111,4,2,1,70,0,0
104111,-111.111111111111,4,2,1,20,0,0
104186,-111.111111111111,4,2,1,70,0,0
105311,-111.111111111111,4,2,1,20,0,0
105386,-111.111111111111,4,2,1,70,0,0
105986,-125,4,2,1,70,0,0
106286,-142.857142857143,4,2,1,70,0,0
106586,-111.111111111111,4,2,1,70,0,0
107786,-90.9090909090909,4,2,1,70,0,0
108086,-111.111111111111,4,2,1,70,0,0
108386,-111.111111111111,4,2,1,70,0,0
108836,-111.111111111111,4,2,1,60,0,0
108986,-111.111111111111,4,2,1,70,0,0
109136,-111.111111111111,4,2,1,50,0,0
109286,-111.111111111111,4,2,1,70,0,0
110186,-90.9090909090909,4,2,1,70,0,0
110486,-100,4,2,1,70,0,0
111161,-111.111111111111,4,2,1,20,0,0
111236,-111.111111111111,4,2,1,60,0,0
111311,-111.111111111111,4,2,1,20,0,0
111386,-111.111111111111,4,2,1,70,0,0
111536,-111.111111111111,4,2,1,50,0,0
111686,-111.111111111111,4,2,1,70,0,0
115286,-111.111111111111,4,3,0,70,0,0
116486,-111.111111111111,4,3,3,70,0,0
116861,-111.111111111111,4,3,3,20,0,0
116936,-111.111111111111,4,3,3,70,0,0
117011,-111.111111111111,4,3,3,20,0,0
117086,-111.111111111111,4,3,3,70,0,0
117161,-111.111111111111,4,3,3,20,0,0
117236,-111.111111111111,4,3,3,70,0,0
117311,-111.111111111111,4,3,3,20,0,0
117386,-111.111111111111,4,3,3,70,0,0
117686,-100,4,2,1,80,0,0
122486,-100,4,2,1,70,0,0
127286,-100,4,2,1,80,0,0
128711,-100,4,2,1,20,0,0
128786,-100,4,2,1,80,0,0
132086,-100,4,2,1,70,0,0
134486,-100,4,3,0,70,0,0
135686,-100,4,2,3,80,0,0
136586,-100,4,2,3,80,0,0
136661,-100,4,2,3,80,0,0
136736,-100,4,2,3,80,0,0
136811,-100,4,2,3,80,0,0
136886,-100,4,2,1,80,0,0
138311,-100,4,2,1,20,0,0
138386,-100,4,2,1,80,0,0
141311,-100,4,2,1,20,0,0
141386,-100,4,2,1,80,0,0
141686,-100,4,2,1,70,0,0
145061,-100,4,2,1,20,0,0
145136,-100,4,2,1,70,0,0
145211,-100,4,2,1,20,0,0
145286,-100,4,2,1,70,0,0
146486,-100,4,2,1,80,0,0
151286,-100,4,2,1,70,0,0
153686,-100,4,3,0,70,0,0
154886,-100,4,3,3,80,0,0
155786,-100,4,3,3,80,0,0
155936,-100,4,3,3,80,0,0
156086,-111.111111111111,4,2,2,60,0,0
156236,-111.111111111111,4,2,2,20,0,0
156386,-111.111111111111,4,2,2,60,0,0
156836,-111.111111111111,4,2,2,20,0,0
156986,-111.111111111111,4,2,2,60,0,0
159311,-111.111111111111,4,2,1,20,0,0
159386,-111.111111111111,4,2,2,60,0,0
160286,-111.111111111111,4,2,2,20,0,0
160436,-111.111111111111,4,2,2,60,0,0
163211,-111.111111111111,4,2,2,20,0,0
163286,-111.111111111111,4,2,2,60,0,0
165086,-111.111111111111,4,2,1,60,0,0
165161,-111.111111111111,4,2,1,20,0,0
165236,-111.111111111111,4,2,1,60,0,0
165311,-111.111111111111,4,2,1,20,0,0
165386,-111.111111111111,4,2,1,60,0,0
165686,-111.111111111111,4,2,1,60,0,0
166436,-111.111111111111,4,2,1,50,0,0
166586,-111.111111111111,4,2,1,60,0,0
166736,-111.111111111111,4,2,1,40,0,0
166886,-83.3333333333333,4,2,1,60,0,0
167336,-111.111111111111,4,2,1,60,0,0
168236,-111.111111111111,4,2,1,20,0,0
168386,-111.111111111111,4,2,1,60,0,0
168836,-111.111111111111,4,2,1,50,0,0
168986,-111.111111111111,4,2,1,60,0,0
169136,-111.111111111111,4,2,1,40,0,0
169286,-83.3333333333333,4,2,1,60,0,0
169736,-111.111111111111,4,2,2,60,0,0
170036,-111.111111111111,4,2,2,20,0,0
170186,-111.111111111111,4,2,1,60,0,0
171236,-111.111111111111,4,2,1,50,0,0
171386,-111.111111111111,4,2,1,60,0,0
171536,-111.111111111111,4,2,1,40,0,0
171686,-111.111111111111,4,2,1,60,0,0
172886,-111.111111111111,4,3,0,60,0,0
174086,-83.3333333333333,4,3,3,70,0,0
174536,-83.3333333333333,4,3,3,70,0,0
174611,-83.3333333333333,4,3,3,20,0,0
174686,-83.3333333333333,4,3,3,70,0,0
174761,-83.3333333333333,4,3,3,20,0,0
174836,-83.3333333333333,4,3,3,70,0,0
174911,-83.3333333333333,4,3,3,20,0,0
174986,-83.3333333333333,4,2,1,70,0,0
175061,-83.3333333333333,4,3,3,20,0,0
175136,-83.3333333333333,4,3,3,70,0,0
175211,-83.3333333333333,4,3,3,20,0,0
175286,-133.333333333333,4,2,1,70,0,0
176336,-133.333333333333,4,2,1,20,0,0
176486,-100,4,2,1,80,0,0
181286,-100,4,2,1,70,0,0
182261,-100,4,2,1,20,0,0
182336,-100,4,2,1,70,0,0
182411,-100,4,2,1,20,0,0
182486,-100,4,2,1,70,0,0
184661,-100,4,2,1,20,0,0
184736,-100,4,2,1,70,0,0
184811,-100,4,2,1,20,0,0
184886,-100,4,2,1,70,0,0
185861,-100,4,2,1,20,0,0
185936,-100,4,2,1,70,0,0
186011,-100,4,2,1,20,0,0
186086,-100,4,2,1,80,0,0
187511,-100,4,2,1,20,0,0
187586,-100,4,2,1,80,0,0
190511,-100,4,2,1,20,0,0
190586,-100,4,2,1,80,0,0
190886,-100,4,2,1,70,0,0
191861,-100,4,2,1,20,0,0
191936,-100,4,2,1,70,0,0
192011,-100,4,2,1,20,0,0
192086,-100,4,2,1,70,0,0
193286,-100,4,3,0,70,0,0
194486,-90.9090909090909,4,3,3,80,0,0
194711,-90.9090909090909,4,3,3,20,0,0
194786,-90.9090909090909,4,3,3,80,0,0
194861,-90.9090909090909,4,3,3,20,0,0
194936,-90.9090909090909,4,3,3,80,0,0
195011,-90.9090909090909,4,3,3,20,0,0
195086,-90.9090909090909,4,3,3,80,0,0
195161,-90.9090909090909,4,3,3,20,0,0
195236,-90.9090909090909,4,3,3,80,0,0
195311,-90.9090909090909,4,3,3,20,0,0
195386,-90.9090909090909,4,2,1,80,0,0
195461,-90.9090909090909,4,3,3,20,0,0
195536,-90.9090909090909,4,3,3,80,0,0
195611,-90.9090909090909,4,3,3,20,0,0
195686,-90.9090909090909,4,2,1,80,0,1
197111,-90.9090909090909,4,2,1,20,0,1
197186,-90.9090909090909,4,2,1,80,0,1
201461,-90.9090909090909,4,2,1,20,0,1
201536,-90.9090909090909,4,2,1,80,0,1
201611,-90.9090909090909,4,2,1,20,0,1
201686,-90.9090909090909,4,2,1,80,0,1
204461,-90.9090909090909,4,2,1,20,0,1
204536,-90.9090909090909,4,2,1,80,0,1
205061,-90.9090909090909,4,2,1,20,0,1
205136,-90.9090909090909,4,2,1,80,0,1
205211,-90.9090909090909,4,2,1,20,0,1
205286,-90.9090909090909,4,2,1,80,0,1
206711,-90.9090909090909,4,2,1,20,0,1
206786,-90.9090909090909,4,2,1,80,0,1
209186,-90.9090909090909,4,2,1,70,0,1
209336,-90.9090909090909,4,2,1,80,0,1
209486,-90.9090909090909,4,2,1,60,0,1
209636,-90.9090909090909,4,2,1,80,0,1
209786,-90.9090909090909,4,2,1,50,0,1
209861,-90.9090909090909,4,2,1,20,0,1
209936,-90.9090909090909,4,2,1,80,0,1
210011,-90.9090909090909,4,2,1,20,0,1
210086,-90.9090909090909,4,2,1,80,0,1
212486,-90.9090909090909,4,3,0,80,0,1
213686,-90.9090909090909,4,3,3,80,0,1
214586,-90.9090909090909,4,2,1,80,0,1
214736,-90.9090909090909,4,3,3,80,0,1
214886,-111.111111111111,4,2,1,70,0,0
218486,-111.111111111111,4,2,1,60,0,0
218561,-111.111111111111,4,2,1,70,0,0
223286,-111.111111111111,4,2,1,60,0,0
223361,-111.111111111111,4,2,1,80,0,0
224261,-111.111111111111,4,2,1,20,0,0
224336,-111.111111111111,4,2,1,80,0,0
224411,-111.111111111111,4,2,1,20,0,0
224486,-111.111111111111,4,2,1,70,0,0
225461,-111.111111111111,4,2,1,20,0,0
225536,-111.111111111111,4,2,1,70,0,0
225611,-111.111111111111,4,2,1,20,0,0
225686,-111.111111111111,4,2,1,70,0,0
226811,-111.111111111111,4,2,1,20,0,0
226886,-111.111111111111,4,2,1,70,0,0
228011,-111.111111111111,4,2,1,20,0,0
228086,-111.111111111111,4,2,1,60,0,0
228161,-111.111111111111,4,2,1,20,0,0
228236,-111.111111111111,4,2,1,70,0,0
229286,-111.111111111111,4,2,1,80,0,0
230036,-111.111111111111,4,2,1,60,0,0
230486,-111.111111111111,4,2,1,85,0,0
231236,-111.111111111111,4,2,1,65,0,0
231686,-111.111111111111,4,3,0,80,0,0
232886,-111.111111111111,4,3,3,90,0,0
233786,-111.111111111111,4,2,1,90,0,0
233936,-111.111111111111,4,3,3,90,0,0
234086,-111.111111111111,4,2,1,100,0,0

[Colours]
Combo1 : 0,234,234
Combo2 : 55,155,255
Combo3 : 175,190,228
Combo4 : 220,52,111

[HitObjects]
100,336,2486,22,0,P|91:288|114:245,1,99.0000030212403,2|0,0:0|0:0,0:0:0:0:
215,188,2936,2,0,P|240:140|231:99,1,99.0000030212403,2|0,0:0|0:0,0:0:0:0:
115,203,3386,1,0,0:0:0:0:
171,303,3536,1,0,0:0:0:0:
275,241,3686,6,0,L|391:221,1,99.0000030212403,2|0,0:0|0:0,0:0:0:0:
371,100,4136,2,0,L|255:80,1,99.0000030212403,2|0,0:0|0:0,0:0:0:0:
258,81,4736,1,0,0:0:0:0:
124,156,4886,6,0,L|136:268,1,99.0000030212403,2|0,0:0|0:0,0:0:0:0:
288,244,5336,2,0,L|276:352,1,99.0000030212403,2|0,0:0|0:0,0:0:0:0:
276,356,5936,1,0,0:0:0:0:
208,232,6086,5,2,0:0:0:0:
360,248,6236,1,0,0:0:0:0:
376,248,6536,2,0,P|400:200|392:148,1,99.0000030212403,2|0,0:0|0:0,0:0:0:0:
216,152,6986,2,0,P|192:104|200:52,1,99.0000030212403,0|2,0:0|0:0,0:0:0:0:
300,128,7436,5,0,0:0:0:0:
212,32,7586,1,2,0:0:0:0:
376,52,7736,2,0,B|368:196,1,135.000005149842
273,254,8186,1,8,0:0:0:0:
400,335,8336,1,8,0:0:0:0:
234,370,8486,6,0,L|96:335,1,135.000005149842,2|0,0:0|0:0,0:0:0:0:
36,215,8936,1,2,0:0:0:0:
36,202,9236,1,0,0:0:0:0:
197,161,9386,1,2,0:0:0:0:
118,255,9536,1,0,0:0:0:0:
89,89,9686,5,2,0:3:0:0:
109,81,9986,1,2,0:3:0:0:
252,261,10136,1,2,0:3:0:0:
245,278,10436,1,2,0:3:0:0:
191,68,10586,1,2,0:3:0:0:
340,148,10736,1,2,0:3:0:0:
164,264,10886,5,2,0:0:0:0:
160,268,10961,1,2,0:0:0:0:
156,272,11036,1,2,0:0:0:0:
245,137,11186,1,2,0:0:0:0:
332,336,11336,1,6,0:3:0:0:
403,222,11486,5,2,0:0:0:0:
243,332,11636,1,6,0:3:0:0:
231,144,11786,1,10,0:0:0:0:
313,233,11936,1,2,0:0:0:0:
160,300,12086,6,0,L|62:285,1,80.9999975280763,4|0,0:0|0:0,0:0:0:0:
106,145,12386,1,0,0:0:0:0:
165,217,12536,1,2,0:0:0:0:
33,216,12686,2,0,P|19:124|60:37,1,161.999995056153,0|10,0:0|0:0,0:0:0:0:
136,114,13136,1,10,0:0:0:0:
312,48,13286,6,0,L|391:32,1,80.9999975280763,6|0,0:3|0:0,0:0:0:0:
413,205,13586,1,0,0:0:0:0:
413,205,13736,2,0,P|325:197|253:125,1,161.999995056153,6|4,0:3|0:3,0:0:0:0:
212,36,14186,1,8,0:0:0:0:
78,53,14336,1,4,0:3:0:0:
154,211,14486,5,4,0:3:0:0:
170,115,14636,1,0,0:0:0:0:
53,233,14786,5,0,0:0:0:0:
101,317,14936,1,2,0:0:0:0:
254,249,15086,5,0,0:0:0:0:
203,166,15236,1,2,0:0:0:0:
44,188,15386,5,8,0:0:0:0:
26,283,15536,1,10,0:0:0:0:
196,205,15686,5,6,0:3:0:0:
84,55,15836,1,0,0:0:0:0:
84,55,15911,1,0,0:0:0:0:
84,55,15986,1,0,0:0:0:0:
89,159,16136,1,6,0:3:0:0:
216,72,16286,2,0,P|268:60|368:128,1,161.999995056153,0|10,0:0|0:2,0:0:0:0:
362,272,16736,5,0,0:0:0:0:
445,195,16886,1,6,0:3:0:0:
467,306,17036,1,0,0:0:0:0:
277,349,17186,2,0,L|273:249,1,80.9999975280763,0|2,0:0|0:3,0:0:0:0:
218,170,17486,1,0,0:0:0:0:
27,154,17636,5,2,0:0:0:0:
117,207,17786,1,8,0:0:0:0:
129,110,17936,1,10,0:0:0:0:
30,251,18086,1,6,0:3:0:0:
119,307,18237,2,0,L|197:285,1,80.9999975280763
332,159,18536,5,6,0:3:0:0:
347,54,18686,1,0,0:0:0:0:
426,122,18836,1,4,0:3:0:0:
249,88,18986,2,0,L|157:72,1,80.9999975280763,8|4,0:0|0:3,0:0:0:0:
85,154,19286,1,4,0:3:0:0:
253,261,19436,5,0,0:0:0:0:
180,338,19586,1,0,0:0:0:0:
137,241,19736,1,2,0:0:0:0:
327,331,19886,1,0,0:0:0:0:
365,232,20036,1,2,0:0:0:0:
212,280,20186,1,8,0:0:0:0:
179,171,20336,1,8,0:0:0:0:
289,197,20486,5,4,0:3:0:0:
368,336,20636,2,0,L|293:328,1,40.4999987640381,2|0,0:0|0:0,0:0:0:0:
250,372,20786,2,0,L|153:358,1,80.9999975280763,2|4,0:0|0:3,0:0:0:0:
133,202,21086,1,0,0:0:0:0:
212,280,21236,1,4,0:3:0:0:
54,283,21386,2,0,P|35:224|59:99,1,161.999995056153,8|4,0:0|0:3,0:0:0:0:
45,125,21986,5,0,0:0:0:0:
204,185,22136,2,0,P|244:145|200:29,1,161.999995056153,2|2,0:0|0:0,0:0:0:0:
129,48,22586,2,0,L|136:148,1,80.9999975280763,8|10,0:0|0:0,0:0:0:0:
141,313,22886,5,6,0:3:0:0:
63,269,23036,1,0,0:0:0:0:
210,174,23186,5,0,0:0:0:0:
216,262,23336,1,6,0:3:0:0:
60,179,23486,5,0,0:0:0:0:
134,128,23636,1,4,0:3:0:0:
212,335,23786,6,0,B|273:355|273:355|388:339,1,161.999995056153,8|4,0:0|0:3,0:0:0:0:
369,341,24386,1,0,0:0:0:0:
456,221,24536,2,0,P|477:145|458:65,1,161.999995056153,2|2,0:0|0:0,0:0:0:0:
283,63,24986,1,8,0:0:0:0:
212,117,25136,1,10,0:0:0:0:
301,241,25286,5,4,0:3:0:0:
301,241,25361,1,0,0:0:0:0:
301,241,25436,1,0,0:0:0:0:
380,172,25586,1,0,0:0:0:0:
281,135,25736,1,6,0:3:0:0:
385,259,25886,1,0,0:0:0:0:
241,313,26036,1,4,0:3:0:0:
160,226,26186,2,0,B|147:141|147:141|168:62,1,161.999995056153,8|4,0:0|0:3,0:0:0:0:
398,22,26636,6,0,P|399:75|381:104,1,80.9999975280763
273,221,26936,2,0,P|273:167|286:138,1,80.9999975280763,2|0,0:3|0:0,0:0:0:0:
477,81,27236,1,2,0:0:0:0:
375,199,27386,1,8,0:0:0:0:
467,176,27536,1,10,0:0:0:0:
307,68,27686,6,0,L|203:59,1,80.9999975280763,6|0,0:3|0:0,0:0:0:0:
78,139,27986,2,0,L|158:152,1,80.9999975280763,0|6,0:0|0:3,0:0:0:0:
273,221,28286,1,0,0:0:0:0:
156,291,28436,1,4,0:3:0:0:
273,221,28586,2,0,P|309:141|305:57,1,161.999995056153,10|2,0:0|0:3,0:0:0:0:
166,118,29036,5,0,0:0:0:0:
60,31,29186,1,2,0:3:0:0:
166,118,29336,1,2,0:3:0:0:
40,200,29486,2,0,L|25:110,1,80.9999975280763,0|2,0:0|0:3,0:0:0:0:
147,197,29786,1,6,0:3:0:0:
183,40,29936,1,6,0:3:0:0:
310,164,30086,5,2,0:0:0:0:
310,164,30161,1,2,0:0:0:0:
310,164,30236,2,0,P|344:170|383:160,1,40.4999987640381,2|0,0:0|0:0,0:0:0:0:
425,74,30386,2,0,P|413:41|385:12,1,40.4999987640381,2|0,0:0|0:0,0:0:0:0:
288,21,30536,2,0,P|265:47|254:86,1,40.4999987640381,2|0,0:0|0:0,0:0:0:0:
338,93,30686,1,2,0:0:0:0:
211,175,30836,1,6,0:3:0:0:
405,241,30986,1,4,0:3:0:0:
267,321,31136,6,0,P|183:338|115:305,1,161.999995056153,6|0,0:0|0:0,0:0:0:0:
49,144,31586,1,0,0:0:0:0:
210,95,31736,2,0,P|216:135|202:205,1,80.9999975280763,2|0,0:0|0:0,0:0:0:0:
37,298,32036,2,0,P|34:269|49:193,1,80.9999975280763,2|8,0:0|0:0,0:0:0:0:
117,60,32336,6,0,P|125:124|115:243,1,161.999995056153,10|0,0:0|0:0,0:0:0:0:
118,349,32786,1,0,0:0:0:0:
118,349,32936,2,0,B|189:361|189:361|291:333,1,161.999995056153,2|4,0:0|0:3,0:0:0:0:
314,236,33386,1,10,0:0:0:0:
431,369,33536,6,0,P|458:291|440:203,1,161.999995056153,6|0,0:3|0:0,0:0:0:0:
269,119,33986,1,0,0:0:0:0:
330,214,34136,1,2,0:0:0:0:
372,68,34286,1,0,0:0:0:0:
196,196,34436,2,0,L|152:172,1,40.4999987640381,2|0,0:3|0:0,0:0:0:0:
45,88,34586,2,0,L|93:64,1,40.4999987640381,8|0,0:0|0:0,0:0:0:0:
168,25,34736,6,0,P|179:69|157:132,1,80.9999975280763,10|4,0:0|0:3,0:0:0:0:
79,262,35036,2,0,L|56:159,2,80.9999975280763,0|0|4,0:0|0:0|0:3,0:0:0:0:
188,336,35486,2,0,P|242:352|359:305,1,161.999995056153,0|10,0:0|0:0,0:0:0:0:
228,240,35936,6,0,L|132:208,1,80.9999975280763,2|4,0:0|0:3,0:0:0:0:
228,112,36236,1,0,0:0:0:0:
352,152,36386,2,0,L|333:238,1,80.9999975280763,0|6,0:0|0:3,0:0:0:0:
464,132,36686,2,0,L|476:31,2,80.9999975280763,0|2|8,0:0|0:0|0:0,0:0:0:0:
292,52,37136,6,0,P|241:56|204:86,1,80.9999975280763,10|6,0:0|0:3,0:0:0:0:
134,203,37436,1,0,0:0:0:0:
208,80,37586,1,0,0:0:0:0:
60,60,37736,1,6,0:3:0:0:
50,251,37886,2,0,P|107:283|202:270,1,161.999995056153,0|8,0:0|0:0,0:0:0:0:
295,134,38336,6,0,L|291:34,1,80.9999975280763,2|4,0:3|0:3,0:0:0:0:
406,45,38636,1,0,0:0:0:0:
306,160,38786,1,0,0:0:0:0:
453,205,38936,1,6,0:3:0:0:
306,160,39086,1,0,0:0:0:0:
331,350,39236,1,6,0:3:0:0:
372,220,39386,1,8,0:0:0:0:
248,315,39536,1,10,0:0:0:0:
141,172,39686,6,0,P|139:100|155:58,1,80.9999975280763
224,42,39911,1,2,0:0:0:0:
224,42,39986,2,0,L|290:58,1,40.4999987640381
374,118,40136,2,0,L|308:134,1,40.4999987640381,6|0,0:3|0:0,0:0:0:0:
433,43,40286,6,0,B|470:90|470:90|454:204,1,161.999995056153,0|8,0:0|0:0,0:0:0:0:
233,236,40736,6,0,L|251:329,1,80.9999975280763,2|4,0:0|0:3,0:0:0:0:
299,180,41036,1,0,0:0:0:0:
168,288,41186,1,0,0:0:0:0:
312,272,41336,1,6,0:3:0:0:
159,192,41486,2,0,P|95:220|83:334,1,161.999995056153,0|8,0:3|0:0,0:0:0:0:
269,362,41936,6,0,L|371:346,1,80.9999975280763,10|4,0:0|0:3,0:0:0:0:
477,224,42236,2,0,L|390:235,1,80.9999975280763
359,112,42536,1,6,0:3:0:0:
359,112,42686,2,0,L|255:123,1,80.9999975280763,0|4,0:0|0:3,0:0:0:0:
183,215,42986,1,8,0:0:0:0:
269,362,43136,6,0,P|280:328|269:263,1,80.9999975280763,6|4,0:3|0:3,0:0:0:0:
109,200,43436,2,0,P|115:243|153:290,1,80.9999975280763
297,138,43736,2,0,P|239:141|198:176,1,80.9999975280763,2|0,0:3|0:0,0:0:0:0:
103,341,44036,1,2,0:0:0:0:
226,249,44186,1,8,0:0:0:0:
73,231,44336,1,8,0:0:0:0:
272,360,44486,5,6,0:3:0:0:
373,269,44636,1,0,0:0:0:0:
373,269,44711,1,0,0:0:0:0:
373,269,44786,1,0,0:0:0:0:
224,200,44936,1,6,0:3:0:0:
340,104,45086,2,0,L|335:12,1,80.9999975280763,0|4,0:0|0:3,0:0:0:0:
437,74,45386,1,10,0:0:0:0:
244,76,45536,1,0,0:0:0:0:
437,74,45686,6,0,B|459:174|459:174|404:250,1,161.999995056153,6|0,0:3|0:0,0:0:0:0:
224,200,46136,2,0,B|205:294|205:294|257:376,1,161.999995056153,6|2,0:3|0:0,0:0:0:0:
332,180,46586,2,0,P|332:160|316:125,1,40.4999987640381,8|0,0:0|0:0,0:0:0:0:
247,41,46736,2,0,P|226:28|202:22,1,40.4999987640381,10|0,0:0|0:0,0:0:0:0:
82,35,46886,6,0,P|74:87|94:123,1,80.9999975280763,4|0,0:3|0:0,0:0:0:0:
224,200,47186,2,0,P|183:167|142:166,1,80.9999975280763,0|6,0:0|0:3,0:0:0:0:
12,235,47486,2,0,P|62:215|83:180,1,80.9999975280763,0|2,0:0|0:0,0:0:0:0:
152,68,47786,1,8,0:0:0:0:
6,154,47936,1,2,0:3:0:0:
160,246,48086,5,2,0:3:0:0:
172,254,48386,1,2,0:3:0:0:
371,150,48536,1,2,0:3:0:0:
382,140,48836,1,6,0:3:0:0:
236,155,48986,1,2,0:3:0:0:
389,264,49136,1,6,0:3:0:0:
471,88,49286,5,2,0:0:0:0:
471,88,49361,1,2,0:0:0:0:
471,88,49436,1,2,0:0:0:0:
285,233,49586,5,2,0:0:0:0:
270,80,49736,1,2,0:0:0:0:
469,182,49886,1,2,0:0:0:0:
395,51,50036,1,2,0:0:0:0:
285,233,50186,6,0,L|256:283,1,40.4999987640381,2|0,0:0|0:0,0:0:0:0:
167,331,50336,2,0,L|153:271,1,40.4999987640381
236,155,50486,6,0,P|313:150|377:228,1,180,6|0,0:1|0:0,0:0:0:0:
342,344,50936,2,0,B|274:358|274:358|150:327,1,180,2|0,0:1|0:0,0:0:0:0:
47,220,51386,1,0,0:3:0:0:
37,353,51536,1,4,0:3:0:0:
47,220,51686,6,0,B|57:36,1,180,2|0,0:1|0:0,0:0:0:0:
180,11,52136,1,2,0:1:0:0:
289,169,52286,1,2,0:0:0:0:
111,104,52436,1,4,0:3:0:0:
291,63,52586,1,8,0:0:0:0:
181,198,52736,1,4,0:3:0:0:
327,275,52886,6,0,P|415:285|489:197,1,180,2|0,0:1|0:0,0:0:0:0:
454,113,53336,2,0,B|407:70|407:70|287:62,1,180,2|0,0:1|0:0,0:0:0:0:
138,188,53786,1,4,0:3:0:0:
238,111,53936,1,6,0:3:0:0:
125,53,54086,6,0,P|88:42|16:73,1,90,2|0,0:1|0:0,0:0:0:0:
185,265,54386,2,0,P|220:224|224:159,1,90,2|2,0:0|0:1,0:0:0:0:
16,272,54686,2,0,P|23:328|50:377,1,90,2|6,0:0|0:3,0:0:0:0:
243,309,54986,1,8,0:0:0:0:
88,182,55136,1,0,0:0:0:0:
228,132,55286,5,2,0:1:0:0:
228,132,55436,1,0,0:0:0:0:
87,270,55586,1,0,0:1:0:0:
87,270,55736,1,2,0:1:0:0:
39,99,55886,1,0,0:0:0:0:
223,161,56036,2,0,L|322:185,1,90,0|4,0:0|0:3,0:0:0:0:
480,284,56336,1,4,0:3:0:0:
358,364,56486,6,0,L|374:272,1,90,2|0,0:1|0:0,0:0:0:0:
256,232,56786,1,0,0:0:0:0:
154,364,56936,2,0,L|138:272,1,90,2|0,0:1|0:0,0:0:0:0:
21,113,57236,1,6,0:3:0:0:
35,288,57386,1,8,0:0:0:0:
184,213,57536,1,4,0:3:0:0:
82,43,57686,5,2,0:1:0:0:
82,43,57836,1,0,0:0:0:0:
62,216,57986,1,0,0:0:0:0:
62,216,58136,1,2,0:1:0:0:
243,162,58286,1,0,0:0:0:0:
167,315,58436,1,4,0:3:0:0:
171,140,58586,1,6,0:3:0:0:
325,240,58736,1,4,0:3:0:0:
152,344,58886,6,0,P|80:360|36:348,1,90,2|0,0:1|0:0,0:0:0:0:
9,284,59111,1,0,0:0:0:0:
9,284,59186,1,2,0:0:0:0:
85,89,59336,2,0,P|110:183|93:279,1,180,2|4,0:1|0:3,0:0:0:0:
273,358,59786,1,10,0:0:0:0:
273,358,59936,1,0,0:0:0:0:
491,260,60086,6,0,B|421:238|421:238|316:261,1,180,6|0,0:1|0:0,0:0:0:0:
200,214,60536,2,0,P|162:135|199:57,1,180,2|0,0:1|0:0,0:0:0:0:
265,136,60986,1,4,0:3:0:0:
105,46,61136,1,4,0:3:0:0:
278,164,61286,6,0,B|478:214,1,180,2|0,0:1|0:0,0:0:0:0:
421,330,61736,1,2,0:1:0:0:
234,240,61886,1,0,0:0:0:0:
143,354,62036,1,4,0:3:0:0:
234,240,62186,1,8,0:0:0:0:
143,354,62336,1,4,0:3:0:0:
68,219,62486,6,0,B|44:145|44:145|63:36,1,180,2|0,0:1|0:0,0:0:0:0:
185,17,62936,2,0,P|246:83|205:174,1,180,2|4,0:1|0:3,0:0:0:0:
68,219,63386,1,4,0:3:0:0:
160,97,63536,1,4,0:3:0:0:
209,236,63686,6,0,L|250:331,1,90,2|0,0:1|0:0,0:0:0:0:
425,254,63986,2,0,P|432:206|406:138,1,90,2|2,0:0|0:1,0:0:0:0:
237,73,64286,2,0,B|231:114|231:114|247:162,1,90,2|0,0:0|0:0,0:0:0:0:
425,46,64586,1,8,0:0:0:0:
323,117,64736,1,0,0:0:0:0:
433,174,64886,6,0,L|417:287,1,90,2|0,0:1|0:0,0:0:0:0:
244,235,65186,1,0,0:0:0:0:
174,340,65336,1,2,0:1:0:0:
39,201,65486,1,0,0:0:0:0:
67,323,65636,1,0,0:3:0:0:
193,155,65786,1,6,0:3:0:0:
269,341,65936,1,4,0:3:0:0:
349,119,66086,5,2,0:1:0:0:
349,119,66236,1,0,0:0:0:0:
121,103,66386,1,0,0:0:0:0:
121,103,66536,1,2,0:1:0:0:
278,207,66686,1,0,0:0:0:0:
174,265,66836,1,4,0:3:0:0:
216,68,66986,1,8,0:0:0:0:
102,185,67136,1,4,0:3:0:0:
269,300,67286,5,0,0:0:0:0:
304,292,67436,1,0,0:0:0:0:
338,282,67586,1,2,0:3:0:0:
220,155,67736,5,2,0:0:0:0:
185,143,67886,1,0,0:0:0:0:
150,131,68036,1,6,0:3:0:0:
73,280,68186,6,0,L|173:265,1,90,2|4,0:3|0:3,0:0:0:0:
293,90,68486,5,2,0:0:0:0:
280,46,68561,1,2,0:0:0:0:
243,19,68636,1,2,0:0:0:0:
58,144,68786,1,6,0:0:0:0:
211,94,68936,1,2,0:0:0:0:
61,32,69086,1,6,0:0:0:0:
9,200,69236,5,6,0:0:0:0:
178,243,69386,2,0,L|280:267,1,90,8|6,0:0|0:0,0:0:0:0:
350,283,69611,1,0,0:0:0:0:
350,283,69686,6,0,P|362:204|385:112,1,161.999995056153,4|0,0:0|0:0,0:0:0:0:
432,24,70136,1,0,0:0:0:0:
452,28,70436,1,0,0:0:0:0:
288,168,70586,1,2,0:3:0:0:
412,132,70736,1,0,0:0:0:0:
244,39,70886,6,0,L|244:215,1,161.999995056153,2|0,0:0|0:0,0:0:0:0:
241,316,71336,1,0,0:0:0:0:
257,328,71636,1,0,0:0:0:0:
62,194,71786,1,8,0:0:0:0:
60,371,71936,1,0,0:0:0:0:
147,307,72086,6,0,P|148:229|117:120,1,161.999995056153,2|0,0:0|0:0,0:0:0:0:
65,45,72536,1,0,0:0:0:0:
47,35,72836,1,0,0:0:0:0:
165,86,72986,1,2,0:3:0:0:
58,160,73136,1,2,0:0:0:0:
180,221,73286,6,0,P|221:235|282:221,1,80.9999975280763,2|0,0:3|0:0,0:0:0:0:
282,219,73511,1,0,0:0:0:0:
282,219,73586,1,0,0:0:0:0:
247,40,73736,1,2,0:3:0:0:
95,191,73886,2,0,B|92:231|92:231|116:288,1,80.9999975280763
258,117,74186,2,0,B|265:75|265:75|237:20,1,80.9999975280763,8|0,0:0|0:0,0:0:0:0:
13,159,74486,6,0,P|5:223|29:327,1,161.999995056153,4|0,0:3|0:0,0:0:0:0:
236,364,74936,1,4,0:3:0:0:
220,360,75236,1,0,0:3:0:0:
270,249,75386,1,6,0:3:0:0:
352,337,75536,1,4,0:3:0:0:
442,208,75686,6,0,P|450:144|426:40,1,161.999995056153,6|0,0:3|0:0,0:0:0:0:
304,80,76136,1,4,0:3:0:0:
296,92,76436,1,0,0:3:0:0:
164,225,76586,1,8,0:0:0:0:
184,113,76736,1,0,0:0:0:0:
344,256,76886,5,2,0:3:0:0:
348,272,77186,1,2,0:3:0:0:
120,312,77336,1,2,0:3:0:0:
100,308,77636,1,2,0:3:0:0:
237,202,77786,1,2,0:3:0:0:
192,336,77936,1,2,0:3:0:0:
52,212,78086,5,2,0:0:0:0:
52,200,78161,1,2,0:0:0:0:
52,188,78236,1,2,0:0:0:0:
193,71,78386,1,6,0:3:0:0:
69,35,78536,1,6,0:3:0:0:
158,188,78686,1,2,0:3:0:0:
297,56,78836,5,2,0:0:0:0:
326,264,78986,1,6,0:3:0:0:
228,158,79136,1,6,0:3:0:0:
438,146,79286,6,0,P|458:202|420:308,1,161.999995056153,4|0,0:0|0:0,0:0:0:0:
359,349,79736,2,0,B|258:338|258:338|184:299,1,161.999995056153,2|0,0:0|0:0,0:0:0:0:
98,231,80186,1,8,0:0:0:0:
188,299,80336,1,0,0:0:0:0:
274,197,80486,6,0,P|296:127|253:32,1,161.999995056153,2|0,0:0|0:0,0:0:0:0:
74,82,80936,2,0,L|97:179,1,80.9999975280763,2|0,0:0|0:0,0:0:0:0:
188,299,81236,1,0,0:0:0:0:
188,299,81386,2,0,L|207:205,1,80.9999975280763
32,82,81686,6,0,L|66:247,1,161.999995056153,2|0,0:0|0:0,0:0:0:0:
188,299,82136,1,2,0:0:0:0:
231,202,82286,2,0,P|192:177|123:173,1,80.9999975280763
324,136,82586,2,0,P|370:142|414:126,1,80.9999975280763,8|0,0:0|0:0,0:0:0:0:
257,35,82886,6,0,P|178:18|142:34,1,121.499996292114,2|2,0:0|0:0,0:0:0:0:
144,34,83186,1,0,0:0:0:0:
56,129,83336,1,10,0:0:0:0:
170,193,83486,1,0,0:0:0:0:
56,129,83636,1,0,0:0:0:0:
170,193,83786,2,0,P|215:193|256:159,1,80.9999975280763,10|0,0:0|0:0,0:0:0:0:
352,54,84086,6,0,B|366:186,1,121.499996292114,2|0,0:0|0:0,0:0:0:0:
364,174,84386,1,0,0:0:0:0:
328,275,84536,2,0,P|379:282|462:204,1,161.999995056153,2|0,0:0|0:0,0:0:0:0:
446,80,84986,1,0,0:0:0:0:
456,200,85136,1,0,0:0:0:0:
286,150,85286,6,0,L|157:148,1,121.499996292114,2|0,0:0|0:0,0:0:0:0:
164,148,85586,1,0,0:0:0:0:
86,79,85736,2,0,P|146:45|233:69,1,161.999995056153,2|0,0:0|0:0,0:0:0:0:
286,150,86186,2,0,L|280:241,1,80.9999975280763
115,332,86486,5,2,0:0:0:0:
163,185,86636,1,0,0:0:0:0:
64,234,86786,1,0,0:0:0:0:
216,287,86936,1,2,0:0:0:0:
105,359,87086,5,0,0:0:0:0:
170,152,87236,1,0,0:0:0:0:
35,228,87386,1,8,0:0:0:0:
244,296,87536,1,0,0:0:0:0:
140,261,87686,5,2,0:0:0:0:
253,199,87836,1,0,0:0:0:0:
253,199,87911,1,0,0:0:0:0:
253,199,87986,1,0,0:0:0:0:
184,342,88136,1,10,0:0:0:0:
74,228,88286,2,0,P|46:145|75:45,1,161.999995056153,0|8,0:0|0:0,0:0:0:0:
177,57,88736,5,0,0:0:0:0:
177,57,88886,2,0,P|221:69|253:105,1,80.9999975280763,2|0,0:0|0:0,0:0:0:0:
440,11,89186,2,0,P|404:39|392:87,1,80.9999975280763,0|2,0:0|0:0,0:0:0:0:
343,191,89486,1,0,0:0:0:0:
307,32,89636,1,0,0:0:0:0:
460,161,89786,2,0,B|481:126|481:126|472:77,1,80.9999975280763,8|0,0:0|0:0,0:0:0:0:
332,226,90086,6,0,B|314:265|314:265|321:320,1,80.9999975280763,2|0,0:0|0:0,0:0:0:0:
324,332,90311,1,0,0:0:0:0:
324,332,90386,1,0,0:0:0:0:
218,357,90536,2,0,P|173:308|172:211,1,161.999995056153,2|0,0:0|0:0,0:0:0:0:
329,79,90986,1,8,0:0:0:0:
244,174,91136,1,0,0:0:0:0:
151,56,91286,5,2,0:0:0:0:
37,62,91436,1,0,0:0:0:0:
151,56,91586,1,0,0:0:0:0:
46,178,91736,1,2,0:0:0:0:
128,282,91886,2,0,P|175:244|192:129,1,161.999995056153,0|8,0:0|0:0,0:0:0:0:
197,148,92336,1,0,0:0:0:0:
119,31,92486,6,0,P|73:14|19:29,1,80.9999975280763,2|0,0:0|0:0,0:0:0:0:
7,36,92711,1,0,0:0:0:0:
7,36,92786,1,0,0:0:0:0:
46,178,92936,2,0,B|94:187|129:151|129:151|165:131|217:157,1,161.999995056153,10|0,0:0|0:0,0:0:0:0:
286,218,93386,2,0,L|391:207,1,80.9999975280763,8|0,0:0|0:0,0:0:0:0:
414,66,93686,6,0,L|502:59,2,80.9999975280763,2|0|0,0:0|0:0|0:0,0:0:0:0:
248,34,94136,1,2,0:0:0:0:
193,121,94286,2,0,P|184:158|205:215,1,80.9999975280763
388,349,94586,2,0,P|383:323|373:311,1,40.4999987640381,8|0,0:0|0:0,0:0:0:0:
283,282,94736,2,0,P|260:289|248:302,1,40.4999987640381
304,362,94886,6,0,P|338:285|327:192,1,161.999995056153,2|0,0:0|0:0,0:0:0:0:
197,223,95336,2,0,P|169:170|176:61,1,161.999995056153,2|0,0:0|0:0,0:0:0:0:
272,21,95786,2,0,P|310:16|380:36,1,80.9999975280763,8|0,0:0|0:0,0:0:0:0:
427,178,96086,5,2,3:3:0:0:
466,9,96236,1,0,3:0:0:0:
352,125,96386,1,2,3:3:0:0:
500,229,96536,1,2,3:3:0:0:
350,317,96686,2,0,B|314:345|314:345|283:279|311:211,1,161.999995056153,0|8,3:0|3:2,0:0:0:0:
337,54,97136,1,2,0:3:0:0:
142,21,97286,5,2,0:0:0:0:
142,21,97361,1,2,0:0:0:0:
142,21,97436,1,2,0:0:0:0:
47,42,97586,1,2,0:0:0:0:
28,137,97736,1,6,0:3:0:0:
91,210,97886,1,2,0:0:0:0:
184,189,98036,1,6,0:3:0:0:
258,129,98186,1,6,0:3:0:0:
351,156,98336,1,2,0:0:0:0:
387,278,98486,6,0,L|379:382,1,80.9999975280763,4|0,0:0|0:0,0:0:0:0:
269,311,98786,2,0,P|247:256|267:195,1,121.499996292114,2|0,0:0|0:0,0:0:0:0:
264,198,99086,2,0,L|172:187,1,80.9999975280763
12,209,99386,1,6,0:3:0:0:
136,278,99536,1,0,0:0:0:0:
127,137,99686,6,0,L|121:56,1,80.9999975280763,6|0,0:3|0:0,0:0:0:0:
11,131,99986,1,0,0:0:0:0:
221,97,100136,2,0,L|212:-14,1,80.9999975280763,6|0,0:3|0:0,0:0:0:0:
422,51,100436,1,4,0:3:0:0:
296,219,100586,1,10,0:0:0:0:
326,78,100736,1,4,0:3:0:0:
426,195,100886,6,0,P|431:243|422:275,1,80.9999975280763
308,341,101186,2,0,B|171:324,1,121.499996292114,2|0,0:0|0:0,0:0:0:0:
188,327,101486,2,0,P|212:283|180:195,1,121.499996292114
175,190,101786,1,6,0:3:0:0:
104,268,101936,1,0,0:3:0:0:
285,230,102086,5,6,0:3:0:0:
161,86,102236,1,0,0:0:0:0:
161,86,102311,1,0,0:0:0:0:
161,86,102386,1,0,0:0:0:0:
337,238,102536,6,0,P|357:154|309:66,1,161.999995056153,6|4,0:3|0:3,0:0:0:0:
179,59,102986,2,0,L|291:35,1,80.9999975280763,8|0,0:0|0:0,0:0:0:0:
437,148,103286,6,0,L|327:169,1,80.9999975280763,4|0,0:3|0:0,0:0:0:0:
127,112,103586,1,2,0:0:0:0:
127,112,103886,6,0,P|107:192|127:244,1,121.499996292114,2|0,0:0|0:0,0:0:0:0:
117,227,104186,2,0,L|15:236,1,80.9999975280763,4|2,0:3|0:0,0:0:0:0:
50,359,104486,1,4,0:3:0:0:
233,231,104636,1,0,0:0:0:0:
156,373,104786,1,2,0:0:0:0:
156,373,105086,6,0,L|279:359,1,121.499996292114,2|0,0:0|0:0,0:0:0:0:
290,355,105386,2,0,P|286:304|307:265,1,80.9999975280763,8|2,0:0|0:0,0:0:0:0:
383,71,105686,6,0,L|295:87,1,80.9999975280763,4|0,0:3|0:0,0:0:0:0:
135,184,105986,6,0,L|215:196,1,72,2|4,0:3|0:3,0:0:0:0:
400,283,106286,6,0,L|322:300,1,62.9999980773926
177,379,106586,6,0,L|161:291,1,80.9999975280763,6|4,0:3|0:3,0:0:0:0:
83,116,106886,5,6,0:3:0:0:
40,280,107036,1,0,0:0:0:0:
40,296,107111,1,0,0:0:0:0:
40,312,107186,1,0,0:0:0:0:
238,262,107336,2,0,P|298:254|394:306,1,161.999995056153,6|4,0:3|0:3,0:0:0:0:
184,320,107786,2,0,L|68:312,1,99.0000030212403,2|0,0:0|0:0,0:0:0:0:
200,192,108086,6,0,P|232:152|224:20,1,161.999995056153,4|0,0:3|0:0,0:0:0:0:
28,68,108536,1,6,0:3:0:0:
156,20,108686,1,0,0:0:0:0:
25,95,108836,1,2,0:0:0:0:
180,32,108986,1,8,0:0:0:0:
97,162,109136,1,8,0:0:0:0:
230,219,109286,6,0,L|320:212,1,80.9999975280763,4|0,0:3|0:0,0:0:0:0:
260,115,109586,1,0,0:0:0:0:
206,305,109736,2,0,P|281:327|352:291,1,161.999995056153,6|4,0:3|0:3,0:0:0:0:
202,50,110186,2,0,P|175:97|184:147,1,99.0000030212403,2|4,0:0|0:3,0:0:0:0:
376,309,110486,6,0,B|406:331|406:331|427:280|387:184,1,180,6|0,0:3|0:0,0:0:0:0:
329,100,110936,1,6,0:3:0:0:
171,150,111086,2,0,P|151:146|120:124,1,45
53,59,111236,2,0,P|73:47|112:37,1,40.4999987640381,2|0,0:0|0:0,0:0:0:0:
185,53,111386,1,8,0:0:0:0:
189,253,111536,1,10,0:0:0:0:
271,143,111686,6,0,P|319:103|415:119,1,161.999995056153,4|0,0:3|0:0,0:0:0:0:
428,294,112136,1,6,0:3:0:0:
354,195,112286,1,0,0:0:0:0:
481,186,112436,1,6,0:3:0:0:
335,305,112586,1,10,0:0:0:0:
213,160,112736,1,0,0:3:0:0:
312,45,112886,6,0,B|348:5|348:5|420:9|461:71,1,161.999995056153
223,233,113336,1,2,0:0:0:0:
320,74,113486,6,0,B|356:34|356:34|428:38|460:106,1,161.999995056153,0|6,0:0|0:3,0:0:0:0:
280,186,113936,1,4,0:3:0:0:
193,112,114086,6,0,L|87:93,1,80.9999975280763,2|0,0:0|0:0,0:0:0:0:
39,252,114386,1,0,0:0:0:0:
146,288,114536,2,0,L|242:313,1,80.9999975280763,6|0,0:3|0:0,0:0:0:0:
367,239,114836,1,4,0:3:0:0:
266,116,114986,1,10,0:0:0:0:
393,250,115136,1,0,0:0:0:0:
165,200,115286,5,2,3:0:0:0:
157,212,115586,1,2,3:0:0:0:
304,336,115736,1,2,3:0:0:0:
320,344,116036,1,6,3:0:0:0:
163,288,116186,1,2,3:0:0:0:
324,183,116336,1,6,3:0:0:0:
185,98,116486,5,2,0:0:0:0:
169,102,116561,1,2,0:0:0:0:
153,106,116636,1,2,0:0:0:0:
266,246,116786,1,2,0:0:0:0:
135,110,116936,1,6,0:3:0:0:
319,77,117086,1,2,0:0:0:0:
195,225,117236,1,2,0:0:0:0:
353,335,117386,6,0,L|346:261,1,40.4999987640381,2|0,0:0|0:0,0:0:0:0:
444,228,117536,2,0,L|437:177,1,40.4999987640381
421,52,117686,6,0,P|365:52|280:136,1,180,6|0,0:1|0:0,0:0:0:0:
195,225,118136,2,0,L|8:195,1,180,2|0,0:1|0:0,0:0:0:0:
129,100,118586,1,4,0:3:0:0:
96,310,118736,1,4,0:3:0:0:
253,152,118886,6,0,P|313:119|432:153,1,180,2|0,0:1|0:0,0:0:0:0:
435,280,119336,1,2,0:1:0:0:
203,316,119486,1,0,0:0:0:0:
185,191,119636,1,4,0:3:0:0:
307,43,119786,1,8,0:0:0:0:
325,167,119936,1,4,0:3:0:0:
147,268,120086,6,0,P|95:193|145:109,1,180,2|0,0:1|0:0,0:0:0:0:
362,91,120536,2,0,P|413:160|380:239,1,180,2|4,0:1|0:3,0:0:0:0:
255,158,120986,2,0,L|242:65,1,90,4|4,0:3|0:3,0:0:0:0:
167,19,121211,1,0,0:0:0:0:
167,19,121286,6,0,P|120:14|74:28,1,90,2|0,0:1|0:0,0:0:0:0:
101,224,121586,1,2,0:0:0:0:
143,120,121736,1,2,0:1:0:0:
28,273,121886,2,0,B|38:306|60:319|60:319|89:324|114:317|114:317|134:355|174:358,1,180,0|8,0:0|0:0,0:0:0:0:
263,323,122336,1,0,0:3:0:0:
296,91,122486,5,2,0:1:0:0:
296,91,122636,1,0,0:0:0:0:
342,267,122786,1,0,0:0:0:0:
342,267,122936,1,2,0:1:0:0:
163,225,123086,1,0,0:0:0:0:
179,116,123236,2,0,L|195:12,1,90,0|4,0:0|0:3,0:0:0:0:
251,191,123536,1,4,0:3:0:0:
142,317,123686,6,0,P|92:295|73:256,1,90,2|0,0:1|0:0,0:0:0:0:
85,157,123986,1,0,0:0:0:0:
239,291,124136,2,0,L|330:298,1,90,2|0,0:1|0:0,0:0:0:0:
428,189,124436,1,4,0:3:0:0:
348,311,124586,1,8,0:0:0:0:
327,161,124736,1,4,0:3:0:0:
436,293,124886,5,2,0:1:0:0:
436,293,125036,1,0,0:1:0:0:
249,191,125186,1,0,0:1:0:0:
249,191,125336,1,2,0:1:0:0:
405,70,125486,1,0,0:0:0:0:
345,234,125636,1,4,0:3:0:0:
320,48,125786,1,6,0:3:0:0:
452,238,125936,1,4,0:3:0:0:
220,260,126086,5,2,0:1:0:0:
327,161,126236,1,0,0:0:0:0:
327,161,126311,1,0,0:0:0:0:
327,161,126386,1,2,0:0:0:0:
220,260,126536,2,0,P|144:292|44:249,1,180,2|4,0:1|0:3,0:0:0:0:
23,60,126986,1,8,0:0:0:0:
136,171,127136,1,4,0:3:0:0:
234,42,127286,6,0,B|344:29|344:29|421:62,1,180,6|0,0:1|0:0,0:0:0:0:
500,175,127736,2,0,B|390:188|390:188|313:155,1,180,2|0,0:1|0:0,0:0:0:0:
182,99,128186,1,4,0:3:0:0:
326,160,128336,1,4,0:3:0:0:
261,304,128486,6,0,P|185:328|94:284,1,180,2|0,0:1|0:0,0:0:0:0:
80,163,128936,1,2,0:1:0:0:
252,166,129086,1,0,0:0:0:0:
268,282,129236,1,4,0:3:0:0:
113,161,129386,1,8,0:0:0:0:
102,44,129536,1,4,0:3:0:0:
262,48,129686,6,0,P|348:74|390:165,1,180,2|0,0:1|0:0,0:0:0:0:
258,350,130136,2,0,P|172:324|130:233,1,180,2|4,0:1|0:3,0:0:0:0:
173,117,130586,1,6,0:3:0:0:
247,231,130736,1,6,0:3:0:0:
51,198,130886,6,0,L|53:108,1,90,2|0,0:1|0:0,0:0:0:0:
256,60,131186,2,0,L|257:152,1,90,2|2,0:0|0:1,0:0:0:0:
461,198,131486,2,0,L|459:108,1,90,2|0,0:0|0:0,0:0:0:0:
324,242,131786,1,2,0:0:0:0:
172,106,131936,1,0,0:0:0:0:
124,289,132086,6,0,P|176:305|240:286,1,90,2|0,0:1|0:0,0:0:0:0:
416,260,132386,1,0,0:0:0:0:
280,228,132536,1,2,0:1:0:0:
324,352,132686,1,0,0:0:0:0:
432,188,132836,1,0,0:0:0:0:
296,156,132986,1,4,0:3:0:0:
340,280,133136,1,4,0:3:0:0:
376,120,133286,6,0,P|383:68|352:18,1,90,2|0,0:1|0:0,0:0:0:0:
221,109,133586,2,0,P|207:161|234:215,1,90,0|2,0:0|0:1,0:0:0:0:
65,249,133886,1,0,0:0:0:0:
65,249,134036,1,4,0:3:0:0:
119,146,134186,1,10,0:0:0:0:
166,328,134336,1,4,0:3:0:0:
290,254,134486,6,0,L|262:156,1,90,2|0,0:3|0:0,0:0:0:0:
291,49,134786,1,2,0:3:0:0:
104,150,134936,2,0,L|123:49,1,90,2|0,3:0|0:0,0:0:0:0:
215,16,135236,1,6,3:0:0:0:
353,117,135386,2,0,P|308:136|235:119,1,90,0|6,0:0|0:3,0:0:0:0:
165,255,135686,5,2,0:0:0:0:
169,267,135761,1,2,0:0:0:0:
173,279,135836,1,2,0:0:0:0:
237,170,135986,1,2,0:0:0:0:
144,84,136136,1,6,0:3:0:0:
32,142,136286,1,2,0:0:0:0:
51,266,136436,1,6,0:3:0:0:
187,311,136586,2,2,L|253:328,1,45,6|0,0:3|0:0,0:0:0:0:
302,248,136736,2,2,L|361:258,1,45,4|0,0:3|0:0,0:0:0:0:
434,341,136886,6,0,L|448:140,1,180,6|0,0:1|0:0,0:0:0:0:
378,54,137336,2,0,P|279:66|250:148,1,180,2|0,0:1|0:0,0:0:0:0:
317,288,137786,1,6,0:3:0:0:
338,130,137936,1,4,0:3:0:0:
205,215,138086,6,0,L|40:181,1,135,2|0,0:1|0:0,0:0:0:0:
72,187,138386,2,0,P|57:138|76:72,1,90,0|2,0:0|0:1,0:0:0:0:
256,144,138686,1,0,0:0:0:0:
144,52,138836,1,4,0:3:0:0:
244,264,138986,5,0,0:0:0:0:
428,224,139136,1,0,0:0:0:0:
334,87,139286,6,0,L|315:289,1,180,2|0,0:1|0:0,0:0:0:0:
158,174,139736,2,0,L|187:357,1,180,2|4,0:1|0:3,0:0:0:0:
314,275,140186,1,4,0:3:0:0:
407,329,140336,1,4,0:3:0:0:
469,240,140486,6,0,P|477:200|459:146,1,90,2|0,0:1|0:0,0:0:0:0:
314,275,140786,2,0,P|310:332|335:370,1,90,0|2,0:1|0:1,0:0:0:0:
381,196,141086,2,0,L|361:43,1,135,0|0,0:1|0:0,0:0:0:0:
363,62,141386,2,0,P|312:55|262:65,1,90,8|0,0:0|0:0,0:0:0:0:
168,202,141686,5,2,0:1:0:0:
64,94,141836,1,0,0:0:0:0:
176,239,141986,1,0,0:0:0:0:
262,127,142136,1,2,0:1:0:0:
187,279,142286,1,0,0:0:0:0:
52,183,142436,2,0,L|64:87,1,90,0|4,0:3|0:3,0:3:0:0:
148,8,142736,1,4,0:3:0:0:
358,85,142886,6,0,P|368:132|354:177,1,90,2|0,0:1|0:0,0:0:0:0:
288,263,143186,1,0,0:0:0:0:
185,248,143336,2,0,L|72:223,1,90,2|0,0:1|0:0,0:0:0:0:
181,111,143636,1,4,0:3:0:0:
210,274,143786,1,8,0:0:0:0:
269,162,143936,1,4,0:3:0:0:
115,242,144086,5,2,0:1:0:0:
252,334,144236,1,0,0:0:0:0:
92,224,144386,1,0,0:0:0:0:
247,184,144536,1,2,0:1:0:0:
65,208,144686,1,0,0:0:0:0:
198,53,144836,1,4,0:3:0:0:
68,20,144986,2,0,L|64:80,1,45,4|0,0:3|0:0,0:0:0:0:
140,169,145136,2,0,L|149:103,1,45,4|0,0:3|0:0,0:0:0:0:
233,34,145286,6,0,L|359:42,1,90,2|0,0:1|0:0,0:0:0:0:
354,41,145511,1,0,0:0:0:0:
354,41,145586,1,2,0:0:0:0:
472,180,145736,2,0,B|467:213|421:237|421:237|306:206,1,180,2|4,0:1|0:3,0:0:0:0:
170,270,146186,1,8,0:0:0:0:
323,210,146336,1,4,0:3:0:0:
194,81,146486,6,0,P|104:89|54:185,1,180,6|0,0:1|0:0,0:0:0:0:
178,360,146936,2,0,L|160:177,1,180,2|0,0:1|0:0,0:0:0:0:
267,253,147386,1,4,0:3:0:0:
75,268,147536,1,4,0:3:0:0:
285,347,147686,6,0,P|368:366|444:289,1,180,2|0,0:1|0:0,0:0:0:0:
403,157,148136,1,2,0:1:0:0:
346,265,148286,1,0,0:0:0:0:
295,149,148436,1,4,0:3:0:0:
482,249,148586,1,8,0:0:0:0:
501,124,148736,1,4,0:3:0:0:
341,27,148886,6,0,B|229:34|229:34|170:101,1,180,2|0,0:1|0:0,0:0:0:0:
68,298,149336,2,0,P|112:250|108:134,1,180,2|4,0:1|0:3,0:0:0:0:
34,24,149786,1,4,0:3:0:0:
105,115,149936,1,4,0:3:0:0:
321,61,150086,6,0,L|425:61,1,90,2|2,0:1|0:0,0:0:0:0:
427,73,150536,2,0,B|336:88|336:88|231:68,1,180,2|4,0:1|0:3,0:0:0:0:
138,205,150986,1,8,0:0:0:0:
35,95,151136,1,0,0:0:0:0:
208,152,151286,6,0,P|227:200|214:252,1,90,2|0,0:1|0:0,0:0:0:0:
90,360,151586,1,0,0:0:0:0:
90,360,151736,1,2,0:1:0:0:
138,205,151886,1,0,0:0:0:0:
138,205,152036,1,0,0:0:0:0:
249,347,152186,1,6,0:3:0:0:
369,223,152336,1,4,0:3:0:0:
143,119,152486,5,2,0:1:0:0:
143,119,152636,1,0,0:0:0:0:
266,311,152786,1,0,0:0:0:0:
266,311,152936,1,2,0:1:0:0:
95,255,153086,1,0,0:0:0:0:
333,160,153236,1,4,0:3:0:0:
156,84,153386,1,10,0:0:0:0:
218,207,153536,1,4,0:3:0:0:
311,123,153686,5,2,0:3:0:0:
340,127,153836,1,0,0:0:0:0:
369,131,153986,1,2,0:3:0:0:
432,295,154136,5,2,0:3:0:0:
402,290,154286,1,0,0:0:0:0:
372,285,154436,1,6,0:3:0:0:
241,337,154586,5,0,0:0:0:0:
136,225,154736,1,6,0:3:0:0:
242,126,154886,5,2,0:0:0:0:
242,126,154961,1,2,0:0:0:0:
242,126,155036,1,2,0:0:0:0:
317,322,155186,1,6,0:0:0:0:
123,259,155336,1,2,0:0:0:0:
336,130,155486,1,6,0:0:0:0:
327,246,155636,1,6,0:0:0:0:
150,118,155786,1,6,0:0:0:0:
159,1,155936,1,0,0:0:0:0:
287,59,156086,6,0,P|368:88|453:55,1,161.999995056153,2|0,0:0|0:0,0:0:0:0:
511,130,156536,1,2,0:0:0:0:
441,197,156686,2,0,L|435:287,1,80.9999975280763
318,356,156986,1,8,0:0:0:0:
435,291,157136,1,0,0:0:0:0:
318,356,157286,6,0,L|304:159,1,161.999995056153,2|0,0:0|0:0,0:0:0:0:
223,95,157736,2,0,P|186:95|139:122,1,80.9999975280763,2|0,0:0|0:0,0:0:0:0:
80,323,158036,1,0,0:0:0:0:
173,232,158186,1,8,0:0:0:0:
48,195,158336,1,0,0:0:0:0:
170,343,158486,5,2,0:0:0:0:
204,340,158636,1,0,0:0:0:0:
321,235,158786,1,0,0:0:0:0:
283,239,158936,1,2,0:0:0:0:
159,169,159086,2,0,P|141:115|160:44,1,121.499996292114
154,53,159386,2,0,L|248:54,1,80.9999975280763,8|0,0:0|0:0,0:0:0:0:
406,211,159686,5,2,0:0:0:0:
466,99,159836,1,0,0:0:0:0:
466,99,159911,1,0,0:0:0:0:
466,99,159986,1,0,0:0:0:0:
326,158,160136,2,0,B|310:200|310:200|327:258,1,80.9999975280763,10|0,0:0|0:0,0:0:0:0:
466,99,160436,2,0,B|480:58|480:58|465:-1,1,80.9999975280763,0|8,0:0|0:0,0:0:0:0:
290,25,160736,5,0,0:0:0:0:
191,147,160886,1,2,0:0:0:0:
74,56,161036,1,0,0:0:0:0:
185,43,161186,1,0,0:0:0:0:
50,174,161336,1,2,0:0:0:0:
243,234,161486,2,0,P|295:251|403:203,1,161.999995056153,0|8,0:0|0:0,0:0:0:0:
371,101,161936,1,0,0:0:0:0:
127,35,162086,6,0,B|148:215,1,161.999995056153,2|0,0:0|0:0,0:0:0:0:
168,342,162536,1,2,0:0:0:0:
243,212,162686,1,0,0:0:0:0:
62,200,162836,2,0,B|16:268|50:349|50:349|83:291,1,202.499993820191
168,342,163286,6,0,P|217:350|265:330,1,80.9999975280763,2|0,0:0|0:0,0:0:0:0:
306,186,163586,1,0,0:0:0:0:
210,269,163736,1,2,0:0:0:0:
340,319,163886,2,0,P|372:299|398:244,1,80.9999975280763
172,122,164186,1,10,0:0:0:0:
204,247,164336,1,0,0:0:0:0:
384,79,164486,5,2,0:0:0:0:
260,39,164636,1,0,0:0:0:0:
326,271,164786,1,2,0:0:0:0:
402,195,164936,1,8,0:0:0:0:
304,120,165086,2,0,L|236:120,1,40.4999987640381,10|0,0:0|0:0,0:0:0:0:
144,56,165236,2,0,L|200:52,1,40.4999987640381,10|0,0:0|0:0,0:0:0:0:
192,188,165386,1,10,0:0:0:0:
164,192,165461,1,8,0:0:0:0:
140,196,165536,1,8,0:0:0:0:
120,200,165611,1,0,0:0:0:0:
100,204,165686,6,0,P|84:160|88:120,1,80.9999975280763,4|0,0:0|0:0,0:0:0:0:
220,183,165986,2,0,P|235:226|232:267,1,80.9999975280763,2|2,0:0|0:0,0:0:0:0:
121,369,166286,1,0,0:0:0:0:
162,242,166436,1,2,0:0:0:0:
254,351,166586,1,8,0:0:0:0:
315,237,166736,1,10,0:0:0:0:
396,340,166886,6,0,P|428:288|496:288,1,107.999996704102
472,280,167336,2,0,L|297:232,1,161.999995056153,0|0,0:0|0:3,0:0:0:0:
160,208,167786,2,0,P|152:256|168:304,1,80.9999975280763,8|0,0:0|0:3,0:0:0:0:
269,145,168086,6,0,L|261:57,1,80.9999975280763
96,128,168386,1,0,0:0:0:0:
180,48,168536,1,2,0:0:0:0:
248,228,168686,2,0,L|276:324,1,80.9999975280763,0|2,0:0|0:0,0:0:0:0:
351,119,168986,2,0,L|371:23,1,80.9999975280763,8|10,0:0|0:0,0:0:0:0:
488,200,169286,6,0,P|432:220|372:201,1,107.999996704102
386,209,169511,1,0,0:0:0:0:
386,209,169586,1,0,0:0:0:0:
422,142,169736,2,0,P|455:165|435:286,1,161.999995056153,8|4,0:0|0:0,0:0:0:0:
302,342,170186,1,8,0:0:0:0:
168,176,170336,5,0,0:0:0:0:
195,302,170486,1,0,0:0:0:0:
286,215,170636,1,0,0:0:0:0:
93,117,170786,1,0,0:0:0:0:
149,215,170936,1,2,0:0:0:0:
253,108,171086,1,0,0:0:0:0:
322,197,171236,1,2,0:0:0:0:
202,282,171386,5,8,0:0:0:0:
294,128,171536,1,10,0:0:0:0:
419,261,171686,1,0,0:0:0:0:
463,148,171836,1,0,0:0:0:0:
286,215,171986,1,0,0:0:0:0:
264,95,172136,1,4,0:3:0:0:
505,213,172286,1,0,0:0:0:0:
484,93,172436,1,4,0:3:0:0:
193,146,172586,1,8,0:0:0:0:
268,51,172736,1,4,0:3:0:0:
360,217,172886,5,2,0:3:0:0:
374,236,173186,1,2,0:3:0:0:
127,305,173336,1,2,0:3:0:0:
117,288,173636,1,6,0:3:0:0:
254,138,173786,1,2,0:3:0:0:
292,347,173936,1,6,0:3:0:0:
151,238,174086,5,2,0:0:0:0:
137,228,174161,1,2,0:0:0:0:
121,219,174236,1,2,0:0:0:0:
108,210,174311,1,0,0:0:0:0:
93,197,174386,6,0,P|92:168|109:139,1,53.9999983520508,6|0,0:0|0:0,0:0:0:0:
170,53,174536,2,0,P|194:37|228:38,1,53.9999983520508,2|2,0:0|0:0,0:0:0:0:
333,48,174686,2,0,P|358:61|375:91,1,53.9999983520508,6|2,0:0|0:0,0:0:0:0:
419,187,174836,2,0,P|420:216|403:245,1,53.9999983520508,6|2,0:0|0:0,0:0:0:0:
341,330,174986,2,0,P|317:346|283:345,1,53.9999983520508,10|2,0:0|0:0,0:0:0:0:
178,335,175136,2,0,P|153:322|136:292,1,53.9999983520508,2|2,0:0|0:0,0:0:0:0:
136,216,175286,6,0,B|198:179|270:256|343:209,1,202.500007724762
350,205,175811,1,0,0:0:0:0:
350,205,175886,2,0,B|322:150|348:66|348:66|373:95|364:129,1,202.500007724762
349,338,176486,6,0,B|159:312,1,180,6|0,0:1|0:0,0:0:0:0:
66,216,176936,2,0,P|54:130|95:47,1,180,2|0,0:1|0:0,0:0:0:0:
218,174,177386,1,4,0:3:0:0:
287,36,177536,1,4,0:3:0:0:
438,237,177686,6,0,B|366:221|366:221|327:177|359:106,1,180,2|0,0:1|0:0,0:0:0:0:
482,168,178136,1,2,0:1:0:0:
352,310,178286,1,0,0:0:0:0:
317,298,178436,1,4,0:3:0:0:
163,132,178586,1,8,0:0:0:0:
192,111,178736,1,4,0:3:0:0:
276,213,178886,6,0,B|308:286|269:330|269:330|203:348,1,180,2|0,0:1|0:0,0:0:0:0:
56,204,179336,2,0,P|120:180|199:258,1,180,2|0,0:1|0:0,0:0:0:0:
92,312,179786,1,4,0:3:0:0:
32,196,179936,1,4,0:3:0:0:
32,196,180011,1,0,0:0:0:0:
32,196,180086,6,0,L|34:102,1,90,2|0,0:1|0:0,0:0:0:0:
256,272,180386,2,0,L|256:176,1,90,2|2,0:0|0:1,0:0:0:0:
480,196,180686,2,0,L|478:102,1,90,2|0,0:0|0:0,0:0:0:0:
277,63,180986,1,8,0:0:0:0:
409,164,181136,1,0,0:0:0:0:
317,312,181286,5,2,0:1:0:0:
308,327,181436,1,0,0:0:0:0:
325,153,181586,1,0,0:0:0:0:
316,137,181736,1,2,0:1:0:0:
453,252,181886,1,0,0:0:0:0:
470,255,182036,1,0,0:0:0:0:
416,365,182186,2,0,L|366:378,1,45,6|0,0:3|0:0,0:0:0:0:
226,337,182336,2,0,L|208:265,1,45,4|0,0:3|0:0,0:0:0:0:
243,171,182486,6,0,P|283:147|340:162,1,90,2|0,0:1|0:0,0:0:0:0:
354,294,182786,1,0,0:0:0:0:
226,337,182936,2,0,L|130:294,1,90,2|0,0:1|0:0,0:0:0:0:
133,101,183236,1,4,0:3:0:0:
66,265,183386,1,8,0:0:0:0:
24,128,183536,1,4,0:3:0:0:
235,219,183686,5,2,0:1:0:0:
232,236,183836,1,0,0:0:0:0:
340,99,183986,1,0,0:0:0:0:
357,93,184136,1,2,0:1:0:0:
172,71,184286,1,0,0:0:0:0:
157,61,184436,1,4,0:3:0:0:
295,104,184586,2,0,L|348:97,1,45,6|0,0:3|0:0,0:0:0:0:
479,182,184736,2,0,L|434:188,1,45,4|0,0:3|0:0,0:0:0:0:
323,258,184886,6,0,P|320:321|345:376,1,90,2|0,0:1|0:0,0:0:0:0:
346,378,185111,1,0,0:0:0:0:
346,378,185186,1,2,0:0:0:0:
401,260,185336,2,0,P|351:180|256:216,1,180,2|4,0:1|0:3,0:0:0:0:
104,334,185786,2,0,L|101:290,1,45,8|0,0:0|0:0,0:0:0:0:
212,225,185936,2,0,L|203:180,1,45,4|0,0:3|0:0,0:0:0:0:
168,48,186086,6,0,P|108:74|125:200,1,180,6|0,0:1|0:0,0:0:0:0:
409,178,186536,2,0,P|416:93|344:48,1,180,2|0,0:1|0:0,0:0:0:0:
173,129,186986,1,4,0:3:0:0:
337,127,187136,1,4,0:3:0:0:
255,21,187286,6,0,L|256:170,1,135,2|0,0:1|0:0,0:0:0:0:
255,155,187586,2,0,P|223:196|151:208,1,90,0|2,0:0|0:1,0:0:0:0:
7,200,187886,1,0,0:0:0:0:
188,287,188036,1,4,0:3:0:0:
113,134,188186,1,8,0:0:0:0:
81,342,188336,1,4,0:3:0:0:
244,227,188486,6,0,B|299:212|375:244|375:244|419:196,1,180,2|0,0:1|0:0,0:0:0:0:
244,116,188936,2,0,B|189:101|112:133|112:133|68:85,1,180,2|0,0:1|0:0,0:0:0:0:
230,30,189386,1,4,0:3:0:0:
382,149,189536,1,4,0:3:0:0:
268,304,189686,6,0,P|220:303|180:274,1,90,2|0,0:1|0:0,0:0:0:0:
159,244,189911,1,0,0:0:0:0:
159,244,189986,2,0,L|62:259,1,90,2|2,0:0|0:1,0:0:0:0:
25,115,190286,2,0,L|171:97,1,135,2|0,0:0|0:0,0:0:0:0:
173,98,190586,1,8,0:0:0:0:
301,220,190736,1,0,0:0:0:0:
435,55,190886,5,2,0:1:0:0:
435,55,191186,2,0,L|430:150,1,90,0|2,0:0|0:1,0:0:0:0:
296,309,191486,2,0,L|301:214,1,90
176,152,191786,2,0,L|99:136,1,45,6|0,0:3|0:0,0:0:0:0:
219,52,191936,2,0,L|270:39,1,45,4|0,0:3|0:0,0:0:0:0:
375,50,192086,6,0,P|407:138|397:168,1,90,2|0,0:1|0:0,0:0:0:0:
332,228,192386,2,0,L|233:239,1,90,0|2,0:0|0:1,0:0:0:0:
92,248,192686,1,0,0:0:0:0:
240,328,192836,1,6,0:3:0:0:
200,160,192986,1,8,0:0:0:0:
136,344,193136,1,6,0:3:0:0:
12,189,193286,5,2,0:3:0:0:
127,139,193436,1,0,0:0:0:0:
173,21,193586,1,2,0:3:0:0:
339,21,193736,5,2,0:3:0:0:
385,139,193886,1,0,0:0:0:0:
500,189,194036,1,2,0:3:0:0:
305,279,194186,5,4,0:3:0:0:
469,350,194336,1,6,0:3:0:0:
393,232,194486,5,2,0:3:0:0:
393,232,194561,1,2,0:0:0:0:
393,232,194636,2,0,L|413:172,1,49.5000015106202,2|2,0:0|0:0,0:0:0:0:
336,55,194786,2,0,L|316:115,1,49.5000015106202,2|2,0:0|0:0,0:0:0:0:
192,209,194936,2,0,L|216:145,1,49.5000015106202,6|2,0:0|0:0,0:0:0:0:
132,48,195086,6,0,P|104:36|84:16,1,49.5000015106202,2|2,0:0|0:0,0:0:0:0:
52,160,195236,2,0,P|32:168|-4:168,1,49.5000015106202,6|2,0:0|0:0,0:0:0:0:
71,283,195386,2,0,P|51:311|23:323,1,49.5000015106202,10|2,0:0|0:0,0:0:0:0:
184,336,195536,2,0,P|192:369|183:398,1,49.5000015106202,6|2,0:3|0:0,0:0:0:0:
301,294,195686,6,0,B|352:285|352:285|409:298|409:298|448:272|508:280,1,198.000006042481,6|2,0:1|0:0,0:0:0:0:
377,178,196136,2,0,B|318:188|318:188|268:169|268:169|221:186|173:154,1,198.000006042481,2|2,0:1|0:0,0:0:0:0:
47,54,196586,1,4,0:3:0:0:
143,155,196736,1,4,0:3:0:0:
143,155,196811,1,0,0:0:0:0:
143,155,196886,6,0,P|175:115|141:19,1,148.50000453186,2|0,0:1|0:0,0:0:0:0:
152,27,197186,2,0,L|268:19,1,99.0000030212403,2|2,0:0|0:1,0:0:0:0:
420,84,197486,1,0,0:0:0:0:
293,182,197636,1,6,0:3:0:0:
427,47,197786,1,8,0:0:0:0:
481,226,197936,1,4,0:3:0:0:
481,226,198011,1,0,0:0:0:0:
481,226,198086,6,0,P|465:314|361:358,1,198.000006042481,2|2,0:1|0:0,0:0:0:0:
198,267,198536,2,0,B|155:290|114:270|114:270|70:291|70:291|38:264|-11:283,1,198.000006042481,2|2,0:1|0:0,0:0:0:0:
120,368,198986,1,4,0:3:0:0:
156,193,199136,1,4,0:3:0:0:
275,342,199286,6,0,P|334:342|377:303,1,99.0000030212403,2|0,0:1|0:0,0:0:0:0:
400,249,199511,1,0,0:0:0:0:
400,249,199586,2,0,L|388:112,1,99.0000030212403,2|2,0:0|0:1,0:0:0:0:
198,23,199886,2,0,L|208:132,1,99.0000030212403,0|2,0:0|0:0,0:0:0:0:
387,120,200186,1,10,0:0:0:0:
303,266,200336,1,4,0:3:0:0:
123,104,200486,5,2,0:1:0:0:
61,250,200636,1,0,0:0:0:0:
219,238,200786,1,2,0:0:0:0:
86,97,200936,5,2,0:1:0:0:
24,243,201086,1,0,0:0:0:0:
182,230,201236,1,2,0:0:0:0:
66,69,201386,6,0,P|53:94|51:125,1,49.5000015106202,6|0,0:3|0:0,0:0:0:0:
58,263,201536,2,0,P|63:290|81:324,1,49.5000015106202,4|0,0:3|0:0,0:0:0:0:
209,327,201686,6,0,L|313:311,1,99.0000030212403,2|0,0:1|0:0,0:0:0:0:
76,149,201986,1,2,0:0:0:0:
182,230,202136,2,0,P|206:170|190:110,1,99.0000030212403,2|0,0:1|0:0,0:0:0:0:
105,333,202436,1,6,0:3:0:0:
310,274,202586,1,8,0:0:0:0:
126,166,202736,1,4,0:3:0:0:
292,86,202886,6,0,P|340:74|416:102,1,99.0000030212403,2|0,0:1|0:0,0:0:0:0:
446,133,203111,1,0,0:0:0:0:
446,133,203186,2,0,L|450:233,1,99.0000030212403,2|2,0:0|0:1,0:0:0:0:
229,243,203486,1,0,0:0:0:0:
384,358,203636,1,2,0:0:0:0:
363,151,203786,1,4,0:3:0:0:
277,336,203936,1,4,0:3:0:0:
161,272,204086,6,0,L|61:252,1,99.0000030212403,2|0,0:1|0:0,0:0:0:0:
36,176,204311,1,0,0:0:0:0:
36,176,204386,2,0,P|27:144|36:100,1,49.5000015106202,2|0,0:0|0:0,0:0:0:0:
133,2,204536,2,0,P|186:90|157:210,1,198.000006042481,2|2,0:1|0:0,0:0:0:0:
92,336,204986,2,0,L|43:326,1,49.5000015106202,8|0,0:0|0:0,0:0:0:0:
199,254,205136,2,0,L|287:270,1,49.5000015106202,4|0,0:3|0:0,0:0:0:0:
326,338,205286,6,0,P|390:338|454:230,1,198.000006042481,6|2,0:1|0:0,0:0:0:0:
186,46,205736,2,0,P|122:46|58:154,1,198.000006042481,2|2,0:1|0:0,0:0:0:0:
347,242,206186,1,4,0:3:0:0:
165,142,206336,1,4,0:3:0:0:
118,252,206486,6,0,P|194:281|278:249,1,148.50000453186,2|0,0:1|0:0,0:0:0:0:
256,264,206786,2,0,L|255:152,1,99.0000030212403,2|2,0:0|0:1,0:0:0:0:
148,24,207086,1,0,0:0:0:0:
364,24,207236,1,6,0:3:0:0:
128,40,207386,1,8,0:0:0:0:
384,40,207536,1,4,0:3:0:0:
256,128,207686,6,0,L|256:264,1,99.0000030212403,2|0,0:1|0:0,0:0:0:0:
256,312,207911,1,0,0:0:0:0:
256,312,207986,1,2,0:0:0:0:
433,315,208136,2,0,P|477:263|433:151,1,198.000006042481,2|6,0:1|0:3,0:0:0:0:
332,239,208586,1,0,0:0:0:0:
160,88,208736,5,4,0:3:0:0:
160,88,208811,1,0,0:0:0:0:
160,88,208886,2,0,P|100:64|52:80,1,99.0000030212403,2|0,0:1|0:0,0:0:0:0:
140,245,209186,2,0,P|200:269|248:253,1,99.0000030212403,2|2,0:0|0:1,0:0:0:0:
388,137,209486,2,0,L|380:34,1,99.0000030212403,0|6,0:0|0:3,0:0:0:0:
208,75,209786,2,0,L|140:92,1,49.5000015106202,8|0,0:1|0:0,0:0:0:0:
36,169,209936,2,0,L|119:200,1,49.5000015106202
224,249,210086,6,0,P|236:317|200:377,1,99.0000030212403,2|0,0:1|0:0,0:0:0:0:
166,159,210386,1,2,0:0:0:0:
344,223,210536,1,2,0:1:0:0:
140,245,210686,1,0,0:0:0:0:
366,141,210836,1,6,0:3:0:0:
308,329,210986,1,4,0:3:0:0:
237,125,211136,1,4,0:3:0:0:
462,172,211286,5,2,0:1:0:0:
462,172,211436,1,0,0:0:0:0:
310,344,211586,1,2,0:0:0:0:
310,344,211736,1,2,0:1:0:0:
214,190,211886,1,0,0:0:0:0:
114,314,212036,1,6,0:3:0:0:
72,135,212186,1,8,0:0:0:0:
212,332,212336,1,4,0:3:0:0:
218,102,212486,5,2,0:3:0:0:
178,106,212636,1,0,0:2:0:0:
150,134,212786,1,2,0:3:0:0:
354,198,212936,5,2,0:3:0:0:
394,194,213086,1,0,0:2:0:0:
422,166,213236,1,6,0:3:0:0:
214,190,213386,5,2,0:2:0:0:
374,323,213536,1,6,0:3:0:0:
345,91,213686,5,2,0:0:0:0:
345,91,213761,1,2,0:0:0:0:
345,91,213836,1,2,0:0:0:0:
195,187,213986,1,6,0:0:0:0:
373,228,214136,1,2,0:0:0:0:
168,84,214286,1,6,0:0:0:0:
197,286,214436,1,6,0:0:0:0:
281,135,214586,1,10,0:0:0:0:
65,74,214736,1,6,0:0:0:0:
20,260,214886,6,2,L|176:188,1,161.999995056153,6|0,0:0|0:0,0:1:0:0:
388,88,215336,1,2,0:0:0:0:
412,104,215636,1,4,0:3:0:0:
312,200,215786,1,0,0:0:0:0:
296,60,215936,1,0,0:0:0:0:
404,180,216086,6,2,L|224:116,1,161.999995056153,2|0,0:0|0:0,0:1:0:0:
48,48,216536,1,2,0:0:0:0:
44,76,216836,1,4,0:3:0:0:
154,195,216986,1,10,0:0:0:0:
208,52,217136,1,0,0:0:0:0:
108,108,217286,6,2,L|112:288,1,161.999995056153,2|0,0:0|0:0,0:1:0:0:
342,283,217736,1,2,0:0:0:0:
346,255,218036,1,4,0:3:0:0:
233,206,218186,1,0,0:0:0:0:
328,357,218336,1,2,0:0:0:0:
497,278,218486,6,0,L|497:186,1,80.9999975280763,2|0,0:1|0:0,0:1:0:0:
500,150,218711,1,0,0:0:0:0:
500,150,218786,1,2,0:0:0:0:
392,204,218936,2,0,P|312:204|264:136,1,161.999995056153,0|4,0:0|0:3,0:0:0:0:
412,24,219386,1,8,0:0:0:0:
352,132,219536,1,0,0:0:0:0:
184,152,219686,6,2,B|120:172|60:152|60:152|68:132|108:112,1,161.999995056153,2|0,0:0|0:0,0:1:0:0:
248,60,220136,1,2,0:0:0:0:
264,92,220436,1,4,0:3:0:0:
136,260,220586,1,4,0:3:0:0:
148,128,220736,1,0,0:0:0:0:
257,274,220886,6,2,B|306:319|319:381|319:381|298:384|284:373,1,161.999995056153,2|0,0:0|0:0,0:1:0:0:
192,200,221336,1,2,0:0:0:0:
216,184,221636,1,4,0:3:0:0:
368,272,221786,1,10,0:0:0:0:
248,344,221936,1,4,0:3:0:0:
326,149,222086,6,2,B|341:84|388:42|388:42|401:59|399:76,1,161.999995056153,2|0,0:0|0:0,0:1:0:0:
392,248,222536,1,2,0:0:0:0:
368,272,222836,5,4,0:3:0:0:
120,216,222986,1,4,0:3:0:0:
279,345,223136,1,0,0:0:0:0:
32,244,223286,6,0,P|24:192|48:156,1,80.9999975280763,2|2,0:1|0:2,0:2:0:0:
108,112,223511,1,2,0:0:0:0:
108,112,223586,1,0,0:0:0:0:
368,112,223736,2,0,P|396:64|388:12,1,80.9999975280763,0|2,0:0|0:1,0:0:0:0:
248,36,224036,1,6,0:3:0:0:
195,169,224186,2,0,L|211:229,1,40.4999987640381,10|0,0:0|0:0,0:0:0:0:
125,283,224336,2,0,L|113:347,1,40.4999987640381
240,356,224486,6,2,P|308:364|436:356,1,161.999995056153,2|0,0:0|0:0,0:1:0:0:
468,204,224936,2,0,P|400:196|272:204,1,161.999995056153,2|0,0:0|0:0,0:0:0:0:
183,139,225386,2,0,L|179:87,1,40.4999987640381,6|0,0:3|0:0,0:0:0:0:
109,214,225536,2,0,L|113:274,1,40.4999987640381
36,144,225686,6,2,P|100:96|212:116,1,161.999995056153,2|0,0:0|0:0,0:1:0:0:
372,263,226136,2,0,P|308:215|196:235,1,161.999995056153,2|4,0:0|0:3,0:0:0:0:
272,334,226586,1,8,0:0:0:0:
408,187,226736,2,0,P|432:183|456:172,1,40.4999987640381,4|0,0:3|0:0,0:0:0:0:
377,101,226886,6,2,L|371:274,1,161.999995056153,2|0,0:0|0:0,0:1:0:0:
135,101,227336,2,0,L|141:274,1,161.999995056153,2|0,0:0|0:0,0:0:0:0:
50,146,227786,1,2,0:0:0:0:
217,208,227936,2,0,P|238:207|264:200,1,40.4999987640381,6|0,0:3|0:0,0:0:0:0:
331,100,228086,6,0,P|310:101|284:108,1,40.4999987640381,2|0,0:1|0:0,0:0:0:0:
210,133,228236,1,4,0:3:0:0:
210,133,228311,1,0,0:0:0:0:
210,133,228386,1,2,0:0:0:0:
325,238,228536,2,0,B|333:306|302:358|302:358|271:314,1,161.999995056153,4|0,0:3|0:0,0:0:0:0:
149,227,228986,2,0,P|85:228|46:261,1,80.9999975280763,8|0,0:0|0:0,0:0:0:0:
192,315,229286,6,2,B|177:232|177:232|200:140,1,161.999995056153,2|0,0:0|0:0,0:1:0:0:
406,196,229736,1,2,0:1:0:0:
398,221,230036,1,6,0:3:0:0:
210,133,230186,1,4,0:3:0:0:
272,351,230336,1,0,0:0:0:0:
319,182,230486,6,2,B|334:99|334:99|311:7,1,161.999995056153,2|0,0:0|0:0,0:1:0:0:
118,102,230936,1,2,0:1:0:0:
95,83,231236,1,6,0:3:0:0:
335,107,231386,1,8,0:0:0:0:
125,227,231536,1,0,0:0:0:0:
368,285,231686,5,2,0:3:0:0:
390,269,231986,1,2,0:3:0:0:
125,227,232136,1,2,0:3:0:0:
141,257,232436,1,6,0:3:0:0:
249,341,232586,1,0,0:0:0:0:
257,202,232736,1,6,0:3:0:0:
76,113,232886,5,2,0:0:0:0:
76,113,232961,1,2,0:0:0:0:
76,113,233036,1,2,0:0:0:0:
308,101,233186,1,6,0:0:0:0:
139,174,233336,1,2,0:0:0:0:
300,20,233486,1,6,0:0:0:0:
141,257,233636,1,6,0:0:0:0:
373,163,233786,1,10,0:0:0:0:
183,50,233936,1,4,0:3:0:0:
339,357,234086,5,4,0:0:0:0:
