osu file format v14

[General]
AudioFilename: no.mp3
AudioLeadIn: 0
PreviewTime: 50111
Countdown: 0
SampleSet: Soft
StackLeniency: 0.7
Mode: 0
LetterboxInBreaks: 0
WidescreenStoryboard: 0

[Editor]
Bookmarks: 15386,78686
DistanceSpacing: 1
BeatDivisor: 2
GridSize: 4
TimelineZoom: 1.3

[Metadata]
Title:No title
TitleUnicode:No title
Artist:Reol
ArtistUnicode:れをる
Creator:Pho
Version:Easy
Source:
Tags:title− giga_p OKiku
BeatmapID:759315
BeatmapSetID:343672

[Difficulty]
HPDrainRate:2
CircleSize:3
OverallDifficulty:2
ApproachRate:4
SliderMultiplier:0.8
SliderTickRate:1

[Events]
//Background and Video events
0,0,"bg.jpg",0,0
//Break Periods
2,69886,75566
//Storyboard Layer 0 (Background)
//Storyboard Layer 1 (Fail)
//Storyboard Layer 2 (Pass)
//Storyboard Layer 3 (Foreground)
//Storyboard Sound Samples

[TimingPoints]
86,300,4,2,1,40,1,0
2486,-100,4,2,1,40,0,0
2786,-100,4,2,1,15,0,0
2936,-100,4,2,1,40,0,0
3236,-100,4,2,1,15,0,0
3386,-100,4,2,1,40,0,0
3986,-100,4,2,1,15,0,0
4136,-100,4,2,1,40,0,0
5186,-100,4,2,1,15,0,0
5336,-100,4,2,1,40,0,0
7286,-100,4,2,1,40,0,0
7436,-100,4,2,1,70,0,0
7586,-100,4,2,1,40,0,0
7736,-100,4,2,1,70,0,0
8036,-100,4,2,1,20,0,0
8186,-100,4,2,2,50,0,0
8486,-100,4,2,1,40,0,0
8786,-100,4,2,1,20,0,0
8936,-100,4,2,1,70,0,0
9686,-100,4,3,0,70,0,0
10886,-100,4,2,3,70,0,0
11486,-100,4,2,3,70,0,0
11786,-100,4,2,1,70,0,0
11936,-100,4,2,3,70,0,0
12086,-100,4,2,1,70,0,0
12236,-100,4,2,1,20,0,0
12386,-100,4,2,1,70,0,0
12836,-100,4,2,1,60,0,0
12986,-100,4,2,1,70,0,0
13136,-100,4,2,1,50,0,0
13286,-100,4,2,1,70,0,0
15236,-100,4,2,1,60,0,0
15386,-100,4,2,1,70,0,0
15536,-100,4,2,1,50,0,0
15686,-100,4,2,1,70,0,0
17636,-100,4,2,1,60,0,0
17786,-100,4,2,1,70,0,0
17936,-100,4,2,1,50,0,0
18086,-100,4,2,1,70,0,0
20036,-100,4,2,1,60,0,0
20186,-100,4,2,1,70,0,0
20336,-100,4,2,1,50,0,0
20486,-100,4,2,1,70,0,0
22436,-100,4,2,1,60,0,0
22586,-100,4,2,1,70,0,0
22736,-100,4,2,1,50,0,0
22886,-100,4,2,1,70,0,0
24836,-100,4,2,1,60,0,0
24986,-100,4,2,1,70,0,0
25136,-100,4,2,1,50,0,0
25286,-100,4,2,1,70,0,0
27236,-100,4,2,1,60,0,0
27386,-100,4,2,1,70,0,0
27536,-100,4,2,1,50,0,0
27686,-100,4,2,1,70,0,0
28886,-100,4,2,0,70,0,0
30086,-100,4,3,3,70,0,0
30311,-100,4,3,3,20,0,0
30386,-100,4,3,3,70,0,0
30461,-100,4,3,3,20,0,0
30536,-100,4,3,3,70,0,0
30611,-100,4,3,3,20,0,0
30686,-100,4,3,3,70,0,0
31136,-100,4,2,1,70,0,0
31736,-100,4,2,1,60,0,0
31886,-100,4,2,1,70,0,0
32186,-100,4,2,1,60,0,0
32336,-100,4,2,1,70,0,0
33086,-100,4,2,1,40,0,0
33236,-100,4,2,1,70,0,0
34136,-100,4,2,1,60,0,0
34286,-100,4,2,1,70,0,0
34436,-100,4,2,1,60,0,0
34511,-100,4,2,1,20,0,0
34586,-100,4,2,1,70,0,0
34661,-100,4,2,1,20,0,0
34736,-100,4,2,1,70,0,0
36536,-100,4,2,1,60,0,0
36686,-100,4,2,1,70,0,0
36836,-100,4,2,1,50,0,0
36986,-100,4,2,1,70,0,0
38936,-100,4,2,1,60,0,0
39086,-100,4,2,1,70,0,0
39236,-100,4,2,1,50,0,0
39386,-100,4,2,1,70,0,0
39536,-100,4,2,1,50,0,0
39686,-100,4,2,1,80,0,0
40061,-100,4,2,1,5,0,0
40136,-100,4,2,1,80,0,0
40211,-100,4,2,1,5,0,0
40286,-100,4,2,1,80,0,0
40511,-100,4,2,1,5,0,0
40586,-100,4,2,1,80,0,0
40661,-100,4,2,1,5,0,0
40736,-100,4,2,1,70,0,0
43736,-100,4,2,1,60,0,0
43886,-100,4,2,1,70,0,0
44036,-100,4,2,1,50,0,0
44186,-100,4,2,1,70,0,0
44336,-100,4,2,1,70,0,0
44486,-100,4,2,1,70,0,0
46136,-100,4,2,1,60,0,0
46661,-100,4,2,1,20,0,0
46736,-100,4,2,1,60,0,0
46811,-100,4,2,1,20,0,0
46886,-100,4,2,1,70,0,0
48086,-100,4,3,0,70,0,0
49286,-100,4,2,3,70,0,0
49661,-100,4,2,3,70,0,0
49736,-100,4,2,3,70,0,0
49811,-100,4,2,3,70,0,0
49886,-100,4,2,3,70,0,0
49961,-100,4,2,3,70,0,0
50036,-100,4,2,3,70,0,0
50111,-100,4,2,3,70,0,0
50186,-100,4,2,3,70,0,0
50261,-100,4,2,3,20,0,0
50336,-100,4,2,3,70,0,0
50411,-100,4,2,3,20,0,0
50486,-100,4,2,1,80,0,0
55286,-100,4,2,1,70,0,0
60086,-100,4,2,1,80,0,0
64886,-100,4,2,1,70,0,0
67286,-100,4,3,0,70,0,0
68486,-100,4,3,3,80,0,0
69236,-100,4,3,3,70,0,0
69386,-100,4,2,1,60,0,0
69536,-100,4,3,3,50,0,0
69686,-100,4,2,1,70,0,0
76886,-100,4,3,0,70,0,0
78086,-100,4,2,3,60,0,0
78986,-100,4,2,3,60,0,0
79136,-100,4,2,3,60,0,0
79286,-100,4,2,2,50,0,0
82436,-100,4,2,2,50,0,0
82586,-100,4,2,2,50,0,0
85436,-100,4,2,2,20,0,0
85511,-100,4,2,2,60,0,0
85661,-100,4,2,2,20,0,0
85736,-100,4,2,2,60,0,0
89036,-100,4,2,2,20,0,0
89186,-100,4,2,2,60,0,0
93086,-100,4,2,2,20,0,0
93236,-100,4,2,2,60,0,0
94436,-100,4,2,2,20,0,0
94586,-100,4,2,2,60,0,0
94661,-100,4,2,2,20,0,0
94736,-100,4,2,2,60,0,0
94811,-100,4,2,2,20,0,0
94886,-100,4,2,2,60,0,0
95636,-100,4,2,2,20,0,0
95786,-100,4,2,2,60,0,0
97286,-100,4,2,3,70,0,0
97736,-100,4,2,3,70,0,0
97886,-100,4,2,3,70,0,0
98186,-100,4,2,3,70,0,0
98336,-100,4,2,3,70,0,0
98486,-100,4,2,1,70,0,0
99011,-100,4,2,1,20,0,0
99086,-100,4,2,1,70,0,0
101411,-100,4,2,1,20,0,0
101486,-100,4,2,1,70,0,0
101711,-100,4,2,1,20,0,0
101786,-100,4,2,1,70,0,0
104111,-100,4,2,1,20,0,0
104186,-100,4,2,1,70,0,0
105311,-100,4,2,1,20,0,0
105386,-100,4,2,1,70,0,0
108836,-100,4,2,1,60,0,0
108986,-100,4,2,1,70,0,0
109136,-100,4,2,1,50,0,0
109286,-100,4,2,1,70,0,0
111161,-100,4,2,1,20,0,0
111236,-100,4,2,1,60,0,0
111311,-100,4,2,1,20,0,0
111386,-100,4,2,1,70,0,0
111536,-100,4,2,1,50,0,0
111686,-100,4,2,1,70,0,0
115286,-100,4,3,0,70,0,0
116486,-100,4,3,3,70,0,0
116861,-100,4,3,3,20,0,0
116936,-100,4,3,3,70,0,0
117011,-100,4,3,3,20,0,0
117086,-100,4,3,3,70,0,0
117161,-100,4,3,3,20,0,0
117236,-100,4,3,3,70,0,0
117311,-100,4,3,3,20,0,0
117386,-100,4,3,3,70,0,0
117686,-100,4,2,1,80,0,0
122486,-100,4,2,1,70,0,0
127286,-100,4,2,1,80,0,0
128711,-100,4,2,1,20,0,0
128786,-100,4,2,1,80,0,0
129161,-100,4,2,1,80,0,0
129236,-100,4,2,1,80,0,0
129311,-100,4,2,1,80,0,0
129386,-100,4,2,1,80,0,0
129461,-100,4,2,1,80,0,0
129536,-100,4,2,1,80,0,0
129611,-100,4,2,1,80,0,0
129686,-100,4,2,1,80,0,0
132086,-100,4,2,1,70,0,0
134486,-100,4,3,0,70,0,0
135686,-100,4,2,3,80,0,0
136586,-100,4,2,3,80,0,0
136661,-100,4,2,3,80,0,0
136811,-100,4,2,3,80,0,0
136886,-100,4,2,1,80,0,0
138311,-100,4,2,1,20,0,0
138386,-100,4,2,1,80,0,0
141311,-100,4,2,1,20,0,0
141386,-100,4,2,1,80,0,0
141686,-100,4,2,1,70,0,0
145061,-100,4,2,1,20,0,0
145136,-100,4,2,1,70,0,0
145211,-100,4,2,1,20,0,0
145286,-100,4,2,1,70,0,0
146486,-100,4,2,1,80,0,0
151286,-100,4,2,1,70,0,0
153686,-100,4,3,0,70,0,0
154886,-100,4,3,3,80,0,0
155786,-100,4,3,3,80,0,0
155936,-100,4,3,3,80,0,0
156086,-100,4,2,2,60,0,0
156236,-100,4,2,2,20,0,0
156386,-100,4,2,2,60,0,0
156836,-100,4,2,2,20,0,0
156986,-100,4,2,2,60,0,0
159311,-100,4,2,1,20,0,0
159386,-100,4,2,2,60,0,0
160286,-100,4,2,2,20,0,0
160436,-100,4,2,2,60,0,0
163211,-100,4,2,2,20,0,0
163286,-100,4,2,2,60,0,0
164111,-100,4,2,2,60,0,0
164186,-100,4,2,2,60,0,0
165086,-100,4,2,1,60,0,0
165161,-100,4,2,1,20,0,0
165236,-100,4,2,1,60,0,0
165311,-100,4,2,1,20,0,0
165386,-100,4,2,1,60,0,0
165686,-100,4,2,1,60,0,0
166436,-100,4,2,1,50,0,0
166586,-100,4,2,1,60,0,0
166736,-100,4,2,1,40,0,0
166886,-100,4,2,1,60,0,0
167336,-100,4,2,1,60,0,0
168236,-100,4,2,1,20,0,0
168386,-100,4,2,1,60,0,0
168836,-100,4,2,1,50,0,0
168986,-100,4,2,1,60,0,0
169136,-100,4,2,1,40,0,0
169286,-100,4,2,1,60,0,0
169736,-100,4,2,2,60,0,0
170036,-100,4,2,2,20,0,0
170186,-100,4,2,1,60,0,0
171236,-100,4,2,1,50,0,0
171386,-100,4,2,1,60,0,0
171536,-100,4,2,1,40,0,0
171686,-100,4,2,1,60,0,0
172886,-100,4,3,0,60,0,0
174086,-100,4,3,3,70,0,0
174536,-100,4,3,3,70,0,0
174611,-100,4,3,3,20,0,0
174686,-100,4,3,3,70,0,0
174761,-100,4,3,3,20,0,0
174836,-100,4,3,3,70,0,0
174911,-100,4,3,3,20,0,0
174986,-100,4,2,1,70,0,0
175061,-100,4,3,3,20,0,0
175136,-100,4,3,3,70,0,0
175211,-100,4,3,3,20,0,0
175286,-100,4,2,1,70,0,0
176336,-100,4,2,1,20,0,0
176486,-100,4,2,1,80,0,0
181286,-100,4,2,1,70,0,0
182261,-100,4,2,1,20,0,0
182336,-100,4,2,1,70,0,0
182411,-100,4,2,1,20,0,0
182486,-100,4,2,1,70,0,0
184661,-100,4,2,1,20,0,0
184736,-100,4,2,1,70,0,0
184811,-100,4,2,1,20,0,0
184886,-100,4,2,1,70,0,0
185861,-100,4,2,1,20,0,0
185936,-100,4,2,1,70,0,0
186011,-100,4,2,1,20,0,0
186086,-100,4,2,1,80,0,0
187511,-100,4,2,1,20,0,0
187586,-100,4,2,1,80,0,0
190511,-100,4,2,1,20,0,0
190586,-100,4,2,1,80,0,0
190661,-100,4,2,1,80,0,0
190736,-100,4,2,1,80,0,0
190811,-100,4,2,1,80,0,0
190886,-100,4,2,1,70,0,0
191861,-100,4,2,1,20,0,0
191936,-100,4,2,1,70,0,0
192011,-100,4,2,1,20,0,0
192086,-100,4,2,1,70,0,0
193286,-100,4,3,0,70,0,0
194486,-100,4,3,3,80,0,0
194711,-100,4,3,3,20,0,0
194786,-100,4,3,3,80,0,0
194861,-100,4,3,3,20,0,0
194936,-100,4,3,3,80,0,0
195011,-100,4,3,3,20,0,0
195086,-100,4,3,3,80,0,0
195161,-100,4,3,3,20,0,0
195236,-100,4,3,3,80,0,0
195311,-100,4,3,3,20,0,0
195386,-100,4,2,1,80,0,0
195461,-100,4,3,3,20,0,0
195536,-100,4,3,3,80,0,0
195611,-100,4,3,3,20,0,0
195686,-100,4,2,1,80,0,1
197111,-100,4,2,1,20,0,1
197186,-100,4,2,1,80,0,1
201461,-100,4,2,1,20,0,1
201536,-100,4,2,1,80,0,1
201611,-100,4,2,1,20,0,1
201686,-100,4,2,1,80,0,1
204461,-100,4,2,1,20,0,1
204536,-100,4,2,1,80,0,1
205061,-100,4,2,1,20,0,1
205136,-100,4,2,1,80,0,1
205211,-100,4,2,1,20,0,1
205286,-100,4,2,1,80,0,1
206711,-100,4,2,1,20,0,1
206786,-100,4,2,1,80,0,1
209186,-100,4,2,1,70,0,1
209336,-100,4,2,1,80,0,1
209486,-100,4,2,1,60,0,1
209636,-100,4,2,1,80,0,1
209786,-100,4,2,1,50,0,1
209861,-100,4,2,1,20,0,1
209936,-100,4,2,1,80,0,1
210011,-100,4,2,1,20,0,1
210086,-100,4,2,1,80,0,1
212486,-100,4,3,0,80,0,1
213686,-100,4,3,3,80,0,1
214586,-100,4,2,1,80,0,1
214736,-100,4,3,3,80,0,1
214886,-100,4,2,1,70,0,0
218486,-100,4,2,1,60,0,0
218561,-100,4,2,1,70,0,0
223286,-100,4,2,1,60,0,0
223361,-100,4,2,1,80,0,0
224261,-100,4,2,1,20,0,0
224336,-100,4,2,1,80,0,0
224411,-100,4,2,1,20,0,0
224486,-100,4,2,1,70,0,0
225461,-100,4,2,1,20,0,0
225536,-100,4,2,1,70,0,0
225611,-100,4,2,1,20,0,0
225686,-100,4,2,1,70,0,0
226811,-100,4,2,1,20,0,0
226886,-100,4,2,1,70,0,0
228011,-100,4,2,1,20,0,0
228086,-100,4,2,1,60,0,0
228161,-100,4,2,1,20,0,0
228236,-100,4,2,1,70,0,0
229286,-100,4,2,1,80,0,0
230036,-100,4,2,1,60,0,0
230486,-100,4,2,1,85,0,0
231236,-100,4,2,1,65,0,0
231686,-100,4,3,0,80,0,0
232886,-100,4,3,3,90,0,0
233786,-100,4,2,1,90,0,0
233936,-100,4,3,3,90,0,0
234086,-100,4,2,1,100,0,0

[Colours]
Combo1 : 0,234,234
Combo2 : 55,155,255
Combo3 : 175,190,228
Combo4 : 220,52,111

[HitObjects]
77,124,2486,6,0,P|110:159|182:161,2,120,2|2|0,0:0|0:0|0:0,0:0:0:0:
148,88,3686,2,0,P|209:89|252:133,2,120,2|2|0,0:0|0:0|0:0,0:0:0:0:
178,162,4886,2,0,L|185:288,2,120,2|2|0,0:0|0:0|0:0,0:0:0:0:
100,142,6086,2,0,L|95:12,2,120,2|2|0,0:0|0:0|0:0,0:0:0:0:
103,222,7286,6,0,P|134:245|221:244,1,120,2|0,0:0|0:0,0:0:0:0:
264,138,8186,1,8,0:0:0:0:
335,101,8486,2,0,P|397:94|454:133,1,120,2|2,0:0|0:0,0:0:0:0:
480,236,9386,1,2,0:0:0:0:
419,288,9686,6,0,B|384:313|384:313|303:297,2,120,2|2|2,0:3|0:3|0:3,0:0:0:0:
402,209,10886,2,0,P|362:178|252:198,1,160,2|2,0:0|0:0,0:0:0:0:
208,253,11786,1,10,0:0:0:0:
131,229,12086,6,0,B|96:186|96:186|96:65,1,160,4|0,0:0|0:0,0:0:0:0:
245,24,13286,2,0,B|280:67|280:67|280:188,1,160,2|0,0:0|0:0,0:0:0:0:
325,237,14186,1,8,0:0:0:0:
385,185,14486,6,0,P|428:215|427:316,1,160,4|0,0:3|0:0,0:0:0:0:
268,329,15686,2,0,P|241:347|111:321,1,160,6|0,0:3|0:0,0:0:0:0:
147,255,16586,1,10,0:2:0:0:
72,225,16886,6,0,L|52:55,1,160,6|0,0:3|0:0,0:0:0:0:
120,22,17786,1,8,0:0:0:0:
176,76,18086,2,0,B|256:92|256:92|333:80,1,160,4|0,0:3|0:0,0:0:0:0:
392,22,18986,1,8,0:0:0:0:
458,66,19286,6,0,L|440:225,1,160,4|0,0:3|0:0,0:0:0:0:
422,303,20186,1,8,0:0:0:0:
348,272,20486,2,4,P|272:264|232:296,2,120,4|4|8,0:3|0:3|0:0,0:3:0:0:
304,340,21686,6,0,L|168:348,1,120,4|2,0:3|0:0,0:0:0:0:
100,260,22586,1,8,0:0:0:0:
88,180,22886,2,0,B|80:128|80:128|104:44,2,120,6|6|8,0:3|0:3|0:0,0:0:0:0:
164,208,24086,6,0,P|224:240|304:212,1,120,4|2,0:3|0:0,0:0:0:0:
352,140,24986,1,8,0:0:0:0:
404,200,25286,2,0,B|424:244|424:244|416:336,2,120,4|6|8,0:3|0:3|0:0,0:0:0:0:
328,220,26486,6,0,P|244:236|168:192,1,160,4|0,0:3|0:0,0:0:0:0:
120,148,27386,1,8,0:0:0:0:
132,68,27686,2,0,B|204:48|204:48|292:60|292:60|384:44,1,240,6|10,0:3|0:0,0:0:0:0:
428,96,28886,6,0,L|444:216,2,120,2|2|6,0:3|0:3|0:3,0:0:0:0:
352,120,30086,2,0,L|260:136,1,80,2|2,0:0|0:0,0:0:0:0:
276,212,30686,2,0,L|184:228,1,80,2|4,0:0|0:3,0:0:0:0:
168,300,31286,6,0,P|132:272|159:156,1,160,4|0,0:0|0:0,0:0:0:0:
304,140,32486,2,0,P|340:168|316:280,1,160,0|0,0:0|0:0,0:0:0:0:
280,336,33386,1,10,0:0:0:0:
212,292,33686,6,0,B|160:272|160:272|76:280,2,120,4|6|8,0:3|0:3|0:0,0:0:0:0:
280,336,34886,2,0,B|328:352|328:352|452:328,1,160,4|0,0:3|0:0,0:0:0:0:
480,264,35786,1,10,0:0:0:0:
427,203,36086,6,0,P|403:123|431:47,1,160,4|0,0:3|0:0,0:0:0:0:
268,48,37286,2,0,P|292:128|264:204,1,160,6|0,0:3|0:0,0:0:0:0:
204,248,38186,1,8,0:0:0:0:
126,228,38486,6,0,B|68:197|68:197|33:131,2,120,4|6|8,0:3|0:3|0:0,0:0:0:0:
175,290,39686,2,0,P|210:321|259:328,1,80,0|0,0:0|0:0,0:0:0:0:
320,318,40286,2,0,P|364:303|394:264,1,80,0|8,0:0|0:0,0:0:0:0:
421,207,40886,6,0,L|425:46,1,160,4|0,0:3|0:3,0:0:0:0:
286,126,42086,2,0,L|282:287,1,160,4|0,0:3|0:0,0:0:0:0:
221,338,42986,1,8,0:0:0:0:
163,281,43286,6,0,P|104:270|32:310,2,120,4|6|8,0:3|0:3|0:0,0:0:0:0:
234,245,44486,2,0,L|318:238,1,80,2|0,0:3|0:0,0:0:0:0:
302,159,45086,2,0,L|222:165,1,80,0|10,0:0|0:0,0:0:0:0:
142,165,45686,6,0,P|118:109|153:16,1,160,6|0,0:3|0:0,0:0:0:0:
277,114,46886,2,0,P|308:185|284:259,1,160,4|0,0:3|0:0,0:0:0:0:
232,320,47786,1,10,0:0:0:0:
161,282,48086,6,0,B|106:262|106:262|13:273,2,120,2|2|2,0:3|0:3|0:3,0:0:0:0:
232,320,49286,2,0,B|303:357|348:308|348:308|426:314|444:230,1,240,2|2,0:0|0:0,0:0:0:0:
361,228,50486,6,0,B|322:178|322:178|341:88,2,120,6|2|4,0:1|0:1|0:3,0:0:0:0:
440,236,51686,2,0,B|479:186|479:186|460:96,2,120,2|2|8,0:1|0:1|0:0,0:0:0:0:
379,287,52886,6,0,L|232:265,1,120,2|2,0:1|0:1,0:0:0:0:
167,195,53786,1,4,0:3:0:0:
101,241,54086,2,0,L|89:392,2,120,2|2|8,0:1|0:1|0:0,0:0:0:0:
43,185,55286,5,2,0:1:0:0:
82,30,55886,1,0,0:0:0:0:
234,86,56486,2,0,P|296:99|364:59,2,120,2|2|8,0:1|0:1|0:0,0:0:0:0:
175,141,57686,6,0,B|179:207|179:207|170:240|170:240|176:311,1,160,2|0,0:1|0:0,0:0:0:0:
323,354,58886,2,0,P|377:330|395:224,1,160,2|0,0:1|0:0,0:0:0:0:
347,179,59786,1,10,0:0:0:0:
380,106,60086,6,0,B|420:77|420:77|511:76,2,120,6|2|4,0:1|0:1|0:3,0:0:0:0:
319,158,61286,2,0,B|279:187|279:187|188:188,2,120,2|2|8,0:1|0:1|0:0,0:0:0:0:
324,78,62486,6,0,P|285:45|191:54,1,120,2|2,0:1|0:1,0:0:0:0:
133,126,63386,1,4,0:3:0:0:
136,205,63686,2,0,P|106:289|78:318,2,120,2|2|8,0:1|0:1|0:0,0:0:0:0:
213,222,64886,5,2,0:1:0:0:
345,132,65486,1,0,0:0:0:0:
440,262,66086,2,0,L|437:359,1,80,2|0,0:1|0:0,0:0:0:0:
357,338,66686,2,0,L|360:241,1,80,0|8,0:0|0:0,0:0:0:0:
314,191,67286,6,0,P|256:161|186:190,2,120,2|2|2,0:3|0:3|0:3,0:0:0:0:
251,240,68486,2,0,L|248:328,1,80,2|6,0:0|0:0,0:0:0:0:
183,367,69086,1,6,0:0:0:0:
103,355,69386,1,8,0:0:0:0:
53,292,69686,5,4,0:0:0:0:
140,155,76886,6,0,P|128:102|157:11,2,120,2|2|0,0:3|0:3|0:0,0:0:0:0:
216,186,78086,2,0,B|259:203|259:203|325:194,1,80,2|2,0:0|0:0,0:0:0:0:
348,141,78686,2,0,B|381:136|381:136|424:153,1,80,2|6,0:0|0:3,0:0:0:0:
474,216,79286,6,0,L|455:357,1,120,4|2,0:0|0:0,0:0:0:0:
338,343,80186,1,8,0:0:0:0:
333,260,80486,2,0,L|324:132,1,120,2|2,0:0|0:0,0:0:0:0:
204,135,81386,1,0,0:0:0:0:
195,220,81686,6,0,L|187:340,1,120,2|2,0:0|0:0,0:0:0:0:
67,342,82586,1,8,0:0:0:0:
59,262,82886,2,0,L|43:144,2,120,2|10|10,0:0|0:0|0:0,0:0:0:0:
109,324,84086,6,0,P|178:323|235:277,1,120,2|2,0:0|0:0,0:0:0:0:
257,182,84986,1,0,0:0:0:0:
328,217,85286,2,0,P|381:170|395:99,1,120,2|2,0:0|0:0,0:0:0:0:
317,34,86186,1,0,0:0:0:0:
265,95,86486,6,0,P|206:134|128:115,2,120,2|2|8,0:0|0:0|0:0,0:0:0:0:
344,107,87686,2,0,P|403:146|481:127,2,120,2|10|8,0:0|0:0|0:0,0:0:0:0:
291,167,88886,6,0,L|274:277,1,80,2|0,0:0|0:0,0:0:0:0:
226,306,89486,2,0,L|141:293,1,80,0|8,0:0|0:0,0:0:0:0:
112,221,90086,2,0,P|53:203|-10:243,2,120,2|2|8,0:0|0:0|0:0,0:0:0:0:
171,167,91286,6,0,L|186:83,1,80,2|0,0:0|0:0,0:0:0:0:
244,34,91886,2,0,P|282:58|331:67,1,80,0|8,0:0|0:0,0:0:0:0:
395,56,92486,2,0,P|423:106|390:185,2,120,2|10|8,0:0|0:0|0:0,0:0:0:0:
344,118,93686,6,0,L|259:125,1,80,2|0,0:0|0:0,0:0:0:0:
214,187,94286,1,0,0:0:0:0:
136,168,94586,1,8,0:0:0:0:
66,207,94886,2,0,L|72:351,2,120,2|2|8,0:0|0:0|0:0,0:0:0:0:
63,126,96086,6,0,P|101:88|192:86,1,120,2|2,3:3|3:3,0:0:0:0:
281,103,96986,1,8,3:2:0:0:
338,43,97286,2,0,L|437:26,1,80,2|2,0:0|0:0,0:0:0:0:
434,107,97886,2,0,L|335:124,1,80,2|6,0:0|0:3,0:0:0:0:
302,181,98486,6,0,L|310:274,2,80,4|2|0,0:0|0:0|0:0,0:0:0:0:
226,154,99386,1,6,0:3:0:0:
160,199,99686,2,0,P|102:228|23:210,2,120,6|6|10,0:3|0:3|0:0,0:0:0:0:
150,119,100886,6,0,L|140:30,1,80,0|2,0:0|0:0,0:0:0:0:
220,32,101486,2,0,L|230:121,1,80,0|6,0:0|0:3,0:0:0:0:
262,183,102086,2,0,B|313:221|313:221|388:226,2,120,6|6|8,0:3|0:3|0:0,0:0:0:0:
298,111,103286,6,0,P|346:76|395:84,1,80,4|2,0:3|0:0,0:0:0:0:
426,126,103886,2,0,L|435:229,1,80,2|4,0:0|0:3,0:0:0:0:
364,247,104486,2,0,P|316:282|267:274,1,80,4|2,0:3|0:0,0:0:0:0:
236,232,105086,2,0,L|227:129,1,80,2|8,0:0|0:0,0:0:0:0:
185,84,105686,6,0,P|137:55|84:71,2,80,4|2|0,0:3|0:3|0:0,0:0:0:0:
240,141,106586,1,6,0:3:0:0:
180,194,106886,2,0,L|175:335,1,120,6|6,0:3|0:3,0:0:0:0:
56,331,107786,1,2,0:0:0:0:
26,256,108086,6,0,B|2:209|2:209|13:135,2,120,0|2|8,0:0|0:0|0:0,0:0:0:0:
97,219,109286,2,0,L|193:215,1,80,0|0,0:0|0:0,0:0:0:0:
194,137,109886,2,0,L|273:133,1,80,0|2,0:0|0:0,0:0:0:0:
335,82,110486,6,0,P|380:42|445:43,2,120,6|2|8,0:3|0:3|0:0,0:0:0:0:
381,146,111686,2,0,P|394:200|383:243,1,80,4|0,0:3|0:0,0:0:0:0:
340,286,112286,2,0,L|248:295,1,80,0|10,0:0|0:0,0:0:0:0:
190,255,112886,6,0,P|131:264|72:339,2,160,0|0|2,0:0|0:0|0:0,0:0:0:0:
254,207,114386,1,0,0:0:0:0:
196,150,114686,2,0,L|190:57,1,80,0|10,0:0|0:0,0:0:0:0:
260,30,115286,6,0,P|317:12|393:20,2,120,2|2|2,3:0|3:0|3:0,0:0:0:0:
182,52,116486,2,0,L|161:142,1,80,2|2,0:0|0:0,0:0:0:0:
232,172,117086,2,0,L|253:265,1,80,2|2,0:0|0:0,0:0:0:0:
255,330,117686,6,0,P|204:366|118:363,2,120,6|2|4,0:1|0:1|0:3,0:0:0:0:
256,249,118886,2,0,P|307:213|393:216,2,120,2|2|8,0:1|0:1|0:0,0:0:0:0:
193,198,120086,6,0,L|62:211,1,120,2|2,0:1|0:1,0:0:0:0:
6,110,120986,1,4,0:3:0:0:
71,64,121286,2,0,P|110:48|157:51,1,80,2|2,0:1|0:0,0:0:0:0:
213,93,121886,2,0,P|252:93|289:77,1,80,0|8,0:0|0:0,0:0:0:0:
354,30,122486,6,0,P|408:29|473:90,2,120,2|2|4,0:1|0:1|0:3,0:0:0:0:
289,76,123686,1,2,0:1:0:0:
382,205,124286,2,0,L|377:295,1,80,0|8,0:0|0:0,0:0:0:0:
316,335,124886,6,0,P|259:364|197:360,2,120,2|2|6,0:1|0:1|0:3,0:0:0:0:
363,270,126086,1,2,0:1:0:0:
349,191,126386,1,2,0:0:0:0:
282,146,126686,2,0,L|192:165,1,80,0|8,0:0|0:0,0:0:0:0:
148,220,127286,6,0,P|104:236|22:213,2,120,6|2|4,0:1|0:1|0:3,0:0:0:0:
214,264,128486,2,0,P|258:280|340:257,2,120,2|2|8,0:1|0:1|0:0,0:0:0:0:
202,184,129686,6,0,L|202:62,1,120,2|2,0:1|0:1,0:0:0:0:
314,23,130586,1,6,0:3:0:0:
388,52,130886,2,0,P|408:96|399:150,1,80,2|2,0:1|0:0,0:0:0:0:
346,179,131486,1,2,0:0:0:0:
315,252,131786,1,2,0:0:0:0:
344,326,132086,6,0,P|395:365|458:364,2,120,2|2|4,0:1|0:1|0:3,0:0:0:0:
315,252,133286,1,2,0:1:0:0:
179,337,133886,2,0,L|85:339,1,80,0|10,0:0|0:0,0:0:0:0:
34,291,134486,6,0,P|20:228|34:159,2,120,2|2|0,0:3|3:0|0:0,0:0:0:0:
105,326,135686,2,0,B|185:308|191:245|191:245|266:221|255:140,1,240,2|6,0:0|0:3,0:0:0:0:
256,83,136886,6,0,P|306:50|382:57,1,120,6|2,0:1|0:1,0:0:0:0:
435,147,137786,1,6,0:3:0:0:
396,217,138086,2,0,P|335:253|277:239,1,120,2|2,0:1|0:1,0:0:0:0:
194,170,138986,1,0,0:0:0:0:
129,217,139286,6,0,L|143:358,2,120,2|2|0,0:1|0:1|0:3,0:0:0:0:
56,182,140486,2,0,P|36:130|50:101,1,80,2|0,0:1|0:1,0:0:0:0:
86,42,141086,2,0,L|179:43,1,80,0|8,0:1|0:0,0:0:0:0:
228,92,141686,5,2,0:1:0:0:
372,22,142286,1,0,0:0:0:0:
439,167,142886,2,0,P|444:235|412:296,1,120,2|2,0:1|0:1,0:0:0:0:
324,348,143786,1,8,0:0:0:0:
251,311,144086,6,0,L|160:309,1,80,2|0,0:1|0:0,0:0:0:0:
132,239,144686,2,0,L|33:230,1,80,0|0,0:0|0:0,0:0:0:0:
16,159,145286,2,0,P|31:109|102:81,2,120,2|2|12,0:1|0:1|0:0,0:0:0:0:
73,215,146486,6,0,L|89:345,1,120,6|2,0:1|0:1,0:0:0:0:
203,366,147386,1,4,0:3:0:0:
272,326,147686,2,0,B|292:273|292:273|283:201,1,120,2|2,0:1|0:1,0:0:0:0:
205,119,148586,1,8,0:0:0:0:
133,155,148886,6,0,B|114:207|114:207|143:294,1,120,2|2,0:1|0:1,0:0:0:0:
246,312,149786,1,4,0:3:0:0:
296,250,150086,2,0,L|394:242,2,80,2|0|0,0:1|0:0|0:0,0:0:0:0:
230,203,150986,1,8,0:0:0:0:
232,123,151286,5,2,0:1:0:0:
359,26,151886,1,0,0:0:0:0:
471,140,152486,2,0,L|472:238,1,80,2|0,0:1|0:0,0:0:0:0:
394,241,153086,2,0,L|395:155,1,80,0|10,0:0|0:0,0:0:0:0:
332,111,153686,6,0,P|274:96|211:124,2,120,2|2|0,0:3|0:3|0:0,0:0:0:0:
395,159,154886,1,2,0:0:0:0:
394,241,155186,1,6,0:0:0:0:
340,300,155486,2,0,P|301:325|249:334,1,80,6|6,0:0|0:0,0:0:0:0:
195,301,156086,6,0,B|124:286|124:286|62:317,2,120,2|2|8,0:0|0:0|0:0,0:0:0:0:
265,262,157286,2,0,B|336:277|336:277|378:255,1,120,2|2,0:0|0:0,0:0:0:0:
423,144,158186,1,8,0:0:0:0:
481,198,158486,6,0,B|504:248|504:248|497:336,2,120,2|2|8,0:0|0:0|0:0,0:0:0:0:
423,144,159686,2,0,B|400:94|400:94|407:6,1,120,2|10,0:0|0:0,0:0:0:0:
285,19,160586,1,8,0:0:0:0:
213,55,160886,6,0,L|220:191,2,120,2|2|8,0:0|0:0|0:0,0:0:0:0:
133,58,162086,2,0,L|140:194,1,120,2|2,0:0|0:0,0:0:0:0:
151,297,162986,1,0,0:0:0:0:
207,353,163286,6,0,L|312:350,1,80,2|0,0:0|0:0,0:0:0:0:
305,272,163886,2,0,L|200:275,1,80,0|10,0:0|0:0,0:0:0:0:
175,210,164486,1,2,0:0:0:0:
213,139,164786,1,2,0:0:0:0:
172,70,165086,2,0,L|71:67,1,80,10|10,0:0|0:0,0:0:0:0:
30,118,165686,6,0,P|6:197|37:298,1,160,4|0,0:0|0:0,0:0:0:0:
71,334,166586,1,8,0:0:0:0:
143,299,166886,2,0,L|288:295,1,120
311,185,167786,1,0,0:0:0:0:
249,133,168086,6,0,P|276:72|369:49,1,160,0|0,0:0|0:0,0:0:0:0:
437,69,168986,1,8,0:0:0:0:
473,140,169286,2,0,B|447:198|447:198|455:272,1,120
334,269,170186,1,0,0:0:0:0:
286,205,170486,6,0,L|189:215,2,80,0|0|0,0:0|0:0|0:0,0:0:0:0:
325,134,171386,1,8,0:0:0:0:
286,63,171686,2,0,P|232:58|200:77,1,80,0|0,0:0|0:0,0:0:0:0:
176,141,172286,2,0,P|129:136|96:109,1,80,0|8,0:0|0:0,0:0:0:0:
26,142,172886,6,0,B|16:202|16:202|37:247|37:247|34:306,2,160,2|0|2,0:3|0:0|0:0,0:0:0:0:
73,77,174386,1,6,0:0:0:0:
149,53,174686,1,6,0:0:0:0:
217,93,174986,1,10,0:0:0:0:
254,163,175286,2,0,P|295:196|400:179,1,160,0|0,0:0|0:0,0:0:0:0:
304,50,176486,6,0,B|243:27|243:27|153:50,2,120,6|2|4,0:1|0:1|0:3,0:0:0:0:
369,96,177686,2,0,B|430:73|430:73|520:96,2,120,2|2|8,0:1|0:1|0:0,0:0:0:0:
317,157,178886,6,0,L|330:285,1,120,2|2,0:1|0:1,0:0:0:0:
239,355,179786,1,4,0:3:0:0:
164,326,180086,2,0,P|119:293|103:255,1,80,2|2,0:1|0:0,0:0:0:0:
88,194,180686,2,0,P|90:145|115:105,1,80,2|8,0:0|0:0,0:0:0:0:
161,63,181286,5,2,0:1:0:0:
280,169,181886,1,0,0:0:0:0:
405,69,182486,2,0,L|410:195,2,120,2|2|8,0:1|0:1|0:0,0:0:0:0:
337,26,183686,6,0,P|288:19|249:39,1,80,2|0,0:1|0:0,0:0:0:0:
228,103,184286,2,0,P|277:110|316:90,1,80,0|6,0:0|0:3,0:0:0:0:
384,107,184886,1,2,0:1:0:0:
430,172,185186,1,2,0:0:0:0:
430,255,185486,2,0,P|399:296|368:306,1,80,0|8,0:0|0:0,0:0:0:0:
293,299,186086,6,0,L|157:284,2,120,6|2|4,0:1|0:1|0:3,0:0:0:0:
300,219,187286,2,0,L|436:204,2,120,2|2|8,0:1|0:1|0:0,0:0:0:0:
225,189,188486,6,0,P|184:145|171:69,1,120,2|2,0:1|0:1,0:0:0:0:
270,23,189386,1,4,0:3:0:0:
325,80,189686,2,0,L|327:180,1,80,2|2,0:1|0:0,0:0:0:0:
274,220,190286,2,0,P|252:270|268:327,1,80,2|8,0:0|0:0,0:0:0:0:
256,374,190886,5,2,0:1:0:0:
104,321,191486,1,0,0:0:0:0:
144,166,192086,2,0,P|126:90|62:64,2,120,2|2|8,0:1|0:1|0:0,0:0:0:0:
158,244,193286,6,0,L|266:242,1,80,2|2,0:3|0:3,0:0:0:0:
279,173,193886,2,0,L|387:171,1,80,0|4,0:0|0:3,0:0:0:0:
439,168,194486,2,0,P|459:133|431:13,1,160,2|2,0:3|0:0,0:0:0:0:
278,24,195686,6,0,P|258:59|286:179,1,160,6|0,0:1|0:0,0:0:0:0:
340,222,196586,1,4,0:3:0:0:
280,275,196886,2,0,L|192:264,1,80,2|2,0:1|0:0,0:0:0:0:
146,323,197486,2,0,L|54:314,1,80,0|8,0:0|0:0,0:0:0:0:
22,247,198086,6,0,P|5:164|31:100,2,120,2|2|4,0:1|0:1|0:3,0:0:0:0:
97,272,199286,2,0,P|153:208|162:140,2,120,2|2|10,0:1|0:1|0:0,0:0:0:0:
116,349,200486,6,0,P|151:375|218:377,1,80,2|2,0:1|0:0,0:0:0:0:
247,330,201086,2,0,P|306:327|340:306,1,80,0|6,0:0|0:3,0:0:0:0:
369,248,201686,2,0,L|368:111,2,120,2|2|8,0:1|0:1|0:0,0:0:0:0:
291,228,202886,6,0,P|234:205|200:214,1,80,2|2,0:1|0:0,0:0:0:0:
155,258,203486,1,0,0:0:0:0:
75,259,203786,1,4,0:3:0:0:
28,194,204086,2,0,B|6:115|6:115|42:22,1,160,2|0,0:1|0:0,0:0:0:0:
191,73,205286,6,0,B|192:150|192:150|144:217,1,160,6|0,0:1|0:0,0:0:0:0:
96,281,206186,1,4,0:3:0:0:
150,339,206486,2,0,P|183:365|245:366,1,80,2|2,0:1|0:0,0:0:0:0:
275,314,207086,2,0,P|324:290|372:302,1,80,0|8,0:0|0:0,0:0:0:0:
418,329,207686,6,0,B|438:273|438:273|425:160,1,160,2|0,0:1|0:0,0:0:0:0:
401,97,208586,1,0,0:0:0:0:
339,46,208886,2,0,P|289:31|246:39,1,80,2|2,0:1|0:0,0:0:0:0:
214,98,209486,2,0,P|159:102|125:87,1,80,0|8,0:0|0:1,0:0:0:0:
64,57,210086,5,2,0:1:0:0:
14,209,210686,1,0,0:0:0:0:
131,317,211286,2,0,L|230:306,1,80,2|2,0:1|0:0,0:0:0:0:
225,229,211886,2,0,L|128:240,1,80,0|8,0:0|0:0,0:0:0:0:
93,176,212486,6,0,P|98:118|160:69,2,120,2|2|2,0:3|0:3|0:2,0:0:0:0:
145,238,213686,2,0,L|225:229,1,80,2|6,0:0|0:0,0:0:0:0:
283,284,214286,2,0,L|391:306,1,80,6|10,0:0|0:0,0:0:0:0:
436,272,214886,6,2,B|470:237|470:237|471:131,2,120,6|2|0,0:0|0:0|0:0,0:1:0:0:
356,272,216086,2,2,B|322:237|322:237|321:131,2,120,2|2|10,0:0|0:0|0:0,0:1:0:0:
403,207,217286,6,2,L|402:84,1,120,2|2,0:0|0:0,0:1:0:0:
292,36,218186,1,0,0:0:0:0:
212,32,218486,2,0,P|144:46|120:65,1,80,2|2,0:1|0:0,0:0:0:0:
154,129,219086,2,0,P|222:115|246:96,1,80,0|8,0:0|0:0,0:0:0:0:
295,155,219686,6,2,B|340:196|340:196|338:289,2,120,2|2|4,0:0|0:0|0:3,0:1:0:0:
214,156,220886,2,2,B|169:197|169:197|171:290,2,120,2|2|10,0:0|0:0|0:0,0:1:0:0:
256,224,222086,6,2,L|256:353,1,120,2|2,0:0|0:0,0:1:0:0:
137,363,222986,1,4,0:3:0:0:
78,308,223286,2,0,P|56:261|64:216,1,80,2|0,0:1|0:0,0:0:0:0:
99,165,223886,2,0,P|113:111|103:81,1,80,2|10,0:1|0:0,0:0:0:0:
67,19,224486,6,2,P|119:57|203:38,1,120,2|2,0:0|0:0,0:1:0:0:
285,96,225386,1,6,0:3:0:0:
355,57,225686,2,2,P|304:18|222:45,1,120,2|2,0:0|0:0,0:1:0:0:
204,136,226586,1,8,0:0:0:0:
264,188,226886,6,2,L|403:179,1,120,2|2,0:0|0:0,0:1:0:0:
474,259,227786,1,2,0:0:0:0:
427,324,228086,2,0,B|390:333|390:333|317:319,1,80,2|2,0:1|0:0,0:0:0:0:
271,302,228686,2,0,B|229:294|229:294|192:303,1,80,0|8,0:0|0:0,0:0:0:0:
139,362,229286,6,2,P|148:302|115:238,1,120,2|2,0:0|0:1,0:1:0:0:
46,157,230186,1,4,0:3:0:0:
57,77,230486,6,2,L|215:65,1,120,2|2,0:0|0:1,0:1:0:0:
270,142,231386,1,8,0:0:0:0:
257,220,231686,6,0,B|230:274|289:309|239:370,2,120,2|2|0,0:3|0:3|0:0,0:0:0:0:
337,219,232886,2,0,P|324:177|295:149,1,80,2|6,0:0|0:0,0:0:0:0:
212,151,233486,2,0,P|185:180|175:219,1,80,2|6,0:0|0:0,0:0:0:0:
257,220,234086,5,4,0:0:0:0:
