osu file format v14

[General]
AudioFilename: No title.mp3
AudioLeadIn: 0
PreviewTime: 50310
Countdown: 1
SampleSet: Soft
StackLeniency: 0.7
Mode: 0
LetterboxInBreaks: 1
WidescreenStoryboard: 1

[Editor]
DistanceSpacing: 0.5
BeatDivisor: 4
GridSize: 16
TimelineZoom: 1

[Metadata]
Title:No title
TitleUnicode:No title
Artist:Reol
ArtistUnicode:Reol
Creator:Black Wolf159
Version:Normal
Source:
Tags:
BeatmapID:736633
BeatmapSetID:332756

[Difficulty]
HPDrainRate:3
CircleSize:3
OverallDifficulty:3
ApproachRate:4
SliderMultiplier:0.70000000596046
SliderTickRate:1

[Events]
//Background and Video events
0,0,"clouds-train_00424114 (1).jpg",0,0
//Break Periods
2,71329,77010
2,157729,165810
//Storyboard Layer 0 (Background)
//Storyboard Layer 1 (Fail)
//Storyboard Layer 2 (Pass)
//Storyboard Layer 3 (Foreground)
//Storyboard Sound Samples

[TimingPoints]
1531,299.99947368421,4,2,0,100,1,0
9599,-100,4,2,0,100,0,0
50699,-100,4,2,0,100,0,1
69599,-100,4,2,0,100,0,0
117599,-100,4,2,0,100,0,1
155999,-100,4,2,0,100,0,0
176399,-100,4,2,0,100,0,1
214274,-100,4,2,0,100,0,0

[HitObjects]
96,96,11130,5,0,0:0:0:0:
192,96,11430,1,0,0:0:0:0:
288,96,11730,1,0,0:0:0:0:
448,176,12330,1,0,0:0:0:0:
352,176,12630,1,0,0:0:0:0:
240,176,12930,1,0,0:0:0:0:
256,304,13530,6,0,L|384:304|400:304,1,140.000001192092
400,192,14730,1,0,0:0:0:0:
400,64,15330,1,0,0:0:0:0:
96,160,15930,5,0,0:0:0:0:
96,256,16230,1,0,0:0:0:0:
192,256,16530,1,0,0:0:0:0:
208,80,17130,1,0,0:0:0:0:
112,80,17430,1,0,0:0:0:0:
112,176,17730,1,0,0:0:0:0:
400,304,18330,6,0,L|400:160,1,140.000001192092
304,96,19530,1,0,0:0:0:0:
192,144,20130,1,0,0:0:0:0:
80,96,20730,2,0,L|80:240,1,140.000001192092
176,304,21930,5,0,0:0:0:0:
304,304,22530,1,0,0:0:0:0:
432,304,23130,2,0,L|432:224,1,70.000000596046
352,64,24330,5,0,0:0:0:0:
208,64,24930,1,0,0:0:0:0:
80,64,25530,2,0,L|80:144,1,70.000000596046
80,304,26730,5,0,0:0:0:0:
192,304,27330,1,0,0:0:0:0:
304,304,27930,1,0,0:0:0:0:
384,80,29130,5,0,0:0:0:0:
256,80,29430,2,0,L|112:80,1,140.000001192092
112,192,30330,1,0,0:0:0:0:
112,304,30630,5,0,0:0:0:0:
224,304,30930,1,0,0:0:0:0:
320,304,31230,1,0,0:0:0:0:
432,304,31530,2,0,L|432:160,1,140.000001192092
368,80,32730,5,0,0:0:0:0:
240,80,33330,1,0,0:0:0:0:
112,80,33930,2,0,L|112:224,1,140.000001192092
112,304,34830,5,0,0:0:0:0:
208,304,35130,2,0,L|352:304,1,140.000001192092
448,304,36030,1,0,0:0:0:0:
448,192,36330,2,0,L|448:48,1,140.000001192092
64,64,37530,6,0,L|64:208,1,140.000001192092
192,208,38430,1,0,0:0:0:0:
192,64,38730,2,0,L|336:64,1,140.000001192092
192,304,39630,5,0,0:0:0:0:
336,304,39930,2,0,L|336:160,1,140.000001192092
96,64,41130,1,0,0:0:0:0:
224,160,41730,1,0,0:0:0:0:
224,320,42330,6,0,L|80:320,1,140.000001192092
176,224,43230,1,0,0:0:0:0:
64,224,43530,2,0,L|64:80,1,140.000001192092
176,80,44430,1,0,0:0:0:0:
272,80,44730,1,0,0:0:0:0:
368,96,45330,1,0,0:0:0:0:
448,160,45930,1,0,0:0:0:0:
448,256,46530,1,0,0:0:0:0:
352,288,47130,6,0,L|208:288,1,140.000001192092
112,240,48330,1,0,0:0:0:0:
64,144,48930,1,0,0:0:0:0:
192,64,49530,6,0,L|336:64,1,140.000001192092
448,144,50730,1,0,0:0:0:0:
448,272,51330,1,0,0:0:0:0:
192,304,51930,6,0,L|48:304,1,140.000001192092
320,304,53130,2,0,L|464:304,1,140.000001192092
176,224,54330,2,0,L|176:80,1,140.000001192092
336,80,55530,2,0,L|336:224,1,140.000001192092
64,192,56730,5,0,0:0:0:0:
112,112,57030,1,0,0:0:0:0:
192,64,57330,1,0,0:0:0:0:
288,64,57930,2,0,L|416:128,1,140.000001192092
464,288,59130,5,0,0:0:0:0:
368,288,59430,1,0,0:0:0:0:
272,288,59730,1,0,0:0:0:0:
176,288,60330,2,0,L|32:288,1,140.000001192092
208,48,61530,6,0,L|64:48,1,140.000001192092
320,48,62730,2,0,L|464:48,1,140.000001192092
304,144,63930,2,0,L|304:288,1,140.000001192092
176,288,65130,2,0,L|176:144,1,140.000001192092
448,192,66330,5,0,0:0:0:0:
336,288,66930,1,0,0:0:0:0:
256,176,67530,1,0,0:0:0:0:
192,288,68130,1,0,0:0:0:0:
96,192,68730,1,0,0:0:0:0:
176,80,69330,1,0,0:0:0:0:
320,96,69930,1,0,0:0:0:0:
464,96,70530,2,0,L|464:240,1,140.000001192092
256,192,78330,12,0,79530,0:0:0:0:
144,304,80730,5,0,0:0:0:0:
80,224,81330,1,0,0:0:0:0:
64,112,81930,2,0,L|208:112,1,140.000001192092
352,112,83130,5,0,0:0:0:0:
464,192,83730,1,0,0:0:0:0:
416,304,84330,2,0,L|272:304,1,140.000001192092
256,192,85530,6,0,L|256:48,1,140.000001192092
112,64,86730,1,0,0:0:0:0:
80,144,87030,1,0,0:0:0:0:
80,240,87330,1,0,0:0:0:0:
160,320,87930,5,0,0:0:0:0:
256,320,88230,1,0,0:0:0:0:
352,320,88530,1,0,0:0:0:0:
400,224,89130,2,0,L|400:80,1,140.000001192092
256,48,90330,6,0,L|112:48,1,140.000001192092
112,160,91530,1,0,0:0:0:0:
256,160,92130,1,0,0:0:0:0:
64,256,92730,6,0,L|208:256,1,140.000001192092
320,256,93930,1,0,0:0:0:0:
320,144,94530,1,0,0:0:0:0:
432,96,95130,6,0,L|432:240,1,140.000001192092
432,336,96330,1,0,0:0:0:0:
320,336,96930,1,0,0:0:0:0:
112,288,97530,5,0,0:0:0:0:
112,192,97830,1,0,0:0:0:0:
112,96,98130,1,0,0:0:0:0:
224,96,98730,2,0,L|224:240,1,140.000001192092
384,64,99930,5,0,0:0:0:0:
432,176,100530,2,0,L|336:288,1,140.000001192092
208,272,101730,1,0,0:0:0:0:
192,48,102330,5,0,0:0:0:0:
64,208,102930,2,0,L|64:64,1,140.000001192092
192,208,104130,1,0,0:0:0:0:
416,64,104730,6,0,L|416:208,1,140.000001192092
416,304,105930,2,0,L|272:304,1,140.000001192092
80,288,107130,6,0,L|80:208,1,70.000000596046
80,128,107730,2,0,L|160:128,1,70.000000596046
256,128,108330,1,0,0:0:0:0:
336,32,109230,5,0,0:0:0:0:
432,80,109530,1,0,0:0:0:0:
432,192,110130,1,0,0:0:0:0:
432,304,110730,2,0,L|288:304,1,140.000001192092
64,304,111630,5,0,0:0:0:0:
64,192,111930,1,0,0:0:0:0:
128,96,112530,1,0,0:0:0:0:
256,96,113130,1,0,0:0:0:0:
384,112,113730,1,0,0:0:0:0:
432,272,114330,5,0,0:0:0:0:
336,272,114630,1,0,0:0:0:0:
240,272,114930,1,0,0:0:0:0:
96,272,115530,1,0,0:0:0:0:
96,176,115830,1,0,0:0:0:0:
208,176,116130,1,0,0:0:0:0:
112,64,116730,6,0,L|256:64,1,140.000001192092
368,64,117930,1,0,0:0:0:0:
432,144,118530,1,0,0:0:0:0:
432,304,119130,6,0,L|288:304,1,140.000001192092
64,304,120330,2,0,L|208:304,1,140.000001192092
96,144,121530,2,0,L|224:224,1,140.000001192092
400,128,122730,2,0,L|288:224,1,140.000001192092
256,80,123930,5,0,0:0:0:0:
176,144,124230,1,0,0:0:0:0:
256,208,124530,1,0,0:0:0:0:
352,160,125130,1,0,0:0:0:0:
464,208,125730,1,0,0:0:0:0:
384,320,126330,1,0,0:0:0:0:
336,240,126630,1,0,0:0:0:0:
256,176,126930,1,0,0:0:0:0:
272,320,127530,2,0,L|128:320,1,140.000001192092
48,48,128730,6,0,L|192:48,1,140.000001192092
464,48,129930,2,0,L|320:48,1,140.000001192092
320,272,131130,2,0,L|320:128,1,140.000001192092
176,128,132330,2,0,L|176:272,1,140.000001192092
256,272,133530,5,0,0:0:0:0:
80,272,134130,1,0,0:0:0:0:
192,160,134730,1,0,0:0:0:0:
352,224,135330,1,0,0:0:0:0:
432,96,135930,1,0,0:0:0:0:
288,80,136530,1,0,0:0:0:0:
176,80,137130,2,0,L|32:80,1,140.000001192092
64,192,138330,6,0,L|208:192,1,140.000001192092
448,192,139530,2,0,L|304:192,1,140.000001192092
448,304,140730,2,0,L|304:304,1,140.000001192092
64,304,141930,2,0,L|208:304,1,140.000001192092
80,176,143130,5,0,0:0:0:0:
128,80,143430,1,0,0:0:0:0:
208,176,143730,1,0,0:0:0:0:
240,64,144330,2,0,L|384:64,1,140.000001192092
416,192,145530,5,0,0:0:0:0:
416,304,145830,1,0,0:0:0:0:
304,304,146130,1,0,0:0:0:0:
192,304,146730,2,0,L|48:304,1,140.000001192092
304,32,147930,6,0,L|304:176,1,140.000001192092
208,352,149130,2,0,L|208:208,1,140.000001192092
48,160,150330,2,0,L|192:160,1,140.000001192092
448,224,151530,2,0,L|304:224,1,140.000001192092
160,224,152730,5,0,0:0:0:0:
80,96,153330,1,0,0:0:0:0:
208,48,153930,1,0,0:0:0:0:
368,80,154530,1,0,0:0:0:0:
448,192,155130,1,0,0:0:0:0:
352,304,155730,1,0,0:0:0:0:
160,304,156330,1,0,0:0:0:0:
64,208,156930,2,0,L|64:64,1,140.000001192092
64,256,167130,5,0,0:0:0:0:
64,144,167730,1,0,0:0:0:0:
160,96,168330,1,0,0:0:0:0:
272,96,168630,1,0,0:0:0:0:
384,112,168930,1,0,0:0:0:0:
416,272,169530,5,0,0:0:0:0:
368,192,170130,1,0,0:0:0:0:
272,192,170730,1,0,0:0:0:0:
176,192,171030,1,0,0:0:0:0:
96,256,171330,1,0,0:0:0:0:
368,320,171930,6,0,L|288:320,1,70.000000596046
208,320,172530,2,0,L|128:320,1,70.000000596046
64,256,173130,2,0,L|64:176,1,70.000000596046
64,112,173730,2,0,L|64:32,1,70.000000596046
256,192,174330,12,0,176730,0:0:0:0:
400,64,177930,6,0,L|288:160,1,140.000001192092
112,64,179130,2,0,L|224:160,1,140.000001192092
112,336,180330,2,0,L|224:240,1,140.000001192092
400,336,181530,2,0,L|288:240,1,140.000001192092
400,96,182730,5,0,0:0:0:0:
304,96,183030,1,0,0:0:0:0:
208,96,183330,1,0,0:0:0:0:
64,192,183930,1,0,0:0:0:0:
112,336,184530,1,0,0:0:0:0:
256,320,185130,5,0,0:0:0:0:
256,224,185430,1,0,0:0:0:0:
256,128,185730,1,0,0:0:0:0:
416,96,186330,2,0,L|416:240,1,140.000001192092
208,240,187530,6,0,L|80:304,1,140.000001192092
304,240,188730,2,0,L|432:320,1,140.000001192092
304,144,189930,2,0,L|432:64,1,140.000001192092
208,144,191130,2,0,L|80:64,1,140.000001192092
64,192,192330,5,0,0:0:0:0:
64,320,192930,1,0,0:0:0:0:
224,320,193530,2,0,L|368:320,1,140.000001192092
416,224,194730,5,0,0:0:0:0:
416,96,195330,1,0,0:0:0:0:
304,48,195930,2,0,L|160:48,1,140.000001192092
80,304,197130,6,0,L|80:160,1,140.000001192092
256,304,198330,2,0,L|256:160,1,140.000001192092
144,304,199530,2,0,L|144:160,1,140.000001192092
368,304,200730,2,0,L|368:160,1,140.000001192092
320,64,201930,5,0,0:0:0:0:
224,64,202230,1,0,0:0:0:0:
96,64,202530,1,0,0:0:0:0:
96,176,203130,2,0,L|96:320,1,140.000001192092
224,320,204330,2,0,L|368:320,1,140.000001192092
368,208,205530,2,0,L|368:64,1,140.000001192092
48,96,206730,6,0,L|192:96,1,140.000001192092
48,272,207930,2,0,L|192:272,1,140.000001192092
48,176,209130,2,0,L|192:176,1,140.000001192092
48,336,210330,2,0,L|192:336,1,140.000001192092
320,320,211530,5,0,0:0:0:0:
432,224,212130,1,0,0:0:0:0:
432,80,212730,1,0,0:0:0:0:
288,80,213330,1,0,0:0:0:0:
112,80,213930,1,0,0:0:0:0:
112,208,214530,1,0,0:0:0:0:
224,336,215130,1,0,0:0:0:0:
384,64,216330,6,0,L|384:208,1,140.000001192092
384,320,217530,2,0,L|240:320,1,140.000001192092
96,320,218730,2,0,L|96:176,1,140.000001192092
96,64,219930,1,0,0:0:0:0:
192,64,220230,1,0,0:0:0:0:
272,144,220530,1,0,0:0:0:0:
400,64,221130,5,0,0:0:0:0:
400,192,221730,1,0,0:0:0:0:
400,320,222330,1,0,0:0:0:0:
256,320,222930,1,0,0:0:0:0:
112,320,223530,1,0,0:0:0:0:
32,192,224130,1,0,0:0:0:0:
80,48,224730,1,0,0:0:0:0:
176,48,225030,1,0,0:0:0:0:
272,48,225330,1,0,0:0:0:0:
384,96,225930,6,0,L|384:240,1,140.000001192092
384,336,227130,2,0,L|240:336,1,140.000001192092
128,336,228330,2,0,L|128:192,1,140.000001192092
128,96,229530,1,0,0:0:0:0:
224,96,229830,1,0,0:0:0:0:
320,96,230130,1,0,0:0:0:0:
400,160,230730,5,0,0:0:0:0:
400,272,231330,1,0,0:0:0:0:
288,320,231930,2,0,L|144:320,1,140.000001192092
64,224,233130,5,0,0:0:0:0:
64,112,233730,1,0,0:0:0:0:
176,64,234330,2,0,L|320:64,1,140.000001192092
416,128,235530,5,0,0:0:0:0:
