osu file format v14

[General]
AudioFilename: heimen2.mp3
AudioLeadIn: 0
PreviewTime: 58234
Countdown: 0
SampleSet: Soft
StackLeniency: 0.3
Mode: 0
LetterboxInBreaks: 0
WidescreenStoryboard: 0

[Editor]
DistanceSpacing: 1.1
BeatDivisor: 16
GridSize: 4
TimelineZoom: 2.5

[Metadata]
Title:Heimenkyou
TitleUnicode:平面鏡
Artist:Reol
ArtistUnicode:Reol
Creator:Frey
Version:Shattered World
Source:
Tags:虚構集 れをる mirror _Stan stan
BeatmapID:1812660
BeatmapSetID:867074

[Difficulty]
HPDrainRate:6.5
CircleSize:4
OverallDifficulty:8
ApproachRate:9.2
SliderMultiplier:3.4
SliderTickRate:1

[Events]
//Background and Video events
0,0,"68983513_p0.jpg",0,0
//Break Periods
2,1284,3814
2,6084,7414
2,77784,85264
//Storyboard Layer 0 (Background)
//Storyboard Layer 1 (Fail)
//Storyboard Layer 2 (Pass)
//Storyboard Layer 3 (Foreground)
//Storyboard Sound Samples

[TimingPoints]
784,600,4,2,1,80,1,0
784,-153.846153846154,4,2,1,80,0,0
10384,-117.647058823529,4,2,1,50,0,0
11584,-117.647058823529,4,2,1,55,0,0
12784,-117.647058823529,4,2,1,60,0,0
13984,-117.647058823529,4,2,1,65,0,0
15184,-117.647058823529,4,2,1,70,0,0
16384,-117.647058823529,4,2,1,75,0,0
17584,-117.647058823529,4,2,1,80,0,0
18784,-100,4,2,1,80,0,0
19534,-100,4,2,1,65,0,0
19834,-100,4,2,1,80,0,0
57184,-100,4,2,1,50,0,0
58084,-200,4,2,1,50,0,0
58309,-100,4,2,1,40,0,0
58384,-100,4,2,1,82,0,1
75184,-100,4,2,1,82,0,0
77584,-100,4,2,1,50,0,0
85834,-100,4,2,1,80,0,0
86734,-100,4,2,1,65,0,0
87034,-100,4,2,1,80,0,0
87184,-100,4,2,1,80,0,0
118084,-100,4,2,1,60,0,0
118384,-100,4,2,1,80,0,0
120484,-100,4,2,1,70,0,0
120784,-117.647058823529,4,2,1,80,0,0
123184,-100,4,2,1,80,0,0
125584,-100,4,2,1,82,0,1
142384,-100,4,2,1,82,0,0
143584,-100,4,2,1,80,0,0
144784,-100,4,2,1,82,0,1
161584,-100,4,2,1,82,0,0
163984,-100,4,2,1,80,0,0

[Colours]
Combo1 : 36,7,233
Combo2 : 255,113,184
Combo3 : 17,136,255
Combo4 : 251,4,48

[HitObjects]
92,176,784,5,0,0:0:0:0:
420,176,1084,1,0,0:0:0:0:
74,139,4384,6,0,P|55:113|76:88,1,69.0624968385698
436,88,4984,1,0,0:0:0:0:
256,24,5584,5,0,0:0:0:0:
256,320,5884,1,0,0:0:0:0:
328,208,7984,6,0,B|296:188|292:148|292:148|256:156|220:148|220:148|216:188|180:212,1,220.999989883423,0|0,0:0|0:0,0:0:0:0:
396,128,8884,5,2,0:0:0:0:
116,128,9034,1,0,0:0:0:0:
256,352,10384,6,0,L|356:340,1,72.2500013780594,0|0,0:0|0:0,0:0:0:0:
435,255,10684,2,0,L|364:264,1,72.2500013780594,0|0,0:0|0:0,0:0:0:0:
184,284,10984,2,0,P|164:212|180:144,1,144.500002756119,0|0,0:0|0:0,0:0:0:0:
328,100,11434,6,0,P|348:172|332:240,1,144.500002756119,0|0,0:0|0:0,0:0:0:0:
256,352,11884,2,0,L|80:328,2,144.500002756119,0|0|0,0:0|0:0|0:0,0:0:0:0:
344,364,12634,1,0,0:0:0:0:
416,272,12784,6,0,P|452:272|486:262,1,72.2500013780594,0|0,0:0|0:0,0:0:0:0:
359,203,13084,2,0,P|322:203|288:193,1,72.2500013780594,0|0,0:0|0:0,0:0:0:0:
180,96,13384,2,0,P|120:120|40:112,1,144.500002756119,0|0,0:0|0:0,0:0:0:0:
56,254,13834,6,0,P|128:243|200:236,1,144.500002756119,0|0,0:0|0:0,0:0:0:0:
383,141,14284,2,0,P|311:152|240:159,2,144.500002756119,0|0|0,0:0|0:0|0:0,0:0:0:0:
404,56,15034,1,0,0:0:0:0:
468,168,15184,6,0,L|508:240,1,72.2500013780594,0|0,0:0|0:0,0:0:0:0:
392,288,15484,2,0,L|356:224,1,72.2500013780594,0|0,0:0|0:0,0:0:0:0:
212,88,15784,2,0,P|196:156|200:232,1,144.500002756119,0|0,0:0|0:0,0:0:0:0:
300,296,16234,6,0,P|316:228|312:152,1,144.500002756119,0|0,0:0|0:0,0:0:0:0:
120,184,16684,2,0,L|136:352,2,144.500002756119,0|0|0,0:0|0:0|0:0,0:0:0:0:
112,96,17434,1,0,0:0:0:0:
200,20,17584,6,0,L|280:12,1,72.2500013780594,0|0,0:0|0:0,0:0:0:0:
384,136,17884,2,0,L|312:128,1,72.2500013780594,0|0,0:0|0:0,0:0:0:0:
472,144,18184,1,0,0:0:0:0:
444,60,18334,1,0,0:0:0:0:
356,52,18484,1,0,0:0:0:0:
268,204,18634,1,2,0:0:0:0:
268,204,18934,5,2,0:0:0:0:
80,224,19084,2,0,L|192:212,1,85
360,196,19384,2,0,L|364:160,2,21.25
360,196,19534,5,0,3:0:0:0:
256,300,19684,1,0,3:0:0:0:
152,196,19834,1,0,0:0:0:0:
255,96,19984,6,0,P|298:100|340:103,1,85,2|0,3:0|0:0,0:0:0:0:
164,88,20284,2,0,P|121:85|79:80,1,85,0|2,0:0|3:0,0:0:0:0:
16,268,20584,1,8,3:2:0:0:
84,172,20734,1,0,0:0:0:0:
0,128,20884,1,0,0:0:0:0:
16,268,21034,1,2,3:0:0:0:
100,312,21184,6,0,P|142:306|184:304,1,85
400,292,21484,1,2,3:0:0:0:
228,188,21634,1,0,0:0:0:0:
324,352,21784,2,0,L|316:172,1,170,8|0,3:2|0:0,0:0:0:0:
316,182,22234,1,0,0:0:0:0:
312,64,22384,5,2,3:0:0:0:
460,56,22534,1,0,0:0:0:0:
436,200,22684,1,0,0:0:0:0:
316,182,22834,2,0,L|208:166,1,85,2|8,3:0|3:2,0:0:0:0:
51,143,23134,2,0,L|135:155,1,85,0|0,0:0|0:0,0:0:0:0:
196,84,23434,1,2,3:0:0:0:
176,232,23584,5,0,0:0:0:0:
24,232,23734,1,0,0:0:0:0:
51,143,23884,1,2,3:0:0:0:
100,288,24034,1,0,0:0:0:0:
256,268,24184,2,0,P|304:240|332:196,1,85,8|0,3:2|0:0,0:0:0:0:
256,116,24484,2,0,P|208:144|180:188,1,85,0|0,0:0|0:0,0:0:0:0:
152,256,24784,6,0,L|168:348,1,85,2|0,3:0|0:0,0:0:0:0:
256,372,25084,1,0,0:0:0:0:
436,306,25234,1,2,3:0:0:0:
318,172,25384,2,0,L|346:339,1,170,8|0,3:2|0:0,0:0:0:0:
420,212,25834,1,2,3:0:0:0:
420,212,25909,1,0,0:0:0:0:
420,212,25984,6,0,P|448:148|452:112,1,85,0|0,0:0|0:0,0:0:0:0:
396,28,26284,1,2,3:0:0:0:
288,76,26434,1,0,0:0:0:0:
372,116,26584,1,8,3:2:0:0:
204,36,26734,2,0,L|180:236,1,170,0|0,0:0|0:0,0:0:0:0:
172,300,27184,5,2,3:0:0:0:
96,244,27334,1,0,0:0:0:0:
256,264,27484,2,0,P|308:248|340:220,1,85,0|2,0:0|3:0,0:0:0:0:
276,104,27784,1,8,3:2:0:0:
116,84,27934,1,0,0:0:0:0:
96,244,28084,1,0,0:0:0:0:
256,264,28234,1,2,3:0:0:0:
96,244,28384,6,0,P|96:196|112:140,1,85,0|0,0:0|0:0,0:0:0:0:
407,160,28684,2,0,P|416:201|416:244,1,85,2|0,3:0|0:0,0:0:0:0:
236,328,28984,2,0,L|252:216,1,85,8|0,3:2|0:0,0:0:0:0:
276,56,29284,2,0,L|260:168,1,85,0|0,0:0|0:0,0:0:0:0:
124,200,29584,6,0,P|88:177|73:138,1,85,2|0,3:0|0:0,0:0:0:0:
164,116,29884,1,0,0:0:0:0:
44,288,30034,1,2,3:0:0:0:
196,264,30184,2,0,L|304:244,1,85,8|0,3:2|0:0,0:0:0:0:
448,296,30484,5,0,0:0:0:0:
396,144,30634,1,2,3:0:0:0:
352,312,30784,1,0,0:0:0:0:
300,160,30934,1,0,0:0:0:0:
464,208,31084,2,0,P|483:170|486:128,1,85,2|0,3:0|0:0,0:0:0:0:
272,4,31384,5,8,3:2:0:0:
300,160,31534,1,0,0:0:0:0:
168,104,31684,1,0,0:0:0:0:
324,76,31834,1,0,0:0:0:0:
216,236,31984,2,0,P|128:208|112:192,1,85,2|0,3:0|0:0,0:0:0:0:
28,160,32284,5,0,0:0:0:0:
20,24,32434,1,2,3:0:0:0:
28,160,32584,2,0,L|36:260,1,85,8|0,3:2|0:0,0:0:0:0:
232,72,32884,1,0,0:0:0:0:
88,84,33034,1,2,3:0:0:0:
208,164,33184,2,0,P|256:176|296:172,1,85,0|0,0:0|0:0,0:0:0:0:
388,240,33484,5,2,3:0:0:0:
496,144,33634,1,0,0:0:0:0:
425,16,33784,2,0,L|256:32,1,170,8|0,3:2|0:0,0:0:0:0:
164,40,34234,1,0,0:0:0:0:
252,124,34384,6,0,L|340:116,1,85,2|0,3:0|0:0,0:0:0:0:
428,108,34684,1,0,0:0:0:0:
372,288,34834,1,2,3:0:0:0:
240,228,34984,1,8,3:2:0:0:
328,192,35134,2,0,P|408:192|492:252,1,170,0|2,0:0|3:0,0:0:0:0:
396,384,35584,6,0,L|308:360,1,85,0|0,0:0|0:0,0:0:0:0:
224,336,35884,1,2,3:0:0:0:
136,312,36034,1,0,0:0:0:0:
104,136,36184,2,0,L|118:219,1,85,8|0,3:2|0:0,0:0:0:0:
200,112,36484,1,0,0:0:0:0:
200,112,36634,1,0,0:0:0:0:
88,40,36784,5,2,3:0:0:0:
4,148,36934,1,0,0:0:0:0:
118,219,37084,2,0,P|164:216|220:232,1,85,0|2,0:0|3:0,0:0:0:0:
288,268,37384,1,8,3:2:0:0:
361,87,37534,2,0,L|380:256,1,170,0|2,0:0|3:0,0:0:0:0:
460,308,37984,6,0,P|468:256|488:216,1,85
276,97,38284,2,0,P|321:92|361:86,1,85,2|0,3:0|0:0,0:0:0:0:
200,260,38584,1,8,3:2:0:0:
120,156,38734,1,0,3:0:0:0:
108,248,38884,1,0,3:0:0:0:
212,168,39034,1,0,0:0:0:0:
139,336,39184,6,0,P|58:325|16:255,1,170,2|0,3:0|0:0,0:0:0:0:
4,160,39634,1,2,3:0:0:0:
112,60,39784,2,0,P|150:75|191:81,1,85,8|0,3:2|0:0,0:0:0:0:
284,52,40084,1,0,0:0:0:0:
265,144,40234,1,2,3:0:0:0:
348,216,40384,5,0,0:0:0:0:
376,71,40534,1,0,0:0:0:0:
504,4,40684,2,0,P|518:86|484:163,1,170,2|8,3:0|3:2,0:0:0:0:
392,152,41134,1,0,0:0:0:0:
300,140,41284,2,0,L|184:124,1,85,0|0,0:0|0:0,0:0:0:0:
359,256,41584,6,0,P|400:242|442:247,1,85,2|0,3:0|0:0,0:0:0:0:
500,320,41884,1,0,0:0:0:0:
412,384,42034,1,2,3:0:0:0:
312,336,42184,2,0,P|268:300|248:268,1,85,8|0,3:2|0:0,0:0:0:0:
292,108,42484,1,0,0:0:0:0:
336,192,42634,1,2,3:0:0:0:
176,192,42784,6,0,L|64:168,1,85,0|0,0:0|0:0,0:0:0:0:
90,351,43084,2,0,P|99:309|107:268,1,85,2|0,3:0|0:0,0:0:0:0:
4,72,43384,2,0,P|-8:152|24:244,1,170,8|0,3:2|0:0,0:0:0:0:
92,174,43834,1,0,0:0:0:0:
244,52,43984,6,0,B|156:68|164:4|76:20,1,170,2|0,3:0|0:0,0:0:0:0:
4,72,44434,1,2,3:0:0:0:
18,235,44584,2,0,L|128:224,1,85,8|0,3:2|0:0,0:0:0:0:
212,144,44884,1,0,0:0:0:0:
228,280,45034,1,2,3:0:0:0:
120,136,45184,6,0,P|152:80|160:48,1,85,0|0,0:0|0:0,0:0:0:0:
392,136,45484,2,0,P|360:80|352:48,1,85,2|0,3:0|0:0,0:0:0:0:
440,216,45784,5,8,3:2:0:0:
72,216,46084,1,0,0:0:0:0:
256,336,46384,6,0,L|340:325,1,85,2|0,3:0|0:0,0:0:0:0:
256,48,46684,2,0,L|340:58,1,85,0|2,0:0|3:0,0:0:0:0:
164,36,46984,5,8,3:2:0:0:
164,348,47284,1,0,0:0:0:0:
283,251,47434,1,2,3:0:0:0:
400,151,47584,6,0,P|393:192|400:236,1,85,0|0,0:0|0:0,0:0:0:0:
111,151,47884,2,0,P|118:192|112:236,1,85,2|0,3:0|0:0,0:0:0:0:
36,96,48184,5,8,3:2:0:0:
476,96,48484,1,0,0:0:0:0:
355,320,48784,6,0,P|321:296|306:257,1,85,2|0,3:0|0:0,0:0:0:0:
323,75,49084,2,0,L|316:160,1,85,0|2,0:0|3:0,0:0:0:0:
189,309,49384,1,8,3:2:0:0:
100,240,49534,1,0,0:0:0:0:
204,200,49684,1,0,0:0:0:0:
32,328,49834,6,0,P|8:248|20:152,1,170,2|0,3:0|0:0,0:0:0:0:
76,12,50284,2,0,L|84:96,1,85,2|0,3:0|0:0,0:0:0:0:
179,309,50584,2,0,P|188:224|164:144,1,170,8|0,3:2|0:0,0:0:0:0:
100,240,51034,1,0,0:0:0:0:
264,268,51184,6,0,L|364:284,1,85,2|0,3:0|0:0,0:0:0:0:
423,336,51484,2,0,P|441:297|439:255,1,85,0|2,0:0|3:0,0:0:0:0:
348,72,51784,2,0,L|364:172,1,85,8|0,3:2|0:0,0:0:0:0:
164,312,52084,2,0,L|148:212,1,85,0|2,0:0|3:0,0:0:0:0:
230,36,52384,6,0,L|244:120,1,85,0|0,0:0|0:0,0:0:0:0:
281,347,52684,2,0,L|268:264,1,85,2|0,3:0|0:0,0:0:0:0:
436,160,52984,2,0,L|352:173,1,85,8|0,3:2|0:0,0:0:0:0:
76,224,53284,2,0,L|159:210,1,85,0|0,0:0|0:0,0:0:0:0:
256,192,53584,5,2,3:0:0:0:
180,296,53734,1,0,0:0:0:0:
76,224,53884,1,0,0:0:0:0:
152,120,54034,2,0,P|224:168|244:176,1,85,2|8,3:0|3:2,0:0:0:0:
360,264,54334,1,0,0:0:0:0:
436,160,54484,1,0,0:0:0:0:
332,88,54634,1,2,3:0:0:0:
256,192,54784,6,0,P|200:168|176:128,1,85,0|0,0:0|0:0,0:0:0:0:
335,0,55084,2,0,P|376:12|406:41,1,85,2|0,3:0|0:0,0:0:0:0:
452,260,55384,1,8,3:2:0:0:
368,224,55534,1,0,0:0:0:0:
388,132,55684,1,0,0:0:0:0:
472,168,55834,1,0,0:0:0:0:
376,316,55984,6,0,P|285:305|196:288,1,170,2|0,3:0|0:0,0:0:0:0:
4,192,56434,1,2,3:0:0:0:
80,80,56584,5,8,3:2:0:0:
172,116,56734,1,0,0:0:0:0:
96,176,56884,1,0,0:0:0:0:
256,324,57034,5,2,3:0:0:0:
208,240,57184,1,0,0:0:0:0:
304,240,57334,1,0,0:0:0:0:
160,324,57484,5,2,0:0:0:0:
352,324,57634,1,0,0:0:0:0:
124,192,57784,1,0,0:0:0:0:
388,192,57934,1,0,0:0:0:0:
256,224,58084,6,0,B|252:192|260:192|256:156,1,63.75,2|0,0:0|0:0,0:0:0:0:
256,60,58384,6,0,P|212:60|152:36,1,85,2|2,3:0|0:0,0:0:0:0:
0,192,58684,2,0,P|44:192|104:216,1,85,0|2,0:0|3:0,0:0:0:0:
184,312,58984,1,8,3:0:0:0:
144,120,59134,1,2,0:0:0:0:
24,304,59284,1,2,0:0:0:0:
80,51,59434,6,0,P|159:31|227:78,1,170,2|2,3:0|0:0,0:0:0:0:
284,260,59884,2,0,L|296:176,1,85,2|2,3:0|0:0,0:0:0:0:
68,312,60184,2,0,L|44:132,1,170,8|2,3:0|0:0,0:0:0:0:
36,48,60634,1,0,0:0:0:0:
144,192,60784,5,2,3:0:0:0:
281,78,60934,2,0,P|203:111|123:87,1,170,2|2,0:0|3:0,0:0:0:0:
230,304,61384,2,0,P|307:272|388:296,1,170,8|2,3:0|0:0,0:0:0:0:
492,184,61834,6,0,L|476:0,1,170,2|2,3:0|0:0,0:0:0:0:
260,164,62284,1,2,3:0:0:0:
384,28,62434,1,2,0:0:0:0:
200,60,62584,1,8,3:0:0:0:
320,268,62734,2,0,P|365:197|355:115,1,170,2|0,3:0|0:0,0:0:0:0:
108,76,63184,6,0,L|88:184,1,85,2|0,3:0|0:0,0:0:0:0:
147,284,63484,2,0,P|185:263|227:261,1,85,2|2,0:0|3:0,0:0:0:0:
320,268,63784,1,8,3:0:0:0:
216,376,63934,1,2,0:0:0:0:
248,172,64084,1,2,0:0:0:0:
408,300,64234,6,0,P|444:224|424:136,1,170,2|2,3:0|0:0,0:0:0:0:
332,68,64684,2,0,L|248:56,1,85,2|2,3:0|0:0,0:0:0:0:
148,264,64984,2,0,L|316:288,1,170,8|2,3:0|0:0,0:0:0:0:
408,300,65434,1,0,0:0:0:0:
284,168,65584,6,0,P|240:168|200:196,1,85,2|0,3:0|0:0,0:0:0:0:
148,264,65884,1,0,0:0:0:0:
88,188,66034,1,2,3:2:0:0:
88,188,66109,1,0,0:0:0:0:
88,188,66184,1,8,3:2:0:0:
128,100,66334,1,0,0:0:0:0:
224,92,66484,1,0,0:0:0:0:
284,168,66634,5,2,3:2:0:0:
284,168,66709,1,0,0:0:0:0:
284,168,66784,1,0,0:0:0:0:
244,256,66934,1,0,0:0:0:0:
304,332,67084,1,2,3:0:0:0:
400,320,67234,1,2,3:2:0:0:
400,320,67309,1,0,0:0:0:0:
400,320,67384,1,8,3:2:0:0:
372,126,67534,2,0,P|305:78|223:91,1,170,2|0,3:0|0:0,0:0:0:0:
99,235,67984,6,0,L|112:320,1,85,2|2,3:0|0:0,0:0:0:0:
400,320,68284,2,0,L|416:208,1,85,0|2,0:0|3:0,0:0:0:0:
372,126,68584,1,8,3:0:0:0:
256,288,68734,1,2,0:0:0:0:
468,140,68884,1,2,0:0:0:0:
256,192,69034,6,0,P|180:168|148:88,1,170,2|2,3:0|0:0,0:0:0:0:
364,32,69484,2,0,L|447:45,1,85,2|2,3:0|0:0,0:0:0:0:
324,284,69784,2,0,L|117:251,1,170,8|2,3:0|0:0,0:0:0:0:
64,240,70234,1,0,0:0:0:0:
144,120,70384,5,2,3:0:0:0:
288,144,70534,2,0,P|368:152|440:92,1,170,2|2,0:0|3:0,0:0:0:0:
224,240,70984,2,0,P|144:232|72:292,1,170,8|2,3:0|0:0,0:0:0:0:
12,32,71434,6,0,L|31:200,1,170,2|2,3:0|0:0,0:0:0:0:
196,80,71884,1,2,3:0:0:0:
31,200,72034,1,2,0:0:0:0:
104,56,72184,1,8,3:0:0:0:
224,240,72334,2,0,P|286:186|287:103,1,170,2|0,3:0|0:0,0:0:0:0:
108,144,72784,6,0,P|112:186|130:225,1,85,2|0,3:0|0:0,0:0:0:0:
383,224,73084,2,0,P|401:185|405:143,1,85,2|2,0:0|3:0,0:0:0:0:
232,8,73384,2,0,L|216:192,1,170,8|2,3:0|0:0,0:0:0:0:
280,376,73834,2,0,L|294:206,1,170,2|0,3:0|0:0,0:0:0:0:
304,112,74284,6,0,L|388:100,1,85,2|0,3:0|0:0,0:0:0:0:
208,272,74584,2,0,L|124:260,1,85,8|0,3:0|0:0,0:0:0:0:
32,140,74884,1,2,0:0:0:0:
32,244,75034,1,0,0:0:0:0:
124,124,75184,6,0,L|208:112,1,85,2|0,3:0|0:0,0:0:0:0:
304,96,75484,1,2,0:0:0:0:
200,20,75634,1,0,0:0:0:0:
228,200,75784,1,8,3:2:0:0:
336,312,75934,1,0,0:0:0:0:
316,160,76084,1,2,0:0:0:0:
244,296,76234,1,2,3:0:0:0:
380,227,76384,5,0,0:0:0:0:
360,76,76534,1,0,0:0:0:0:
208,48,76684,1,2,3:0:0:0:
140,184,76834,1,0,0:0:0:0:
244,296,76984,1,8,3:2:0:0:
360,76,77134,1,0,3:0:0:0:
140,184,77284,1,0,3:0:0:0:
380,227,77434,1,0,3:0:0:0:
208,48,77584,5,0,0:0:0:0:
328,288,85834,6,0,B|387:292|387:292|412:312|412:312|520:320,1,170,2|0,3:0|0:0,0:0:0:0:
500,200,86284,2,0,L|508:76,1,85,2|0,3:0|0:0,0:0:0:0:
332,192,86584,2,0,L|371:195,2,21.25
332,192,86734,5,0,3:0:0:0:
180,280,86884,1,0,3:0:0:0:
180,104,87034,1,0,0:0:0:0:
271,115,87184,6,0,P|313:111|351:91,1,85,2|0,3:0|0:0,0:0:0:0:
350,291,87484,2,0,P|313:271|271:267,1,85,0|2,0:0|3:0,0:0:0:0:
112,39,87784,2,0,P|84:117|130:184,1,170,8|0,3:2|0:0,0:0:0:0:
332,104,88234,1,2,3:0:0:0:
180,104,88384,5,0,0:0:0:0:
256,192,88534,1,0,0:0:0:0:
332,104,88684,2,0,P|380:96|436:96,1,85,2|0,3:0|0:0,0:0:0:0:
180,280,88984,2,0,P|132:288|76:288,1,85,8|0,3:2|0:0,0:0:0:0:
8,256,89284,1,0,0:0:0:0:
24,352,89434,1,0,0:0:0:0:
92,196,89584,5,2,3:0:0:0:
256,236,89734,2,0,P|328:216|360:120,1,170,0|2,0:0|3:0,0:0:0:0:
256,36,90184,2,0,L|68:56,1,170,8|0,3:2|0:0,0:0:0:0:
4,228,90634,1,2,3:0:0:0:
20,136,90784,5,0,0:0:0:0:
92,196,90934,1,0,0:0:0:0:
108,104,91084,1,2,3:0:0:0:
180,164,91234,1,0,0:0:0:0:
416,52,91384,1,8,3:2:0:0:
344,112,91534,1,0,0:0:0:0:
328,20,91684,1,0,0:0:0:0:
256,80,91834,1,0,0:0:0:0:
316,232,91984,6,0,B|392:224|392:224|412:208|412:208|492:200,1,170,2|0,3:0|0:0,0:0:0:0:
444,336,92434,1,2,3:0:0:0:
256,304,92584,1,8,3:2:0:0:
348,140,92734,1,0,0:0:0:0:
352,320,92884,1,0,0:0:0:0:
196,232,93034,1,2,3:0:0:0:
400,219,93184,6,0,P|443:150|416:72,1,170,0|2,0:0|3:0,0:0:0:0:
324,48,93634,1,0,0:0:0:0:
188,140,93784,2,0,P|132:132|96:96,1,85,8|0,3:2|0:0,0:0:0:0:
68,36,94084,1,0,0:0:0:0:
36,192,94234,1,0,0:0:0:0:
188,140,94384,6,0,P|256:128|360:152,1,170,2|0,3:0|0:0,0:0:0:0:
476,192,94834,1,2,3:0:0:0:
368,304,94984,2,0,P|264:288|220:212,1,170,8|0,3:2|0:0,0:0:0:0:
256,48,95434,1,2,3:0:0:0:
348,36,95584,5,0,0:0:0:0:
452,116,95734,1,0,0:0:0:0:
372,220,95884,1,2,3:0:0:0:
268,140,96034,1,0,0:0:0:0:
164,348,96184,1,8,3:2:0:0:
60,268,96334,1,0,0:0:0:0:
140,164,96484,1,0,0:0:0:0:
244,244,96634,1,0,0:0:0:0:
60,268,96784,6,0,P|32:188|43:104,1,170,2|0,3:0|0:0,0:0:0:0:
152,256,97234,1,2,3:0:0:0:
202,28,97384,2,0,P|229:108|219:192,1,170,8|0,3:2|0:0,0:0:0:0:
136,152,97834,1,2,3:0:0:0:
316,172,97984,6,0,L|485:190,1,170,0|2,0:0|3:0,0:0:0:0:
304,264,98434,1,0,0:0:0:0:
196,76,98584,2,0,L|27:57,1,170,8|0,3:2|0:0,0:0:0:0:
12,152,99034,1,0,0:0:0:0:
216,272,99184,5,2,3:0:0:0:
128,164,99334,1,0,0:0:0:0:
120,260,99484,2,0,L|108:372,1,85,0|2,0:0|3:0,0:0:0:0:
296,384,99784,2,0,L|314:212,1,170,8|0,3:2|0:0,0:0:0:0:
324,96,100234,1,2,3:0:0:0:
232,84,100384,6,0,P|192:80|128:68,1,85
404,228,100684,2,0,P|446:231|488:238,1,85,2|0,3:0|0:0,0:0:0:0:
360,52,100984,2,0,L|380:135,1,85,8|0,3:2|0:0,0:0:0:0:
152,332,101284,2,0,L|132:249,1,85,0|0,0:0|0:0,0:0:0:0:
256,124,101584,5,2,3:0:0:0:
324,192,101734,1,0,0:0:0:0:
256,260,101884,1,0,0:0:0:0:
188,192,102034,1,2,3:0:0:0:
256,28,102184,2,0,B|340:16|336:60|424:48,1,170,8|0,3:2|0:0,0:0:0:0:
480,172,102634,1,2,3:0:0:0:
368,316,102784,5,0,0:0:0:0:
356,224,102934,1,0,0:0:0:0:
443,259,103084,2,0,P|459:297|457:339,1,85,2|0,3:0|0:0,0:0:0:0:
236,304,103384,2,0,P|235:222|248:120,1,170,8|0,3:2|0:0,0:0:0:0:
256,40,103834,1,0,0:0:0:0:
116,156,103984,6,0,P|68:112|56:84,1,85,2|0,3:0|0:0,0:0:0:0:
112,16,104284,1,0,0:0:0:0:
176,84,104434,1,2,3:0:0:0:
396,156,104584,2,0,P|444:112|456:84,1,85,8|0,3:2|0:0,0:0:0:0:
400,16,104884,1,0,0:0:0:0:
336,84,105034,1,2,3:0:0:0:
256,304,105184,6,0,B|248:212|264:220|256:134,1,170,2|2,0:0|3:0,0:0:0:0:
256,40,105634,1,0,0:0:0:0:
128,136,105784,5,8,3:2:0:0:
384,136,105934,1,0,3:0:0:0:
176,288,106084,1,0,3:0:0:0:
336,288,106234,1,0,0:0:0:0:
256,148,106384,6,0,P|212:116|176:56,1,85,2|0,3:0|0:0,0:0:0:0:
10,40,106684,2,0,L|0:124,1,85,0|2,0:0|3:0,0:0:0:0:
24,316,106984,1,8,3:2:0:0:
176,200,107134,1,0,0:0:0:0:
88,164,107284,1,0,0:0:0:0:
101,259,107434,1,2,3:0:0:0:
272,324,107584,6,0,L|260:216,1,85,0|0,0:0|0:0,0:0:0:0:
240,60,107884,2,0,L|249:144,1,85,2|0,3:0|0:0,0:0:0:0:
360,288,108184,2,0,P|400:215|385:133,1,170,8|0,3:2|0:0,0:0:0:0:
240,60,108634,1,0,0:0:0:0:
152,96,108784,6,0,P|112:169|127:251,1,170,2|0,3:0|0:0,0:0:0:0:
272,324,109234,1,2,3:0:0:0:
288,160,109384,2,0,P|245:161|205:174,1,85,8|0,3:2|0:0,0:0:0:0:
32,312,109684,2,0,L|24:220,1,85,0|2,0:0|3:0,0:0:0:0:
16,132,109984,5,0,0:0:0:0:
144,84,110134,1,0,0:0:0:0:
120,220,110284,1,2,3:0:0:0:
60,48,110434,1,0,0:0:0:0:
240,84,110584,2,0,P|328:72|384:16,1,170,8|0,3:2|0:0,0:0:0:0:
476,36,111034,1,0,0:0:0:0:
512,152,111184,6,0,L|496:248,1,85,2|0,3:0|0:0,0:0:0:0:
316,380,111484,2,0,L|302:296,1,85,0|2,0:0|3:0,0:0:0:0:
424,148,111784,1,8,3:2:0:0:
302,296,111934,1,0,0:0:0:0:
498,235,112084,1,0,0:0:0:0:
316,184,112234,1,2,3:0:0:0:
224,156,112384,6,0,P|148:132|116:116,1,85,0|0,0:0|0:0,0:0:0:0:
175,25,112684,2,0,P|214:41|256:52,1,85,2|0,3:0|0:0,0:0:0:0:
48,204,112984,2,0,P|8:128|28:40,1,170,8|0,3:2|0:0,0:0:0:0:
143,129,113434,1,0,0:0:0:0:
160,224,113584,6,0,L|173:307,1,85,2|0,3:0|0:0,0:0:0:0:
352,160,113884,2,0,L|338:76,1,85,0|2,0:0|3:0,0:0:0:0:
287,286,114184,2,0,L|460:260,1,170,8|0,3:2|0:0,0:0:0:0:
508,180,114634,1,2,3:0:0:0:
419,90,114784,6,0,P|376:91|337:75,1,85,0|0,0:0|0:0,0:0:0:0:
337,308,115084,2,0,P|376:292|419:294,1,85,2|0,3:0|0:0,0:0:0:0:
175,111,115384,2,0,P|199:191|176:272,1,170,8|0,3:2|0:0,0:0:0:0:
90,312,115834,1,0,0:0:0:0:
90,72,115984,6,0,B|150:64|150:64|202:84|202:84|256:76,1,170,2|0,3:0|0:0,0:0:0:0:
256,192,116434,1,2,3:0:0:0:
421,311,116584,2,0,B|361:319|361:319|309:299|309:299|256:308,1,170,8|0,3:2|0:0,0:0:0:0:
100,384,117034,2,0,P|64:312|88:220,1,170,2|0,3:0|0:0,0:0:0:0:
156,132,117484,2,0,L|256:148,1,85,2|0,3:0|3:0,3:3:0:0:
424,176,117784,5,0,0:0:0:0:
328,296,117934,1,0,0:0:0:0:
176,268,118084,1,2,0:0:0:0:
176,268,118384,6,0,P|84:251|8:239,1,170,2|0,3:0|0:0,0:0:0:0:
28,120,118834,1,2,3:0:0:0:
233,32,118984,2,0,P|267:108|256:192,1,170,8|0,3:2|0:0,0:0:0:0:
278,351,119434,2,0,P|244:275|256:192,1,170,2|0,3:0|0:0,0:0:0:0:
340,104,119884,2,0,P|383:101|425:94,1,85,2|0,3:0|0:0,0:0:0:0:
188,120,120184,5,0,0:0:0:0:
380,264,120334,1,0,0:0:0:0:
160,360,120484,1,2,0:0:0:0:
160,360,120784,6,0,L|144:184,1,144.500002756119,2|0,3:0|0:0,0:0:0:0:
366,216,121384,1,2,0:0:0:0:
325,309,121534,2,0,P|289:307|255:319,1,72.2500013780594,2|0,3:0|0:0,0:0:0:0:
160,360,121834,1,2,0:0:0:0:
146,216,121984,6,0,L|136:112,1,72.2500013780594,8|0,0:0|0:0,0:0:0:0:
312,76,122284,1,2,3:0:0:0:
256,160,122434,1,0,0:0:0:0:
200,76,122584,2,0,P|144:52|88:68,2,108.375002067089,2|2|2,0:0|0:0|0:0,0:0:0:0:
312,308,123184,5,6,0:0:0:0:
392,156,124234,6,0,L|264:145,1,127.5,8|0,3:2|0:0,0:0:0:0:
120,228,124534,2,0,L|247:238,1,127.5,8|0,3:2|0:0,0:0:0:0:
344,248,124834,1,0,3:0:0:0:
168,136,124984,2,0,L|172:96,2,21.25
168,136,125134,5,0,3:0:0:0:
64,320,125284,1,0,3:0:0:0:
48,188,125434,1,0,0:0:0:0:
192,344,125584,6,0,P|233:334|271:315,1,85,2|2,3:0|0:0,0:0:0:0:
404,112,125884,2,0,P|393:153|374:191,1,85,0|2,0:0|3:0,0:0:0:0:
268,88,126184,1,8,3:0:0:0:
504,128,126334,1,2,0:0:0:0:
400,24,126484,1,2,0:0:0:0:
284,236,126634,6,0,P|196:224|140:152,1,170,2|2,3:0|0:0,0:0:0:0:
320,16,127084,2,0,L|348:100,1,85,2|2,3:0|0:0,0:0:0:0:
428,336,127384,2,0,L|482:175,1,170,8|2,3:0|0:0,0:0:0:0:
512,88,127834,1,0,0:0:0:0:
376,184,127984,5,2,3:0:0:0:
256,68,128134,2,0,P|175:53|108:116,1,170,2|2,0:0|3:0,0:0:0:0:
256,316,128584,2,0,P|337:330|400:277,1,170,8|2,3:0|0:0,0:0:0:0:
339,68,129034,6,0,L|312:236,1,170,2|2,3:0|0:0,0:0:0:0:
200,149,129484,1,2,3:0:0:0:
412,128,129634,1,2,0:0:0:0:
216,40,129784,1,8,3:0:0:0:
179,284,129934,2,0,P|101:258|68:176,1,170,2|0,3:0|0:0,0:0:0:0:
216,40,130384,6,0,L|324:56,1,85,2|0,3:0|0:0,0:0:0:0:
264,271,130684,2,0,L|156:287,1,85,2|2,0:0|3:0,0:0:0:0:
67,182,130984,1,8,3:0:0:0:
36,332,131134,1,2,0:0:0:0:
164,188,131284,1,2,0:0:0:0:
348,260,131434,6,0,P|409:205|401:123,1,170,2|2,3:0|0:0,0:0:0:0:
140,68,131884,2,0,P|160:156|176:188,1,85,2|2,3:0|0:0,0:0:0:0:
216,348,132184,2,0,L|272:172,1,170,8|2,3:0|0:0,0:0:0:0:
296,96,132634,1,0,0:0:0:0:
452,84,132784,6,0,P|464:125|463:167,1,85,2|0,3:0|0:0,0:0:0:0:
452,264,133084,1,0,0:0:0:0:
392,340,133234,1,2,3:2:0:0:
392,340,133309,1,0,0:0:0:0:
392,340,133384,1,8,3:2:0:0:
296,328,133534,1,0,0:0:0:0:
256,240,133684,1,0,0:0:0:0:
256,144,133834,5,2,3:2:0:0:
256,144,133909,1,0,0:0:0:0:
256,144,133984,1,0,0:0:0:0:
216,56,134134,1,0,0:0:0:0:
120,44,134284,1,2,3:0:0:0:
60,120,134434,1,2,3:2:0:0:
60,120,134509,1,0,0:0:0:0:
60,120,134584,1,8,3:2:0:0:
136,300,134734,2,0,L|324:276,1,170,2|0,3:0|0:0,0:0:0:0:
376,84,135184,6,0,L|252:100,1,85,2|2,3:0|0:0,0:0:0:0:
424,316,135484,2,0,P|425:272|436:228,1,85,0|2,0:0|3:0,0:0:0:0:
472,72,135784,1,8,3:0:0:0:
288,220,135934,1,2,0:0:0:0:
500,164,136084,1,2,0:0:0:0:
348,8,136234,6,0,L|156:32,1,170,2|2,3:0|0:0,0:0:0:0:
24,188,136684,2,0,P|19:146|32:106,1,85,2|2,3:0|0:0,0:0:0:0:
204,172,136984,2,0,P|228:250|184:320,1,170,8|2,3:0|0:0,0:0:0:0:
140,240,137434,1,0,0:0:0:0:
256,380,137584,5,2,3:0:0:0:
372,240,137734,2,0,L|388:56,1,170,2|2,0:0|3:0,0:0:0:0:
140,144,138184,2,0,L|125:313,1,170,8|2,3:0|0:0,0:0:0:0:
220,92,138634,6,0,P|149:49|71:76,1,170,2|2,3:0|0:0,0:0:0:0:
25,260,139084,1,2,3:0:0:0:
224,188,139234,1,2,0:0:0:0:
48,168,139384,1,8,3:0:0:0:
227,284,139534,2,0,P|299:242|315:161,1,170,2|0,3:0|0:0,0:0:0:0:
128,276,139984,6,0,L|140:376,1,85,2|0,3:0|0:0,0:0:0:0:
373,360,140284,2,0,L|384:276,1,85,2|2,0:0|3:0,0:0:0:0:
480,164,140584,2,0,L|311:184,1,170,8|2,3:0|0:0,0:0:0:0:
32,220,141034,2,0,L|200:199,1,170,2|0,3:0|0:0,0:0:0:0:
256,64,141484,6,0,P|216:49|174:55,1,85,2|0,3:0|0:0,0:0:0:0:
32,220,141784,2,0,P|25:173|20:116,1,85,8|0,3:0|0:0,0:0:0:0:
60,0,142084,1,2,0:0:0:0:
124,132,142234,1,0,0:0:0:0:
255,64,142384,6,0,P|295:49|337:55,1,85,2|0,3:0|0:0,0:0:0:0:
388,252,142684,1,2,0:0:0:0:
304,144,142834,1,2,3:0:0:0:
124,132,142984,1,8,3:2:0:0:
208,240,143134,1,0,0:0:0:0:
388,252,143284,1,2,0:0:0:0:
304,144,143434,1,2,3:0:0:0:
296,280,143584,5,0,0:0:0:0:
424,328,143734,1,0,0:0:0:0:
508,220,143884,1,2,3:0:0:0:
436,104,144034,1,0,0:0:0:0:
304,144,144184,1,8,3:2:0:0:
404,236,144334,1,0,3:0:0:0:
352,52,144484,1,0,3:0:0:0:
108,236,144634,1,0,3:0:0:0:
160,52,144784,6,0,L|128:168,1,85,2|2,3:0|0:0,0:0:0:0:
352,332,145084,2,0,L|384:216,1,85,0|2,0:0|3:0,0:0:0:0:
256,192,145384,1,8,3:0:0:0:
408,120,145534,1,2,0:0:0:0:
352,332,145684,1,2,0:0:0:0:
356,39,145834,6,0,P|436:26|495:83,1,170,2|2,3:0|0:0,0:0:0:0:
508,268,146284,2,0,L|416:276,1,85,2|2,3:0|0:0,0:0:0:0:
156,148,146584,2,0,P|240:184|328:164,1,170,8|2,3:0|0:0,0:0:0:0:
396,124,147034,1,0,0:0:0:0:
348,272,147184,5,2,3:0:0:0:
196,252,147334,2,0,L|-8:224,1,170,2|0,0:0|3:0,0:0:0:0:
316,132,147784,2,0,L|520:160,1,170,8|2,3:0|0:0,0:0:0:0:
348,357,148234,6,0,P|285:303|285:221,1,170,2|2,3:0|0:0,0:0:0:0:
404,28,148684,1,2,3:0:0:0:
372,264,148834,1,2,0:0:0:0:
484,155,148984,1,8,3:0:0:0:
220,116,149134,2,0,L|51:92,1,170,2|0,3:0|0:0,0:0:0:0:
27,260,149584,6,0,P|69:261|109:249,1,85,2|0,3:0|0:0,0:0:0:0:
308,344,149884,2,0,P|265:342|225:354,1,85,2|2,0:0|3:0,0:0:0:0:
196,208,150184,1,8,3:0:0:0:
372,276,150334,1,2,0:0:0:0:
344,88,150484,1,2,0:0:0:0:
155,119,150634,6,0,P|100:188|120:268,1,170,2|2,3:0|0:0,0:0:0:0:
225,354,151084,2,0,L|212:269,1,85,2|2,3:0|0:0,0:0:0:0:
287,30,151384,2,0,L|320:236,1,170,8|2,3:0|0:0,0:0:0:0:
332,292,151834,1,0,0:0:0:0:
472,128,151984,6,0,P|388:140|360:160,1,85,2|0,3:0|0:0,0:0:0:0:
313,197,152284,1,0,0:0:0:0:
400,232,152434,1,2,3:2:0:0:
400,232,152509,1,0,0:0:0:0:
400,232,152584,1,8,3:2:0:0:
389,139,152734,1,0,0:0:0:0:
302,104,152884,1,0,0:0:0:0:
210,104,153034,5,2,3:2:0:0:
210,104,153109,1,0,0:0:0:0:
210,104,153184,1,0,0:0:0:0:
123,139,153334,1,0,0:0:0:0:
112,232,153484,1,2,3:0:0:0:
199,197,153634,1,2,3:2:0:0:
199,197,153709,1,0,0:0:0:0:
199,197,153784,1,8,3:2:0:0:
10,97,153934,2,0,P|15:187|30:301,1,170,2|0,3:0|0:0,0:0:0:0:
184,376,154384,6,0,P|236:328|244:296,1,85,2|2,3:0|0:0,0:0:0:0:
104,79,154684,2,0,P|106:121|112:164,1,85,0|2,0:0|3:0,0:0:0:0:
408,79,154984,1,8,3:0:0:0:
206,146,155134,1,2,0:0:0:0:
364,288,155284,1,2,0:0:0:0:
246,31,155434,6,0,P|164:22|104:78,1,170,2|2,3:0|0:0,0:0:0:0:
296,230,155884,2,0,L|310:116,1,85,2|2,3:0|0:0,0:0:0:0:
96,336,156184,2,0,L|64:160,1,170,8|2,3:0|0:0,0:0:0:0:
160,152,156634,1,0,0:0:0:0:
190,319,156784,5,2,3:0:0:0:
320,210,156934,2,0,P|408:208|460:264,1,170,2|2,0:0|3:0,0:0:0:0:
192,174,157384,2,0,P|104:176|52:120,1,170,8|2,3:0|0:0,0:0:0:0:
320,20,157834,6,0,L|488:42,1,170,2|2,3:0|0:0,0:0:0:0:
364,296,158284,1,2,3:0:0:0:
320,20,158434,1,2,0:0:0:0:
512,212,158584,1,8,3:0:0:0:
244,172,158734,2,0,P|160:192|112:264,1,170,2|0,3:0|0:0,0:0:0:0:
344,204,159184,6,0,P|333:162|328:120,1,85,2|0,3:0|0:0,0:0:0:0:
188,24,159484,2,0,P|146:34|104:39,1,85,2|2,0:0|3:0,0:0:0:0:
32,284,159784,2,0,L|224:308,1,170,8|2,3:0|0:0,0:0:0:0:
480,100,160234,2,0,L|288:76,1,170,2|0,3:0|0:0,0:0:0:0:
376,292,160684,6,0,P|428:252|440:212,1,85,2|0,3:0|0:0,0:0:0:0:
248,152,160984,2,0,L|266:235,1,85,8|0,3:0|0:0,0:0:0:0:
368,168,161284,1,2,0:0:0:0:
144,216,161434,1,0,0:0:0:0:
212,0,161584,6,0,L|309:14,1,85,2|0,3:0|0:0,0:0:0:0:
448,36,161884,1,2,0:0:0:0:
424,188,162034,1,2,3:0:0:0:
228,296,162184,1,8,3:2:0:0:
204,144,162334,1,0,0:0:0:0:
356,120,162484,1,2,0:0:0:0:
380,272,162634,1,2,3:0:0:0:
236,216,162784,5,0,0:0:0:0:
256,32,162934,1,0,0:0:0:0:
440,52,163084,1,2,3:0:0:0:
420,236,163234,1,0,0:0:0:0:
269,129,163384,5,2,0:0:0:0:
344,68,163534,1,0,3:0:0:0:
405,142,163684,1,0,3:0:0:0:
331,203,163834,1,0,3:0:0:0:
181,203,163984,6,0,L|85:175,1,85,2|0,3:0|0:0,0:0:0:0:
24,76,164284,2,0,P|65:70|104:53,1,85,2|2,0:0|3:0,0:0:0:0:
264,156,164584,2,0,P|268:238|207:293,1,170,8|2,3:2|0:0,0:0:0:0:
31,334,165034,6,0,L|0:168,1,170,2|0,3:0|0:0,0:0:0:0:
188,12,165484,2,0,P|224:48|264:64,1,85,2|0,3:0|0:0,0:0:0:0:
476,152,165784,1,8,3:2:0:0:
412,80,165934,1,0,0:0:0:0:
384,172,166084,2,0,L|408:288,1,85,2|0,0:0|0:0,0:0:0:0:
208,332,166384,6,0,P|224:228|232:216,1,85,2|0,3:0|0:0,0:0:0:0:
304,52,166684,2,0,P|288:156|280:168,1,85,2|2,0:0|3:0,0:0:0:0:
116,280,166984,2,0,L|100:96,1,170,8|2,3:2|0:0,0:0:0:0:
411,110,167434,6,0,L|396:280,1,170,2|0,3:0|0:0,0:0:0:0:
295,343,167884,2,0,P|279:305|278:263,1,85,2|0,3:0|0:0,0:0:0:0:
180,120,168184,1,8,3:2:0:0:
300,144,168334,1,2,3:0:0:0:
279,262,168484,2,0,L|164:240,1,85,2|0,0:0|0:0,0:0:0:0:
64,216,168784,6,0,P|48:172|56:120,1,85,2|0,3:0|0:0,0:0:0:0:
232,32,169084,2,0,P|247:75|240:128,1,85,2|2,0:0|3:0,0:0:0:0:
148,337,169384,2,0,L|164:168,1,170,8|2,3:2|0:0,0:0:0:0:
348,216,169834,6,0,P|430:204|480:136,1,170,2|0,3:0|0:0,0:0:0:0:
440,24,170284,2,0,L|348:12,1,85,2|0,3:0|0:0,0:0:0:0:
255,197,170584,1,8,3:2:0:0:
239,105,170734,1,0,0:0:0:0:
329,136,170884,2,0,P|348:171|344:227,1,85,2|0,0:0|0:0,0:0:0:0:
272,364,171184,6,0,L|160:352,1,85,2|0,3:0|0:0,0:0:0:0:
92,344,171484,1,0,0:0:0:0:
102,249,171634,1,2,3:2:0:0:
102,249,171709,1,0,0:0:0:0:
102,249,171784,1,8,3:2:0:0:
197,259,171934,1,0,0:0:0:0:
208,164,172084,1,0,0:0:0:0:
304,164,172234,5,2,3:2:0:0:
304,164,172309,1,0,0:0:0:0:
304,164,172384,1,0,0:0:0:0:
315,259,172534,1,0,0:0:0:0:
410,249,172684,1,2,3:0:0:0:
420,344,172834,1,2,3:2:0:0:
420,344,172909,1,0,0:0:0:0:
420,344,172984,1,8,3:2:0:0:
256,384,173134,2,0,L|80:340,1,170,2|0,3:0|0:0,0:0:0:0:
72,248,173584,6,0,L|52:152,1,85,2|0,3:0|0:0,0:0:0:0:
204,80,173884,2,0,P|128:60|108:40,1,85,2|2,0:0|3:0,0:0:0:0:
308,192,174184,2,0,P|384:172|432:80,1,170,8|2,3:2|0:0,0:0:0:0:
204,192,174634,6,0,L|220:376,1,170,2|0,3:0|0:0,0:0:0:0:
388,267,175084,2,0,L|304:276,1,85,2|0,3:0|0:0,0:0:0:0:
123,116,175384,2,0,L|208:108,1,85,8|0,3:2|0:0,0:0:0:0:
444,86,175684,1,2,0:0:0:0:
368,32,175834,1,0,0:0:0:0:
304,100,175984,6,0,P|302:145|312:184,1,85,2|0,3:0|0:0,0:0:0:0:
488,335,176284,2,0,P|498:294|496:252,1,85,2|2,0:0|3:0,0:0:0:0:
344,324,176584,2,0,L|156:308,1,170,8|2,3:2|0:0,0:0:0:0:
36,223,177034,6,0,P|102:173|184:188,1,170,2|0,3:0|0:0,0:0:0:0:
321,236,177484,2,0,L|332:152,1,85,2|0,3:0|0:0,0:0:0:0:
487,36,177784,1,8,3:2:0:0:
352,16,177934,1,2,3:0:0:0:
252,104,178084,2,0,L|241:188,1,85,2|0,0:0|0:0,0:0:0:0:
312,348,178384,6,0,P|368:340|400:312,1,85,2|0,3:0|0:0,0:0:0:0:
200,272,178684,2,0,L|104:256,1,85,2|2,0:0|3:0,0:0:0:0:
312,112,178984,2,0,L|479:142,1,170,8|2,3:2|0:0,0:0:0:0:
255,36,179434,6,0,P|216:107|249:182,1,170,2|0,3:0|0:0,0:0:0:0:
348,320,179884,2,0,L|431:303,1,85,2|0,3:0|0:0,0:0:0:0:
164,320,180184,2,0,L|80:303,1,85,8|0,3:2|0:0,0:0:0:0:
256,336,180484,1,2,0:0:0:0:
256,240,180634,1,0,0:0:0:0:
256,144,180784,6,0,L|256:44,1,85,2|0,3:0|0:0,0:0:0:0:
172,192,181084,1,2,0:0:0:0:
340,192,181234,1,0,0:0:0:0:
116,116,181384,1,8,3:2:0:0:
116,268,181534,1,0,0:0:0:0:
396,268,181684,1,2,0:0:0:0:
396,116,181834,1,2,3:0:0:0:
256,59,181984,5,0,0:0:0:0:
123,192,182134,1,0,0:0:0:0:
256,325,182284,1,2,3:0:0:0:
389,192,182434,1,0,0:0:0:0:
124,60,182584,5,8,3:2:0:0:
124,324,182734,1,0,3:0:0:0:
388,324,182884,1,0,3:0:0:0:
388,60,183034,1,0,3:0:0:0:
256,192,183184,5,2,3:0:0:0:
