osu file format v14

[General]
AudioFilename: heimen2.mp3
AudioLeadIn: 0
PreviewTime: 58234
Countdown: 0
SampleSet: Soft
StackLeniency: 0.3
Mode: 0
LetterboxInBreaks: 0
WidescreenStoryboard: 0

[Editor]
Bookmarks: 183184
DistanceSpacing: 1.1
BeatDivisor: 4
GridSize: 4
TimelineZoom: 1.3

[Metadata]
Title:Heimenkyou
TitleUnicode:平面鏡
Artist:Reol
ArtistUnicode:Reol
Creator:Frey
Version:Insane
Source:
Tags:虚構集 れをる mirror _Stan stan
BeatmapID:1812658
BeatmapSetID:867074

[Difficulty]
HPDrainRate:7
CircleSize:4
OverallDifficulty:7
ApproachRate:9
SliderMultiplier:3.2
SliderTickRate:1

[Events]
//Background and Video events
0,0,"68983513_p0.jpg",0,0
//Break Periods
2,1284,3784
2,6084,7384
2,77784,85234
//Storyboard Layer 0 (Background)
//Storyboard Layer 1 (Fail)
//Storyboard Layer 2 (Pass)
//Storyboard Layer 3 (Foreground)
//Storyboard Sound Samples

[TimingPoints]
784,600,4,2,1,80,1,0
784,-153.846153846154,4,2,1,80,0,0
10384,-117.647058823529,4,2,1,50,0,0
11584,-117.647058823529,4,2,1,55,0,0
12784,-117.647058823529,4,2,1,60,0,0
13984,-117.647058823529,4,2,1,65,0,0
15184,-117.647058823529,4,2,1,70,0,0
16384,-117.647058823529,4,2,1,75,0,0
17584,-117.647058823529,4,2,1,80,0,0
18784,-100,4,2,1,80,0,0
19534,-100,4,2,1,65,0,0
19834,-100,4,2,1,80,0,0
57184,-100,4,2,1,50,0,0
58084,-153.846153846154,4,2,1,50,0,0
58309,-153.846153846154,4,2,1,40,0,0
58384,-100,4,2,1,82,0,1
75184,-100,4,2,1,82,0,0
77584,-100,4,2,1,50,0,0
85834,-117.647058823529,4,2,1,80,0,0
86734,-117.647058823529,4,2,1,65,0,0
87034,-117.647058823529,4,2,1,80,0,0
87184,-100,4,2,1,80,0,0
118084,-100,4,2,1,60,0,0
118384,-100,4,2,1,80,0,0
120484,-100,4,2,1,70,0,0
120784,-117.647058823529,4,2,1,80,0,0
123184,-100,4,2,1,80,0,0
125584,-100,4,2,1,82,0,1
142384,-100,4,2,1,82,0,0
143584,-100,4,2,1,80,0,0
144784,-100,4,2,1,82,0,1
161584,-100,4,2,1,82,0,0
163984,-100,4,2,1,80,0,0

[Colours]
Combo1 : 36,7,233
Combo2 : 255,113,184
Combo3 : 17,136,255
Combo4 : 251,4,48

[HitObjects]
256,28,784,5,0,0:0:0:0:
256,284,1084,1,0,0:0:0:0:
256,284,4384,6,0,B|248:316|264:320|256:348,1,64.9999970245363
256,28,4984,1,0,0:0:0:0:
128,232,5584,5,0,0:0:0:0:
384,232,5884,1,0,0:0:0:0:
256,352,7984,6,0,B|244:316|244:316|268:304|268:304|224:239|276:224|256:167,1,207.999990478516
128,100,8884,5,2,0:0:0:0:
384,100,9034,1,0,0:0:0:0:
384,100,10384,5,0,0:0:0:0:
128,100,10684,1,0,0:0:0:0:
384,100,10984,2,0,L|372:248,1,136.000002593994
256,336,11434,1,0,0:0:0:0:
208,148,11734,5,0,0:0:0:0:
304,148,11884,1,0,0:0:0:0:
139,235,12184,2,0,L|128:100,1,136.000002593994
256,328,12784,5,0,0:0:0:0:
256,56,13084,1,0,0:0:0:0:
256,328,13384,2,0,P|321:314|369:267,1,136.000002593994
256,192,13834,1,0,0:0:0:0:
64,244,14134,5,0,0:0:0:0:
64,140,14284,1,0,0:0:0:0:
256,96,14584,2,0,L|120:68,1,136.000002593994
389,123,15184,5,0,0:0:0:0:
122,260,15484,1,0,0:0:0:0:
389,123,15784,2,0,P|416:184|399:248,1,136.000002593994
256,340,16234,1,0,0:0:0:0:
180,192,16534,5,0,0:0:0:0:
332,192,16684,1,0,0:0:0:0:
112,248,16984,2,0,P|95:184|122:123,1,136.000002593994
256,44,17584,5,0,0:0:0:0:
256,340,17884,1,0,0:0:0:0:
256,44,18184,2,0,L|408:64,1,136.000002593994
464,192,18634,1,2,0:0:0:0:
464,192,18934,5,2,0:0:0:0:
444,304,19084,2,0,L|336:288,1,80
256,212,19384,6,0,L|256:192,4,20,0|0|0|0|0,0:0|0:0|0:0|0:0|3:0,0:0:0:0:
172,164,19684,1,0,3:0:0:0:
340,164,19834,1,0,0:0:0:0:
208,84,19984,6,0,L|112:72,1,80,2|0,3:0|0:0,0:0:0:0:
4,142,20284,2,0,L|84:152,1,80,0|2,0:0|3:0,0:0:0:0:
264,176,20584,2,0,P|136:224|88:256,1,160,8|0,3:2|0:0,0:0:0:0:
40,284,21034,1,2,3:0:0:0:
120,324,21184,5,0,0:0:0:0:
200,288,21334,1,0,0:0:0:0:
264,175,21484,2,0,P|255:136|248:97,1,80,2|0,3:0|0:0,0:0:0:0:
392,200,21784,2,0,P|440:128|424:56,1,160,8|0,3:2|0:0,0:0:0:0:
340,68,22234,1,0,0:0:0:0:
225,213,22384,6,0,L|305:207,1,80,2|0,3:0|0:0,0:0:0:0:
392,200,22684,1,0,0:0:0:0:
436,280,22834,1,2,3:0:0:0:
276,296,22984,2,0,L|108:312,1,160,8|0,3:2|0:0,0:0:0:0:
24,228,23434,1,2,3:0:0:0:
52,143,23584,6,0,P|63:105|70:66,1,80
217,166,23884,2,0,P|179:154|140:148,1,80,2|0,3:0|0:0,0:0:0:0:
256,36,24184,2,0,P|336:56|408:12,1,160,8|0,3:2|0:0,0:0:0:0:
400,20,24634,1,0,0:0:0:0:
488,92,24784,6,0,L|476:184,1,80,2|0,3:0|0:0,0:0:0:0:
328,217,25084,2,0,L|408:228,1,80,0|2,0:0|3:0,0:0:0:0:
316,128,25384,2,0,B|233:117|240:152|156:140,1,160,8|0,3:2|0:0,0:0:0:0:
80,100,25834,1,2,3:0:0:0:
80,100,25909,1,0,0:0:0:0:
80,100,25984,5,0,0:0:0:0:
196,60,26134,1,0,0:0:0:0:
158,140,26284,2,0,P|134:192|126:240,1,80,2|0,3:0|0:0,0:0:0:0:
236,350,26584,2,0,P|255:275|218:206,1,160,8|0,3:2|0:0,0:0:0:0:
144,288,27034,1,0,0:0:0:0:
236,350,27184,6,0,L|320:339,1,80,2|0,3:0|0:0,0:0:0:0:
443,254,27484,2,0,L|364:264,1,80,0|2,0:0|3:0,0:0:0:0:
272,164,27784,1,8,3:2:0:0:
308,84,27934,1,0,0:0:0:0:
396,72,28084,2,0,P|408:124|404:160,1,80,0|2,0:0|3:0,0:0:0:0:
259,263,28384,6,0,P|249:225|249:185,1,80
346,233,28684,2,0,P|346:273|336:312,1,80,2|0,3:0|0:0,0:0:0:0:
144,284,28984,2,0,P|143:244|154:205,1,80,8|0,3:2|0:0,0:0:0:0:
200,128,29284,1,0,0:0:0:0:
200,128,29434,1,0,0:0:0:0:
76,48,29584,6,0,L|56:152,1,80,2|0,3:0|0:0,0:0:0:0:
44,212,29884,1,0,0:0:0:0:
144,284,30034,1,2,3:0:0:0:
224,192,30184,2,0,P|304:168|380:176,1,160,8|0,3:2|0:0,0:0:0:0:
464,204,30634,1,2,3:0:0:0:
360,84,30784,5,0,0:0:0:0:
445,113,30934,1,0,0:0:0:0:
379,175,31084,2,0,P|365:212|356:252,1,80,2|0,3:0|0:0,0:0:0:0:
220,364,31384,5,8,3:2:0:0:
208,276,31534,1,0,0:0:0:0:
112,156,31684,1,0,0:0:0:0:
124,244,31834,1,0,0:0:0:0:
196,188,31984,2,0,L|296:172,1,80,2|0,3:0|0:0,0:0:0:0:
128,100,32284,5,0,0:0:0:0:
84,204,32434,1,2,3:0:0:0:
196,188,32584,2,0,L|296:172,1,80,8|0,3:2|0:0,0:0:0:0:
484,148,32884,1,0,0:0:0:0:
500,28,33034,1,2,3:0:0:0:
392,80,33184,2,0,P|380:152|372:184,1,80
360,248,33484,5,2,3:0:0:0:
344,336,33634,1,0,0:0:0:0:
240,200,33784,2,0,P|96:220|48:224,1,160,8|0,3:2|0:0,0:0:0:0:
4,264,34234,1,0,0:0:0:0:
48,144,34384,6,0,P|127:135|206:122,1,160,2|0,3:0|0:0,0:0:0:0:
292,108,34834,1,2,3:0:0:0:
413,49,34984,2,0,P|374:41|335:31,1,80,8|0,3:2|0:0,0:0:0:0:
360,168,35284,2,0,P|399:175|438:185,1,80,0|2,0:0|3:0,0:0:0:0:
292,108,35584,5,0,0:0:0:0:
276,196,35734,1,0,0:0:0:0:
260,284,35884,2,0,L|240:388,1,80,2|0,3:0|0:0,0:0:0:0:
56,300,36184,2,0,P|48:220|88:152,1,160,8|0,3:2|0:0,0:0:0:0:
164,108,36634,1,0,0:0:0:0:
180,220,36784,6,0,L|192:308,1,80,2|0,3:0|0:0,0:0:0:0:
332,220,37084,2,0,L|320:132,1,80,0|2,0:0|3:0,0:0:0:0:
255,20,37384,2,0,P|216:17|176:12,1,80,8|0,3:2|0:0,0:0:0:0:
32,132,37684,1,0,0:0:0:0:
164,100,37834,1,2,3:0:0:0:
84,56,37984,5,0,0:0:0:0:
112,172,38134,1,0,0:0:0:0:
228,184,38284,2,0,P|276:160|300:120,1,80,2|0,3:0|0:0,0:0:0:0:
376,12,38584,2,0,L|388:128,1,80,8|0,3:2|3:0,0:0:0:0:
396,180,38884,1,0,3:0:0:0:
464,124,39034,1,0,0:0:0:0:
376,12,39184,6,0,B|296:0|300:56|220:44,1,160,2|0,3:0|0:0,0:0:0:0:
164,140,39634,1,2,3:0:0:0:
312,112,39784,2,0,P|389:121|472:136,1,160,8|0,3:2|0:0,0:0:0:0:
480,288,40234,1,2,3:0:0:0:
392,296,40384,6,0,P|336:300|300:308,1,80
176,244,40684,2,0,P|216:242|256:236,1,80,2|0,3:0|0:0,0:0:0:0:
204,120,40984,1,8,3:2:0:0:
120,84,41134,1,0,0:0:0:0:
100,172,41284,2,0,L|76:264,1,80
216,356,41584,6,0,L|236:278,1,80,2|0,3:0|0:0,0:0:0:0:
256,192,41884,1,0,0:0:0:0:
256,192,42034,1,2,3:0:0:0:
352,108,42184,2,0,P|408:100|440:92,1,80,8|0,3:2|0:0,0:0:0:0:
472,16,42484,1,0,0:0:0:0:
472,16,42634,1,2,3:0:0:0:
287,44,42784,6,0,P|267:77|263:117,1,80
291,261,43084,2,0,P|312:227|316:188,1,80,2|0,3:0|0:0,0:0:0:0:
140,176,43384,2,0,P|146:255|151:335,1,160,8|0,3:2|0:0,0:0:0:0:
256,372,43834,1,0,0:0:0:0:
361,335,43984,6,0,P|366:255|372:175,1,160,2|0,3:0|0:0,0:0:0:0:
376,88,44434,1,2,3:0:0:0:
256,12,44584,2,0,P|184:40|96:32,1,160,8|0,3:2|0:0,0:0:0:0:
20,0,45034,1,2,3:0:0:0:
40,124,45184,6,0,L|56:216,1,80
72,292,45484,2,0,P|101:264|136:246,1,80,2|0,3:0|0:0,0:0:0:0:
132,156,45784,5,8,3:2:0:0:
256,344,46084,1,0,0:0:0:0:
256,72,46384,5,2,3:0:0:0:
340,48,46534,1,0,0:0:0:0:
320,136,46684,2,0,P|288:156|232:160,1,80,0|2,0:0|3:0,0:0:0:0:
172,48,46984,5,8,3:2:0:0:
424,192,47284,1,0,0:0:0:0:
88,192,47584,5,0,0:0:0:0:
104,280,47734,1,0,0:0:0:0:
172,220,47884,2,0,L|272:200,1,80,2|0,3:0|0:0,0:0:0:0:
20,252,48184,5,8,3:2:0:0:
336,184,48484,1,0,0:0:0:0:
140,28,48784,6,0,P|124:64|125:104,1,80,2|0,3:0|0:0,0:0:0:0:
290,87,49084,2,0,P|251:87|211:79,1,80,0|2,0:0|3:0,0:0:0:0:
328,248,49384,1,8,3:2:0:0:
362,141,49534,1,0,0:0:0:0:
411,277,49684,1,0,0:0:0:0:
447,170,49834,6,0,P|438:96|368:52,1,160,2|0,3:0|0:0,0:0:0:0:
248,92,50284,2,0,P|236:140|232:188,1,80,2|0,3:0|0:0,0:0:0:0:
156,348,50584,2,0,P|120:216|116:192,1,160,8|0,3:2|0:0,0:0:0:0:
116,193,51034,1,0,0:0:0:0:
100,80,51184,5,2,3:0:0:0:
16,116,51334,1,0,0:0:0:0:
28,204,51484,2,0,P|40:272|52:312,1,80
156,348,51784,2,0,P|214:296|213:219,1,160,8|0,3:2|0:0,0:0:0:0:
132,260,52234,1,2,3:0:0:0:
299,219,52384,6,0,P|338:225|377:233,1,80
204,132,52684,2,0,P|169:112|128:80,1,80,2|0,3:0|0:0,0:0:0:0:
308,132,52984,2,0,P|342:112|384:80,1,80,8|0,3:2|0:0,0:0:0:0:
211,220,53284,2,0,P|172:226|133:234,1,80
8,180,53584,5,2,3:0:0:0:
48,256,53734,1,0,0:0:0:0:
92,159,53884,2,0,P|84:120|78:81,1,80,0|2,0:0|3:0,0:0:0:0:
224,16,54184,2,0,P|234:95|249:173,1,160,8|0,3:2|0:0,0:0:0:0:
312,240,54634,1,2,3:0:0:0:
400,256,54784,6,0,P|468:240|500:224,1,80
508,88,55084,2,0,P|440:104|408:120,1,80,2|0,3:0|0:0,0:0:0:0:
312,240,55384,1,8,3:2:0:0:
312,240,55534,1,0,0:0:0:0:
268,164,55684,1,0,0:0:0:0:
244,300,55834,1,0,0:0:0:0:
128,320,55984,6,0,L|112:160,1,160,2|0,3:0|0:0,0:0:0:0:
128,72,56434,1,2,3:0:0:0:
256,92,56584,2,0,P|295:89|331:72,1,80,8|0,3:2|0:0,0:0:0:0:
276,4,56884,1,0,0:0:0:0:
184,144,57034,6,0,L|176:236,1,80,2|0,3:0|0:0,0:0:0:0:
248,280,57334,1,0,0:0:0:0:
328,240,57484,2,0,L|336:148,1,80,2|0,0:0|0:0,0:0:0:0:
264,104,57784,1,0,0:0:0:0:
264,104,57934,1,0,0:0:0:0:
328,240,58084,6,0,L|405:229,1,77.9999964294435,2|0,0:0|0:0,0:0:0:0:
440,248,58384,6,0,L|448:156,1,80,2|2,3:0|0:0,0:0:0:0:
324,36,58684,2,0,L|317:115,1,80,0|2,0:0|3:0,0:0:0:0:
256,292,58984,1,8,3:0:0:0:
160,236,59134,1,2,0:0:0:0:
256,180,59284,1,2,0:0:0:0:
139,321,59434,6,0,P|79:273|80:195,1,160,2|2,3:0|0:0,0:0:0:0:
120,116,59884,2,0,L|199:104,1,80,2|2,3:0|0:0,0:0:0:0:
332,208,60184,2,0,L|173:189,1,160,8|2,3:0|0:0,0:0:0:0:
284,284,60634,5,0,0:0:0:0:
304,124,60784,1,2,3:0:0:0:
376,284,60934,2,0,P|420:220|396:147,1,160,2|2,0:0|3:0,0:0:0:0:
228,56,61384,2,0,L|244:240,1,160,8|2,3:0|0:0,0:0:0:0:
124,324,61834,6,0,L|110:164,1,160,2|2,3:0|0:0,0:0:0:0:
96,28,62284,1,2,3:0:0:0:
28,208,62434,1,2,0:0:0:0:
16,72,62584,1,8,3:0:0:0:
152,100,62734,2,0,P|224:96|296:24,1,160,2|0,3:0|0:0,0:0:0:0:
368,0,63184,6,0,L|382:79,1,80,2|0,3:0|0:0,0:0:0:0:
478,198,63484,2,0,L|464:120,1,80,2|2,0:0|3:0,0:0:0:0:
316,252,63784,1,8,3:0:0:0:
284,144,63934,1,2,0:0:0:0:
392,168,64084,1,2,0:0:0:0:
343,335,64234,6,0,B|272:340|272:340|252:332|252:332|156:340,1,160,2|2,3:0|0:0,0:0:0:0:
75,307,64684,2,0,P|62:270|62:230,1,80,2|2,3:0|0:0,0:0:0:0:
215,133,64984,2,0,P|210:210|148:256,1,160,8|2,3:0|0:0,0:0:0:0:
132,168,65434,1,0,0:0:0:0:
180,52,65584,6,0,P|256:28|332:52,1,160,2|0,3:0|0:0,0:0:0:0:
405,156,66034,1,2,3:2:0:0:
405,156,66109,1,0,0:0:0:0:
405,156,66184,2,0,L|389:332,1,160,8|0,3:2|0:0,0:0:0:0:
256,376,66634,1,2,3:2:0:0:
256,376,66709,1,0,0:0:0:0:
256,376,66784,2,0,B|280:292|232:292|256:216,1,160,0|2,0:0|3:0,0:0:0:0:
107,156,67234,1,2,3:2:0:0:
107,156,67309,1,0,0:0:0:0:
107,156,67384,2,0,L|116:248,1,80,8|2,3:2|3:0,0:0:0:0:
124,324,67684,1,0,0:0:0:0:
180,84,67984,6,0,P|140:77|101:67,1,80,2|2,3:0|0:0,0:0:0:0:
245,183,68284,2,0,P|285:176|323:166,1,80,0|2,0:0|3:0,0:0:0:0:
492,128,68584,1,8,3:0:0:0:
392,84,68734,1,2,0:0:0:0:
408,196,68884,1,2,0:0:0:0:
451,19,69034,6,0,P|376:0|313:45,1,160,2|2,3:0|0:0,0:0:0:0:
288,132,69484,2,0,L|304:210,1,80,2|2,3:0|0:0,0:0:0:0:
440,316,69784,2,0,L|468:152,1,160,8|2,3:0|0:0,0:0:0:0:
288,132,70234,5,0,0:0:0:0:
448,68,70384,1,2,3:0:0:0:
337,208,70534,2,0,P|260:219|204:166,1,160,2|2,0:0|3:0,0:0:0:0:
28,92,70984,2,0,P|103:86|188:76,1,160,8|2,3:0|0:0,0:0:0:0:
160,252,71434,6,0,P|84:257|0:268,1,160,2|2,3:0|0:0,0:0:0:0:
124,168,71884,1,2,3:0:0:0:
228,328,72034,1,2,0:0:0:0:
236,208,72184,1,8,3:0:0:0:
112,352,72334,2,0,P|56:304|60:212,1,160,2|0,3:0|0:0,0:0:0:0:
124,168,72784,6,0,P|132:92|128:64,1,80,2|0,3:0|0:0,0:0:0:0:
231,16,73084,2,0,P|223:55|224:95,1,80,2|2,0:0|3:0,0:0:0:0:
348,235,73384,2,0,P|365:160|316:101,1,160,8|2,3:0|0:0,0:0:0:0:
163,148,73834,2,0,P|146:223|195:282,1,160,2|0,3:0|0:0,0:0:0:0:
248,148,74284,6,0,L|233:69,1,80,2|0,3:0|0:0,0:0:0:0:
264,236,74584,2,0,L|278:314,1,80,8|0,3:0|0:0,0:0:0:0:
332,176,74884,1,2,0:0:0:0:
180,208,75034,1,0,0:0:0:0:
140,288,75184,6,0,P|76:276|48:268,1,80,2|0,3:0|0:0,0:0:0:0:
16,196,75484,1,2,0:0:0:0:
32,108,75634,1,0,0:0:0:0:
116,140,75784,2,0,P|156:128|188:100,1,80,8|0,3:2|0:0,0:0:0:0:
204,16,76084,1,2,0:0:0:0:
292,32,76234,1,2,3:0:0:0:
336,112,76384,6,0,L|320:204,1,80
308,280,76684,1,2,3:0:0:0:
224,308,76834,1,0,0:0:0:0:
144,232,76984,2,0,P|136:192|144:152,1,80,8|0,3:2|3:0,0:0:0:0:
256,80,77284,1,0,3:0:0:0:
256,192,77434,1,0,3:0:0:0:
256,304,77584,5,0,0:0:0:0:
256,376,85834,6,0,B|252:324|252:324|260:292|260:292|256:240,1,136.000002593994,2|0,3:0|0:0,0:0:0:0:
256,143,86284,1,2,3:0:0:0:
256,143,86584,6,0,L|256:123,4,17.0000003242493,0|0|0|0|0,0:0|0:0|0:0|0:0|3:0,0:0:0:0:
256,241,86884,1,0,3:0:0:0:
256,336,87034,1,0,0:0:0:0:
148,312,87184,6,0,L|70:295,1,80,2|0,3:0|0:0,0:0:0:0:
8,176,87484,2,0,P|47:176|85:162,1,80,0|2,0:0|3:0,0:0:0:0:
192,48,87784,2,0,L|200:216,1,160,8|0,3:2|0:0,0:0:0:0:
256,276,88234,1,2,3:0:0:0:
313,207,88384,6,0,P|344:192|392:192,1,80
468,236,88684,2,0,L|496:140,1,80,2|0,3:0|0:0,0:0:0:0:
438,35,88984,2,0,L|416:112,1,80,8|0,3:2|0:0,0:0:0:0:
313,207,89284,1,0,0:0:0:0:
232,168,89434,1,0,0:0:0:0:
300,80,89584,5,2,3:0:0:0:
384,156,89734,2,0,P|400:228|392:324,1,160,0|2,0:0|3:0,0:0:0:0:
244,368,90184,2,0,P|184:324|196:232,1,160,8|0,3:2|0:0,0:0:0:0:
232,168,90634,1,2,3:0:0:0:
248,79,90784,6,0,P|243:40|236:0,1,80
132,84,91083,2,0,P|136:123|143:163,1,80,2|0,3:0|0:0,0:0:0:0:
280,256,91384,2,0,P|319:250|359:243,1,80,8|0,3:2|0:0,0:0:0:0:
352,152,91684,1,0,0:0:0:0:
264,168,91834,1,0,0:0:0:0:
207,312,91984,6,0,P|128:302|49:290,1,160,2|0,3:0|0:0,0:0:0:0:
0,212,92434,1,2,3:0:0:0:
141,133,92584,2,0,P|106:152|66:152,1,80,8|0,3:2|0:0,0:0:0:0:
84,64,92884,1,0,0:0:0:0:
172,48,93034,1,2,3:0:0:0:
228,120,93184,6,0,L|208:296,1,160,0|2,0:0|3:0,0:0:0:0:
200,368,93634,1,0,0:0:0:0:
368,320,93784,2,0,P|360:252|348:228,1,80,8|0,3:2|0:0,0:0:0:0:
209,278,94084,2,0,L|108:304,1,80
32,192,94384,6,0,L|212:148,1,160,2|0,3:0|0:0,0:0:0:0:
276,132,94834,1,2,3:0:0:0:
357,258,94984,2,0,P|384:184|364:108,1,160,8|0,3:2|0:0,0:0:0:0:
316,32,95434,1,2,3:0:0:0:
228,20,95584,6,0,B|216:124,1,80
288,188,95884,2,0,B|367:178,1,80,2|0,3:0|0:0,0:0:0:0:
480,168,96184,2,0,B|470:247,1,80,8|0,3:2|0:0,0:0:0:0:
416,104,96484,1,0,0:0:0:0:
416,104,96634,1,0,0:0:0:0:
296,120,96784,6,0,B|284:200|332:200|324:284,1,160,2|0,3:0|0:0,0:0:0:0:
324,364,97234,1,2,3:0:0:0:
188,320,97384,2,0,B|200:240|152:240|160:156,1,160,8|0,3:2|0:0,0:0:0:0:
160,76,97834,1,2,3:0:0:0:
256,132,97984,6,0,P|334:128|396:79,1,160,0|2,0:0|3:0,0:0:0:0:
440,0,98434,1,0,0:0:0:0:
488,136,98584,2,0,L|472:312,1,160,8|0,3:2|0:0,0:0:0:0:
384,348,99034,1,0,0:0:0:0:
392,260,99184,6,0,L|403:149,1,80,2|0,3:0|0:0,0:0:0:0:
309,101,99484,1,0,0:0:0:0:
309,101,99634,1,2,3:0:0:0:
184,128,99784,2,0,P|178:220|212:296,1,160,8|0,3:2|0:0,0:0:0:0:
280,332,100234,1,2,3:0:0:0:
328,256,100384,6,0,P|333:163|300:88,1,160,0|2,0:0|3:0,0:0:0:0:
232,52,100834,1,0,0:0:0:0:
72,84,100984,2,0,L|60:188,1,80,8|0,3:2|0:0,0:0:0:0:
52,252,101284,2,0,L|40:356,1,80,0|0,0:0|0:0,0:0:0:0:
168,348,101584,6,0,P|190:315|196:275,1,80,2|0,3:0|0:0,0:0:0:0:
264,172,101884,2,0,P|224:179|185:186,1,80,0|2,0:0|3:0,0:0:0:0:
284,304,102184,2,0,P|410:281|474:273,1,160,8|0,3:2|0:0,0:0:0:0:
508,124,102634,1,2,3:0:0:0:
508,124,102784,5,0,0:0:0:0:
504,212,102934,1,0,0:0:0:0:
428,164,103084,2,0,P|368:140|348:112,1,80,2|0,3:0|0:0,0:0:0:0:
224,0,103384,2,0,L|204:164,1,160,8|0,3:2|0:0,0:0:0:0:
196,248,103834,1,0,0:0:0:0:
124,196,103984,6,0,P|56:188|28:180,1,80,2|0,3:0|0:0,0:0:0:0:
60,60,104284,2,0,P|99:68|139:70,1,80,0|2,0:0|3:0,0:0:0:0:
324,120,104584,1,8,3:2:0:0:
312,208,104734,1,0,0:0:0:0:
240,156,104884,2,0,P|232:92|228:48,1,80,0|2,0:0|3:0,0:0:0:0:
396,20,105184,6,0,P|432:84|416:172,1,160,0|2,0:0|3:0,0:0:0:0:
360,264,105634,1,0,0:0:0:0:
256,308,105784,2,0,P|188:296|152:292,1,80,8|0,3:2|3:0,0:0:0:0:
72,196,106084,1,0,3:0:0:0:
88,284,106234,1,0,0:0:0:0:
160,208,106384,6,0,P|172:164|172:128,1,80,2|0,3:0|0:0,0:0:0:0:
75,21,106684,2,0,P|76:61|88:100,1,80,0|2,0:0|3:0,0:0:0:0:
214,51,106984,2,0,P|293:37|380:20,1,160,8|0,3:2|0:0,0:0:0:0:
460,4,107434,1,2,3:0:0:0:
392,108,107584,6,0,P|400:152|428:216,1,80
477,287,107884,2,0,P|494:251|496:212,1,80,2|0,3:0|0:0,0:0:0:0:
404,336,108184,2,0,P|324:320|296:248,1,160,8|0,3:2|0:0,0:0:0:0:
288,164,108634,1,0,0:0:0:0:
180,140,108784,6,0,L|196:312,1,160,2|0,3:0|0:0,0:0:0:0:
295,253,109234,1,2,3:0:0:0:
329,116,109384,2,0,P|295:96|256:92,1,80,8|0,3:2|0:0,0:0:0:0:
180,140,109684,2,0,P|140:135|106:115,1,80,0|2,0:0|3:0,0:0:0:0:
52,44,109984,5,0,0:0:0:0:
16,128,110134,1,0,0:0:0:0:
84,240,110284,2,0,L|180:224,1,80,2|0,3:0|0:0,0:0:0:0:
357,280,110584,2,0,L|200:308,1,160,8|0,3:2|0:0,0:0:0:0:
112,324,111034,1,0,0:0:0:0:
162,226,111184,6,0,P|169:186|182:149,1,80,2|0,3:0|0:0,0:0:0:0:
335,119,111484,2,0,P|298:106|258:99,1,80,0|2,0:0|3:0,0:0:0:0:
380,198,111784,2,0,P|433:144|411:71,1,160,8|0,3:2|0:0,0:0:0:0:
332,32,112234,1,2,3:0:0:0:
310,119,112384,6,0,L|289:196,1,80
368,300,112684,2,0,P|432:276|460:276,1,80,2|0,3:0|0:0,0:0:0:0:
504,136,112984,2,0,P|412:112|376:52,1,160,8|0,3:2|0:0,0:0:0:0:
292,32,113434,1,0,0:0:0:0:
224,92,113584,6,0,P|180:100|124:116,1,80,2|0,3:0|0:0,0:0:0:0:
16,164,113884,2,0,P|54:173|94:180,1,80,0|2,0:0|3:0,0:0:0:0:
151,356,114184,2,0,P|168:280|180:198,1,160,8|0,3:2|0:0,0:0:0:0:
94,180,114634,1,2,3:0:0:0:
32,244,114784,6,0,L|48:344,1,80
151,356,115084,2,0,P|191:360|251:372,1,80,2|0,3:0|0:0,0:0:0:0:
392,380,115384,2,0,P|431:313|407:239,1,160,8|0,3:2|0:0,0:0:0:0:
343,304,115834,1,0,0:0:0:0:
252,296,115984,6,0,L|264:124,1,160,2|0,3:0|0:0,0:0:0:0:
416,84,116434,1,2,3:0:0:0:
408,196,116584,2,0,L|396:355,1,160,8|0,3:2|0:0,0:0:0:0:
296,304,117034,2,0,L|137:292,1,160,2|0,3:0|0:0,0:0:0:0:
48,284,117484,2,0,P|44:244|39:204,1,80,2|0,3:0|3:0,3:0:0:0:
140,140,117784,5,0,0:0:0:0:
256,180,117934,1,0,0:0:0:0:
372,140,118084,1,2,0:0:0:0:
372,140,118384,6,0,L|383:299,1,160,2|0,3:0|0:0,0:0:0:0:
244,377,118833,1,2,3:0:0:0:
236,265,118984,2,0,L|224:106,1,160,8|0,3:2|0:0,0:0:0:0:
96,85,119434,2,0,P|60:145|72:233,1,160,2|0,3:0|0:0,0:0:0:0:
200,328,119884,2,0,L|284:320,1,80,2|0,3:0|0:0,0:0:0:0:
392,312,120184,5,0,0:0:0:0:
472,192,120334,1,0,0:0:0:0:
392,72,120484,1,2,0:0:0:0:
392,72,120784,6,0,B|316:64|328:104|252:96,1,136.000002593994,2|0,3:0|0:0,0:0:0:0:
68,56,121384,2,0,P|80:136|88:220,1,136.000002593994,2|0,0:0|0:0,0:0:0:0:
144,268,121834,6,0,P|204:256|232:176,1,136.000002593994,2|0,0:0|0:0,0:0:0:0:
216,100,122284,2,0,P|209:66|205:32,1,68.0000012969971,2|0,3:0|0:0,0:0:0:0:
300,52,122584,2,0,L|432:28,2,102.000001945496,2|2|2,0:0|0:0|0:0,0:0:0:0:
440,228,123184,5,6,0:0:0:0:
220,124,124234,6,0,L|200:268,1,120,8|0,3:2|0:0,0:0:0:0:
292,260,124534,2,0,L|312:116,1,120,8|0,3:2|0:0,0:0:0:0:
280,56,124834,1,0,3:0:0:0:
132,108,124984,6,0,L|100:104,4,20,0|0|0|0|0,0:0|0:0|0:0|0:0|3:0,0:0:0:0:
308,141,125284,1,0,3:0:0:0:
192,39,125434,1,0,0:0:0:0:
160,192,125584,6,0,P|152:240|140:296,1,80,2|2,3:0|0:0,0:0:0:0:
333,306,125884,2,0,P|294:297|255:291,1,80,0|2,0:0|3:0,0:0:0:0:
440,144,126184,1,8,3:0:0:0:
332,180,126334,1,2,0:0:0:0:
412,256,126484,1,2,0:0:0:0:
364,96,126634,6,0,P|283:84|204:68,1,160,2|2,3:0|0:0,0:0:0:0:
131,16,127084,2,0,P|117:53|118:92,1,80,2|2,3:0|0:0,0:0:0:0:
152,313,127384,2,0,P|164:236|180:156,1,160,8|2,3:0|0:0,0:0:0:0:
256,240,127834,5,0,0:0:0:0:
80,208,127984,1,2,3:0:0:0:
240,328,128134,2,0,P|314:309|344:238,1,160,2|2,0:0|3:0,0:0:0:0:
271,55,128584,2,0,P|197:74|167:145,1,160,8|2,3:0|0:0,0:0:0:0:
96,328,129034,6,0,L|81:168,1,160,2|2,3:0|0:0,0:0:0:0:
64,8,129484,1,2,3:0:0:0:
167,145,129634,1,2,0:0:0:0:
0,112,129784,1,8,3:0:0:0:
156,24,129934,2,0,P|236:16|308:52,1,160,2|0,3:0|0:0,0:0:0:0:
344,132,130384,6,0,L|352:216,1,80,2|0,3:0|0:0,0:0:0:0:
480,200,130684,2,0,L|472:120,1,80,2|2,0:0|3:0,0:0:0:0:
240,88,130984,1,8,3:0:0:0:
252,200,131134,1,2,0:0:0:0:
344,132,131284,1,2,0:0:0:0:
175,152,131434,6,0,P|99:139|53:75,1,160,2|2,3:0|0:0,0:0:0:0:
172,24,131884,2,0,L|260:36,1,80,2|2,3:0|0:0,0:0:0:0:
422,122,132184,2,0,L|264:144,1,160,8|2,3:0|0:0,0:0:0:0:
175,152,132634,1,0,0:0:0:0:
264,240,132784,6,0,L|422:261,1,160,2|0,3:0|0:0,0:0:0:0:
268,355,133234,1,2,3:2:0:0:
268,355,133309,1,0,0:0:0:0:
268,355,133384,2,0,P|192:340|152:268,1,160,8|0,3:2|0:0,0:0:0:0:
152,111,133834,1,2,3:2:0:0:
152,111,133909,1,0,0:0:0:0:
152,111,133984,2,0,P|191:44|267:28,1,160,0|2,0:0|3:0,0:0:0:0:
388,112,134434,1,2,3:2:0:0:
388,112,134509,1,0,0:0:0:0:
388,111,134584,2,0,L|378:190,1,80,8|2,3:2|3:0,0:0:0:0:
368,281,134884,1,0,0:0:0:0:
133,190,135184,6,0,L|124:111,1,80,2|2,3:0|0:0,0:0:0:0:
51,256,135484,2,0,P|89:270|122:292,1,80,0|2,0:0|3:0,0:0:0:0:
324,120,135784,1,8,3:0:0:0:
212,136,135934,1,2,0:0:0:0:
280,224,136084,1,2,0:0:0:0:
144,48,136234,6,0,P|132:116|136:212,1,160,2|2,3:0|0:0,0:0:0:0:
208,259,136684,2,0,P|245:246|279:224,1,80,2|2,3:0|0:0,0:0:0:0:
480,104,136984,2,0,L|312:92,1,160,8|2,3:0|0:0,0:0:0:0:
232,84,137434,5,0,0:0:0:0:
368,16,137584,1,2,3:0:0:0:
356,176,137734,2,0,P|348:276|344:356,1,160,2|2,0:0|3:0,0:0:0:0:
156,208,138184,2,0,P|162:128|167:48,1,160,8|2,3:0|0:0,0:0:0:0:
28,52,138634,6,0,P|-11:118|19:188,1,160,2|2,3:0|0:0,0:0:0:0:
156,208,139084,1,2,3:0:0:0:
167,48,139234,1,2,0:0:0:0:
80,123,139384,1,8,3:0:0:0:
243,133,139534,2,0,L|412:144,1,160,2|0,3:0|0:0,0:0:0:0:
500,252,139984,6,0,P|460:250|422:261,1,80,2|0,3:0|0:0,0:0:0:0:
298,349,140284,2,0,P|337:350|376:339,1,80,2|2,0:0|3:0,0:0:0:0:
316,164,140584,2,0,P|228:176|188:252,1,160,8|2,3:0|0:0,0:0:0:0:
88,356,141034,2,0,L|76:192,1,160,2|0,3:0|0:0,0:0:0:0:
68,84,141484,6,0,P|103:68|144:48,1,80,2|0,3:0|0:0,0:0:0:0:
256,191,141784,2,0,P|291:173|328:157,1,80,8|0,3:0|0:0,0:0:0:0:
191,128,142084,1,2,0:0:0:0:
164,236,142234,1,0,0:0:0:0:
256,300,142384,6,0,L|360:284,1,80,2|0,3:0|0:0,0:0:0:0:
404,232,142684,1,2,0:0:0:0:
420,320,142834,1,2,3:0:0:0:
488,260,142984,2,0,P|504:208|504:176,1,80,8|0,3:2|0:0,0:0:0:0:
500,92,143284,1,2,0:0:0:0:
412,100,143434,1,2,3:0:0:0:
360,172,143584,6,0,P|308:153|276:121,1,80
236,68,143884,1,2,3:0:0:0:
178,133,144034,1,0,0:0:0:0:
160,24,144184,2,0,L|64:40,1,80,8|0,3:2|3:0,0:0:0:0:
0,116,144484,1,0,3:0:0:0:
24,228,144634,1,0,3:0:0:0:
100,148,144784,6,0,L|178:134,1,80,2|2,3:0|0:0,0:0:0:0:
412,192,145084,2,0,L|334:206,1,80,0|2,0:0|3:0,0:0:0:0:
132,240,145384,1,8,3:0:0:0:
244,220,145534,1,2,0:0:0:0:
204,328,145684,1,2,0:0:0:0:
28,304,145834,6,0,P|32:216|52:140,1,160,2|2,3:0|0:0,0:0:0:0:
132,184,146284,2,0,L|228:196,1,80,2|2,3:0|0:0,0:0:0:0:
414,136,146584,2,0,L|256:116,1,160,8|2,3:0|0:0,0:0:0:0:
168,104,147034,5,0,0:0:0:0:
300,204,147184,1,2,3:0:0:0:
148,268,147334,2,0,P|88:216|84:128,1,160,2|0,0:0|3:0,0:0:0:0:
256,56,147784,2,0,L|216:220,1,160,8|2,3:0|0:0,0:0:0:0:
384,352,148234,6,0,L|421:196,1,160,2|2,3:0|0:0,0:0:0:0:
448,84,148684,1,2,3:0:0:0:
336,108,148834,1,2,0:0:0:0:
512,176,148984,1,8,3:0:0:0:
308,220,149134,2,0,P|243:177|231:100,1,160,2|0,3:0|0:0,0:0:0:0:
148,60,149584,6,0,P|137:104|121:160,1,80,2|0,3:0|0:0,0:0:0:0:
80,324,149884,2,0,P|90:285|100:245,1,80,2|2,0:0|3:0,0:0:0:0:
48,60,150184,1,8,3:0:0:0:
128,137,150334,1,2,0:0:0:0:
20,168,150484,1,2,0:0:0:0:
156,28,150634,6,0,P|236:20|308:56,1,160,2|2,3:0|0:0,0:0:0:0:
384,136,151084,2,0,P|423:133|459:115,1,80,2|2,3:0|0:0,0:0:0:0:
344,244,151384,2,0,L|184:264,1,160,8|2,3:0|0:0,0:0:0:0:
96,276,151834,1,0,0:0:0:0:
31,136,151984,6,0,L|190:117,1,160,2|0,3:0|0:0,0:0:0:0:
322,41,152434,1,2,3:2:0:0:
322,41,152509,1,0,0:0:0:0:
322,41,152583,2,0,P|345:116|323:191,1,160,8|0,3:2|0:0,0:0:0:0:
189,342,153034,1,2,3:2:0:0:
189,342,153109,1,0,0:0:0:0:
189,342,153184,2,0,P|165:266|187:191,1,160,0|2,0:0|3:0,0:0:0:0:
323,267,153634,1,2,3:2:0:0:
323,267,153709,1,0,0:0:0:0:
323,267,153784,2,0,L|424:280,1,80,8|2,3:2|3:0,0:0:0:0:
492,288,154084,1,0,0:0:0:0:
256,112,154384,6,0,P|216:124|172:124,1,80,2|2,3:0|0:0,0:0:0:0:
10,247,154684,2,0,P|49:248|88:260,1,80,0|2,0:0|3:0,0:0:0:0:
308,236,154984,1,8,3:0:0:0:
232,320,155134,1,2,0:0:0:0:
196,212,155284,1,2,0:0:0:0:
368,98,155434,6,0,L|396:256,1,160,2|2,3:0|0:0,0:0:0:0:
412,343,155884,2,0,P|449:330|473:299,1,80,2|2,3:0|0:0,0:0:0:0:
303,168,156184,2,0,P|236:206|214:281,1,160,8|2,3:0|0:0,0:0:0:0:
328,280,156634,5,0,0:0:0:0:
368,98,156784,1,2,3:0:0:0:
183,125,156934,2,0,P|194:203|213:281,1,160,2|2,0:0|3:0,0:0:0:0:
52,324,157384,2,0,P|24:252|68:172,1,160,8|2,3:0|0:0,0:0:0:0:
228,196,157834,6,0,L|408:212,1,160,2|2,3:0|0:0,0:0:0:0:
240,92,158284,1,2,3:0:0:0:
104,240,158434,1,2,0:0:0:0:
116,124,158584,1,8,3:0:0:0:
216,300,158734,2,0,P|291:279|331:212,1,160,2|0,3:0|0:0,0:0:0:0:
324,124,159184,6,0,L|312:12,1,80,2|0,3:0|0:0,0:0:0:0:
456,76,159484,2,0,L|464:155,1,80,2|2,0:0|3:0,0:0:0:0:
331,212,159784,2,0,P|252:197|168:184,1,160,8|2,3:0|0:0,0:0:0:0:
62,80,160234,2,0,P|140:95|220:108,1,160,2|0,3:0|0:0,0:0:0:0:
84,172,160684,6,0,P|74:210|69:250,1,80,2|0,3:0|0:0,0:0:0:0:
196,364,160984,2,0,P|205:325|210:285,1,80,8|0,3:0|0:0,0:0:0:0:
224,176,161284,1,2,0:0:0:0:
328,140,161434,1,0,0:0:0:0:
408,216,161584,6,0,P|448:228|508:232,1,80,2|0,3:0|0:0,0:0:0:0:
472,320,161884,1,2,0:0:0:0:
384,304,162034,1,2,3:0:0:0:
319,240,162184,2,0,P|281:251|242:256,1,80,8|0,3:2|0:0,0:0:0:0:
220,168,162484,1,2,0:0:0:0:
308,152,162634,1,2,3:0:0:0:
380,99,162784,2,0,P|386:60|388:20,1,80
476,28,163084,2,0,P|474:67|468:107,1,80,2|0,3:0|0:0,0:0:0:0:
412,208,163384,5,2,0:0:0:0:
388,216,163534,1,0,3:0:0:0:
364,224,163684,1,0,3:0:0:0:
340,232,163834,1,0,3:0:0:0:
256,260,163984,6,0,L|240:152,1,80,2|0,3:0|0:0,0:0:0:0:
292,32,164284,2,0,L|304:112,1,80,2|2,0:0|3:0,0:0:0:0:
163,136,164584,2,0,P|85:132|25:82,1,160,8|2,3:2|0:0,0:0:0:0:
133,13,165034,6,0,L|301:33,1,160,2|0,3:0|0:0,0:0:0:0:
372,112,165484,2,0,L|451:103,1,80,2|0,3:0|0:0,0:0:0:0:
280,124,165784,2,0,P|268:180|276:220,1,80,8|0,3:2|0:0,0:0:0:0:
300,288,166084,1,2,0:0:0:0:
360,220,166234,1,0,0:0:0:0:
280,124,166384,6,0,L|200:132,1,80,2|0,3:0|0:0,0:0:0:0:
46,94,166684,2,0,P|85:98|124:88,1,80,2|2,0:0|3:0,0:0:0:0:
324,48,166984,2,0,P|367:111|343:184,1,160,8|2,3:2|0:0,0:0:0:0:
240,339,167434,6,0,P|243:259|252:180,1,160,2|0,3:0|0:0,0:0:0:0:
343,184,167884,2,0,L|456:192,1,80,2|0,3:0|0:0,0:0:0:0:
444,356,168184,1,8,3:2:0:0:
330,347,168334,1,2,3:0:0:0:
240,339,168484,2,0,P|216:279|212:243,1,80,2|0,0:0|0:0,0:0:0:0:
192,152,168784,6,0,P|228:168|268:170,1,80,2|0,3:0|0:0,0:0:0:0:
132,84,169084,2,0,P|92:86|55:102,1,80,2|2,0:0|3:0,0:0:0:0:
20,260,169384,2,0,L|192:276,1,160,8|2,3:2|0:0,0:0:0:0:
256,356,169834,6,0,P|328:328|416:340,1,160,2|0,3:0|0:0,0:0:0:0:
476,248,170284,2,0,L|365:238,1,80,2|0,3:0|0:0,0:0:0:0:
332,92,170584,2,0,P|332:131|338:171,1,80,8|0,3:2|0:0,0:0:0:0:
412,56,170884,1,2,0:0:0:0:
340,4,171034,1,0,0:0:0:0:
259,40,171184,6,0,P|180:35|100:26,1,160,2|0,3:0|0:0,0:0:0:0:
252,132,171634,1,2,3:2:0:0:
252,132,171709,1,0,0:0:0:0:
252,132,171784,2,0,P|320:136|432:148,1,160,8|0,3:2|0:0,0:0:0:0:
344,292,172234,1,2,3:2:0:0:
344,292,172309,1,0,0:0:0:0:
344,292,172384,2,0,P|292:340|204:328,1,160,0|2,0:0|3:0,0:0:0:0:
145,194,172834,1,2,3:2:0:0:
145,194,172909,1,0,0:0:0:0:
145,194,172984,2,0,L|67:181,1,80,8|2,3:2|3:0,0:0:0:0:
53,270,173284,2,0,L|132:284,1,80
232,208,173584,6,0,L|236:108,1,80,2|0,3:0|0:0,0:0:0:0:
160,8,173884,2,0,L|156:87,1,80,2|2,0:0|3:0,0:0:0:0:
320,184,174184,2,0,P|393:158|424:72,1,160,8|2,3:2|0:0,0:0:0:0:
316,72,174634,6,0,L|152:88,1,160,2|0,3:0|0:0,0:0:0:0:
47,60,175084,2,0,P|48:99|55:139,1,80,2|0,3:0|0:0,0:0:0:0:
200,239,175384,2,0,P|223:208|228:169,1,80,8|0,3:2|0:0,0:0:0:0:
138,174,175684,1,2,0:0:0:0:
112,260,175834,1,0,0:0:0:0:
224,324,175984,6,0,P|267:326|316:332,1,80,2|0,3:0|0:0,0:0:0:0:
471,346,176284,2,0,P|431:344|392:340,1,80,2|2,0:0|3:0,0:0:0:0:
320,196,176584,2,0,P|404:204|456:144,1,160,8|2,3:2|0:0,0:0:0:0:
460,40,177034,6,0,P|373:34|288:24,1,160,2|0,3:0|0:0,0:0:0:0:
192,64,177484,2,0,P|200:136|208:168,1,80,2|0,3:0|0:0,0:0:0:0:
220,272,177784,1,8,3:2:0:0:
288,160,177934,1,2,3:0:0:0:
374,176,178084,2,0,P|416:160|452:124,1,80,2|0,0:0|0:0,0:0:0:0:
512,192,178384,6,0,L|500:272,1,80,2|0,3:0|0:0,0:0:0:0:
408,348,178684,2,0,L|488:360,1,80,2|2,0:0|3:0,0:0:0:0:
380,260,178984,2,0,B|296:252|300:312|224:304,1,160,8|2,3:2|0:0,0:0:0:0:
139,235,179434,6,0,P|124:159|167:94,1,160,2|0,3:0|0:0,0:0:0:0:
279,69,179884,2,0,L|264:148,1,80,2|0,3:0|0:0,0:0:0:0:
234,314,180184,2,0,L|248:236,1,80,8|0,3:2|0:0,0:0:0:0:
332,204,180484,1,2,0:0:0:0:
180,180,180634,1,0,0:0:0:0:
116,244,180784,6,0,P|60:252|24:252,1,80,2|0,3:0|0:0,0:0:0:0:
4,168,181084,1,2,0:0:0:0:
92,160,181234,1,0,0:0:0:0:
152,96,181384,2,0,P|196:92|240:112,1,80,8|0,3:2|0:0,0:0:0:0:
272,184,181684,1,2,0:0:0:0:
348,136,181834,1,2,3:0:0:0:
304,56,181984,6,0,P|348:52|392:44,1,80
468,80,182284,1,2,3:0:0:0:
480,168,182434,1,0,0:0:0:0:
412,260,182584,2,0,P|372:263|332:269,1,80,8|0,3:2|3:0,0:0:0:0:
220,284,182884,1,0,3:0:0:0:
264,180,183034,1,0,3:0:0:0:
76,132,183184,5,2,3:0:0:0:
