osu file format v13

[General]
AudioFilename: 07 Echo.mp3
AudioLeadIn: 0
PreviewTime: -1
Countdown: 1
SampleSet: Soft
StackLeniency: 0.7
Mode: 3
LetterboxInBreaks: 1
SpecialStyle: 0
WidescreenStoryboard: 0

[Editor]
DistanceSpacing: 1
BeatDivisor: 8
GridSize: 4
TimelineZoom: 0.8000001

[Metadata]
Title:Echo
TitleUnicode:Echo
Artist:Reol
ArtistUnicode:れをる
Creator:Zillah
Version:
Source:No title+
Tags:
BeatmapID:555233
BeatmapSetID:240233

[Difficulty]
HPDrainRate:8
CircleSize:7
OverallDifficulty:7
ApproachRate:5
SliderMultiplier:1.4
SliderTickRate:1

[Events]
//Background and Video events
0,0,"92A.jpg",0,0
//Break Periods
//Storyboard Layer 0 (Background)
//Storyboard Layer 1 (Fail)
//Storyboard Layer 2 (Pass)
//Storyboard Layer 3 (Foreground)
//Storyboard Sound Samples
//Background Colour Transformations
3,100,163,162,255

[TimingPoints]
0,909.090909090909,4,2,0,10,1,0

[HitObjects]
36,192,0,128,0,227:0:0:0:0:
329,192,0,1,0,0:0:0:0:
402,192,0,1,0,0:0:0:0:
329,192,909,128,0,1136:0:0:0:0:
109,192,909,1,0,0:0:0:0:
182,192,909,1,0,0:0:0:0:
36,192,1818,128,0,2045:0:0:0:0:
329,192,1818,1,0,0:0:0:0:
402,192,1818,1,0,0:0:0:0:
256,192,2727,128,0,2954:0:0:0:0:
402,192,2727,1,0,0:0:0:0:
475,192,2727,1,0,0:0:0:0:
109,192,3636,128,0,3863:0:0:0:0:
329,192,3636,1,0,0:0:0:0:
402,192,3636,1,0,0:0:0:0:
256,192,4545,128,0,4772:0:0:0:0:
109,192,4545,1,0,0:0:0:0:
36,192,4545,1,0,0:0:0:0:
475,192,5454,128,0,5681:0:0:0:0:
256,192,5454,1,0,0:0:0:0:
329,192,5454,1,0,0:0:0:0:
109,192,6136,128,0,6363:0:0:0:0:
329,192,6136,1,0,0:0:0:0:
182,192,6363,128,0,6590:0:0:0:0:
402,192,6363,1,0,0:0:0:0:
36,192,6590,1,0,0:0:0:0:
329,192,6590,1,0,0:0:0:0:
109,192,6818,1,0,0:0:0:0:
402,192,6818,1,0,0:0:0:0:
182,192,7045,1,0,0:0:0:0:
475,192,7045,1,0,0:0:0:0:
36,192,7272,128,0,7499:0:0:0:0:
402,192,7272,1,0,0:0:0:0:
329,192,7272,1,0,0:0:0:0:
256,192,8181,128,0,8409:0:0:0:0:
109,192,8181,1,0,0:0:0:0:
36,192,8181,1,0,0:0:0:0:
36,192,9090,128,0,9318:0:0:0:0:
329,192,9090,1,0,0:0:0:0:
402,192,9090,1,0,0:0:0:0:
256,192,10000,128,0,10227:0:0:0:0:
402,192,10000,1,0,0:0:0:0:
475,192,10000,1,0,0:0:0:0:
109,192,10909,128,0,11136:0:0:0:0:
329,192,10909,1,0,0:0:0:0:
402,192,10909,1,0,0:0:0:0:
256,192,11818,128,0,12045:0:0:0:0:
109,192,11818,1,0,0:0:0:0:
36,192,11818,1,0,0:0:0:0:
475,192,12727,128,0,12954:0:0:0:0:
109,192,12727,1,0,0:0:0:0:
182,192,12727,1,0,0:0:0:0:
182,192,13409,128,0,13636:0:0:0:0:
475,192,13409,1,0,0:0:0:0:
256,192,13636,128,0,13863:0:0:0:0:
402,192,13636,1,0,0:0:0:0:
109,192,13863,1,0,0:0:0:0:
182,192,14090,1,0,0:0:0:0:
475,192,14090,128,0,15454:0:0:0:0:
256,192,14318,1,0,0:0:0:0:
402,192,14318,128,0,15454:0:0:0:0:
36,192,14545,128,0,15454:0:0:0:0:
109,192,14545,1,0,0:0:0:0:
329,192,14545,1,0,0:0:0:0:
256,192,14772,1,0,0:0:0:0:
109,192,14999,1,0,0:0:0:0:
256,192,15227,1,0,0:0:0:0:
109,192,15454,1,0,0:0:0:0:
329,192,15454,1,0,0:0:0:0:
256,192,15681,1,0,0:0:0:0:
182,192,15909,128,0,17045:0:0:0:0:
329,192,15909,1,0,0:0:0:0:
402,192,16136,128,0,17272:0:0:0:0:
109,192,16136,1,0,0:0:0:0:
36,192,16363,1,0,0:0:0:0:
475,192,16363,1,0,0:0:0:0:
109,192,16590,1,0,0:0:0:0:
329,192,16818,1,0,0:0:0:0:
109,192,17045,1,0,0:0:0:0:
329,192,17272,1,0,0:0:0:0:
36,192,17272,1,0,0:0:0:0:
182,192,17272,1,0,0:0:0:0:
109,192,17727,128,0,18863:0:0:0:0:
329,192,17954,128,0,19090:0:0:0:0:
36,192,18181,1,0,0:0:0:0:
475,192,18181,1,0,0:0:0:0:
182,192,18409,1,0,0:0:0:0:
402,192,18636,1,0,0:0:0:0:
182,192,18863,1,0,0:0:0:0:
402,192,19090,1,0,0:0:0:0:
36,192,19090,1,0,0:0:0:0:
36,192,19545,128,0,20681:0:0:0:0:
256,192,19772,128,0,20909:0:0:0:0:
475,192,20000,1,0,0:0:0:0:
109,192,20227,1,0,0:0:0:0:
329,192,20454,1,0,0:0:0:0:
109,192,20681,1,0,0:0:0:0:
329,192,20909,1,0,0:0:0:0:
475,192,20909,1,0,0:0:0:0:
402,192,21136,1,0,0:0:0:0:
256,192,21136,1,0,0:0:0:0:
475,192,21363,128,0,22727:0:0:0:0:
329,192,21363,1,0,0:0:0:0:
182,192,21363,1,0,0:0:0:0:
402,192,21590,128,0,22727:0:0:0:0:
256,192,21590,1,0,0:0:0:0:
109,192,21590,1,0,0:0:0:0:
36,192,21818,128,0,22727:0:0:0:0:
182,192,21818,1,0,0:0:0:0:
329,192,21818,1,0,0:0:0:0:
256,192,22045,1,0,0:0:0:0:
109,192,22272,1,0,0:0:0:0:
256,192,22499,1,0,0:0:0:0:
109,192,22727,1,0,0:0:0:0:
329,192,22727,1,0,0:0:0:0:
182,192,23181,128,0,24317:0:0:0:0:
402,192,23408,128,0,24544:0:0:0:0:
36,192,23636,1,0,0:0:0:0:
329,192,23636,1,0,0:0:0:0:
109,192,23863,1,0,0:0:0:0:
329,192,24090,1,0,0:0:0:0:
109,192,24318,1,0,0:0:0:0:
329,192,24545,1,0,0:0:0:0:
36,192,24545,1,0,0:0:0:0:
475,192,24545,1,0,0:0:0:0:
109,192,24999,128,0,26135:0:0:0:0:
329,192,25226,128,0,26362:0:0:0:0:
36,192,25454,1,0,0:0:0:0:
475,192,25454,1,0,0:0:0:0:
182,192,25681,1,0,0:0:0:0:
402,192,25909,1,0,0:0:0:0:
182,192,26136,1,0,0:0:0:0:
402,192,26363,1,0,0:0:0:0:
36,192,26363,1,0,0:0:0:0:
475,192,26363,1,0,0:0:0:0:
36,192,27045,128,0,27499:0:0:0:0:
182,192,27272,128,0,27727:0:0:0:0:
329,192,27272,1,0,0:0:0:0:
475,192,27272,1,0,0:0:0:0:
329,192,27499,128,0,27954:0:0:0:0:
402,192,27499,1,0,0:0:0:0:
475,192,27727,128,0,28181:0:0:0:0:
256,192,27727,1,0,0:0:0:0:
109,192,27954,1,0,0:0:0:0:
36,192,28181,1,0,0:0:0:0:
329,192,28181,1,0,0:0:0:0:
402,192,28409,1,0,0:0:0:0:
256,192,28409,1,0,0:0:0:0:
475,192,28636,128,0,30000:0:0:0:0:
329,192,28636,1,0,0:0:0:0:
182,192,28636,1,0,0:0:0:0:
256,192,28863,1,0,0:0:0:0:
109,192,28863,1,0,0:0:0:0:
402,192,28864,128,0,30000:0:0:0:0:
182,192,29090,1,0,0:0:0:0:
329,192,29090,128,0,29318:0:0:0:0:
36,192,29091,128,0,30000:0:0:0:0:
109,192,29318,128,0,29545:0:0:0:0:
256,192,29545,1,0,0:0:0:0:
329,192,29545,128,0,29772:0:0:0:0:
182,192,29772,1,0,0:0:0:0:
109,192,29772,128,0,29999:0:0:0:0:
256,192,29999,1,0,0:0:0:0:
329,192,29999,128,0,30227:0:0:0:0:
182,192,30227,1,0,0:0:0:0:
109,192,30227,128,0,30454:0:0:0:0:
182,192,30455,128,0,31591:0:0:0:0:
402,192,30682,128,0,31818:0:0:0:0:
36,192,30909,1,0,0:0:0:0:
475,192,30909,1,0,0:0:0:0:
329,192,30909,1,0,0:0:0:0:
109,192,31136,1,0,0:0:0:0:
329,192,31363,1,0,0:0:0:0:
109,192,31590,1,0,0:0:0:0:
329,192,31818,1,0,0:0:0:0:
475,192,31818,1,0,0:0:0:0:
36,192,31818,1,0,0:0:0:0:
182,192,32045,1,0,0:0:0:0:
109,192,32273,128,0,33409:0:0:0:0:
329,192,32500,128,0,33636:0:0:0:0:
36,192,32727,1,0,0:0:0:0:
475,192,32727,1,0,0:0:0:0:
182,192,32954,1,0,0:0:0:0:
402,192,33181,1,0,0:0:0:0:
182,192,33409,1,0,0:0:0:0:
402,192,33636,1,0,0:0:0:0:
36,192,33863,128,0,34545:0:0:0:0:
182,192,33863,1,0,0:0:0:0:
256,192,34090,128,0,34772:0:0:0:0:
402,192,34090,128,0,34318:0:0:0:0:
475,192,34318,128,0,35000:0:0:0:0:
109,192,34545,1,0,0:0:0:0:
402,192,34545,1,0,0:0:0:0:
329,192,34772,1,0,0:0:0:0:
182,192,35000,128,0,35227:0:0:0:0:
256,192,35227,1,0,0:0:0:0:
329,192,35227,128,0,35681:0:0:0:0:
36,192,35454,128,0,36363:0:0:0:0:
475,192,35454,128,0,35681:0:0:0:0:
402,192,35681,128,0,35909:0:0:0:0:
256,192,35681,128,0,35909:0:0:0:0:
182,192,35909,128,0,36818:0:0:0:0:
329,192,35909,128,0,36136:0:0:0:0:
256,192,36136,128,0,36363:0:0:0:0:
109,192,36363,128,0,37272:0:0:0:0:
475,192,36363,1,0,0:0:0:0:
402,192,36363,1,0,0:0:0:0:
256,192,36818,128,0,37727:0:0:0:0:
475,192,36818,128,0,37045:0:0:0:0:
402,192,37045,1,0,0:0:0:0:
182,192,37272,128,0,38181:0:0:0:0:
329,192,37272,1,0,0:0:0:0:
475,192,37272,1,0,0:0:0:0:
36,192,37272,128,0,37500:0:0:0:0:
402,192,37500,1,0,0:0:0:0:
329,192,37727,128,0,38636:0:0:0:0:
475,192,37727,128,0,37954:0:0:0:0:
36,192,37954,1,0,0:0:0:0:
256,192,38181,128,0,38636:0:0:0:0:
402,192,38181,1,0,0:0:0:0:
109,192,38181,1,0,0:0:0:0:
36,192,38409,1,0,0:0:0:0:
109,192,38636,128,0,38863:0:0:0:0:
475,192,38636,1,0,0:0:0:0:
402,192,38863,1,0,0:0:0:0:
36,192,39090,128,0,42272:0:0:0:0:
182,192,39090,1,0,0:0:0:0:
329,192,39090,1,0,0:0:0:0:
475,192,39090,1,0,0:0:0:0:
182,192,39545,128,0,42386:0:0:0:0:
475,192,39545,1,0,0:0:0:0:
329,192,39545,128,0,39772:0:0:0:0:
329,192,40000,128,0,42499:0:0:0:0:
475,192,40000,1,0,0:0:0:0:
109,192,40227,1,0,0:0:0:0:
402,192,40454,128,0,40681:0:0:0:0:
109,192,40681,1,0,0:0:0:0:
256,192,40909,1,0,0:0:0:0:
402,192,40909,1,0,0:0:0:0:
475,192,40909,128,0,41136:0:0:0:0:
109,192,41363,128,0,41590:0:0:0:0:
402,192,41590,1,0,0:0:0:0:
475,192,41818,1,0,0:0:0:0:
256,192,41818,128,0,42045:0:0:0:0:
475,192,42272,128,0,42499:0:0:0:0:
36,192,42499,1,0,0:0:0:0:
182,192,42613,1,0,0:0:0:0:
329,192,42727,1,0,0:0:0:0:
36,192,42727,1,0,0:0:0:0:
475,192,42727,1,0,0:0:0:0:
36,192,43636,128,0,45454:0:0:0:0:
182,192,43636,128,0,44545:0:0:0:0:
329,192,43636,128,0,43863:0:0:0:0:
475,192,43636,1,0,0:0:0:0:
475,192,43863,1,0,0:0:0:0:
475,192,44318,1,0,0:0:0:0:
329,192,44545,128,0,46363:0:0:0:0:
475,192,44545,128,0,44772:0:0:0:0:
182,192,44772,1,0,0:0:0:0:
182,192,45227,1,0,0:0:0:0:
475,192,45340,1,0,0:0:0:0:
475,192,45454,128,0,47272:0:0:0:0:
182,192,45454,128,0,45681:0:0:0:0:
36,192,45681,1,0,0:0:0:0:
182,192,46136,1,0,0:0:0:0:
182,192,46363,128,0,48181:0:0:0:0:
36,192,46363,128,0,46590:0:0:0:0:
402,192,46363,1,0,0:0:0:0:
109,192,46363,1,0,0:0:0:0:
329,192,46590,1,0,0:0:0:0:
109,192,47045,1,0,0:0:0:0:
402,192,47159,1,0,0:0:0:0:
402,192,47272,128,0,49090:0:0:0:0:
109,192,47272,128,0,47499:0:0:0:0:
329,192,47499,1,0,0:0:0:0:
329,192,47954,1,0,0:0:0:0:
256,192,48181,128,0,49999:0:0:0:0:
36,192,48181,128,0,48409:0:0:0:0:
109,192,48863,1,0,0:0:0:0:
329,192,48977,1,0,0:0:0:0:
109,192,49090,128,0,50909:0:0:0:0:
475,192,49090,128,0,49318:0:0:0:0:
402,192,49318,1,0,0:0:0:0:
402,192,49772,128,0,49999:0:0:0:0:
475,192,49999,128,0,51818:0:0:0:0:
329,192,49999,128,0,50227:0:0:0:0:
402,192,50227,128,0,51590:0:0:0:0:
256,192,50227,128,0,50454:0:0:0:0:
329,192,50454,128,0,51363:0:0:0:0:
182,192,50454,128,0,50681:0:0:0:0:
256,192,50681,128,0,51136:0:0:0:0:
36,192,50909,128,0,51818:0:0:0:0:
182,192,50909,128,0,51136:0:0:0:0:
182,192,51363,128,0,52727:0:0:0:0:
256,192,51590,1,0,0:0:0:0:
329,192,51818,128,0,53636:0:0:0:0:
109,192,51818,128,0,52045:0:0:0:0:
402,192,51818,1,0,0:0:0:0:
256,192,51818,1,0,0:0:0:0:
402,192,52045,1,0,0:0:0:0:
475,192,52272,128,0,53636:0:0:0:0:
402,192,52499,1,0,0:0:0:0:
256,192,52613,1,0,0:0:0:0:
36,192,52727,128,0,53636:0:0:0:0:
109,192,52727,128,0,52954:0:0:0:0:
402,192,52727,1,0,0:0:0:0:
402,192,52954,1,0,0:0:0:0:
109,192,53409,1,0,0:0:0:0:
109,192,53636,128,0,54999:0:0:0:0:
402,192,53636,128,0,53863:0:0:0:0:
182,192,53636,1,0,0:0:0:0:
256,192,53863,1,0,0:0:0:0:
256,192,54090,128,0,55454:0:0:0:0:
402,192,54318,1,0,0:0:0:0:
402,192,54545,128,0,55909:0:0:0:0:
36,192,54545,128,0,54772:0:0:0:0:
329,192,54772,1,0,0:0:0:0:
475,192,54999,128,0,56363:0:0:0:0:
109,192,55227,1,0,0:0:0:0:
329,192,55454,128,0,56818:0:0:0:0:
182,192,55454,128,0,55681:0:0:0:0:
36,192,55454,1,0,0:0:0:0:
36,192,55681,1,0,0:0:0:0:
182,192,55909,128,0,57727:0:0:0:0:
36,192,56136,1,0,0:0:0:0:
256,192,56249,1,0,0:0:0:0:
36,192,56363,128,0,57727:0:0:0:0:
402,192,56363,128,0,56590:0:0:0:0:
109,192,56363,1,0,0:0:0:0:
256,192,56590,1,0,0:0:0:0:
475,192,56818,1,0,0:0:0:0:
475,192,57045,128,0,58181:0:0:0:0:
402,192,57045,1,0,0:0:0:0:
329,192,57272,128,0,58181:0:0:0:0:
402,192,57272,128,0,57499:0:0:0:0:
109,192,57272,1,0,0:0:0:0:
256,192,57499,128,0,57727:0:0:0:0:
109,192,57727,128,0,57954:0:0:0:0:
256,192,57954,128,0,58181:0:0:0:0:
36,192,58181,128,0,59999:0:0:0:0:
182,192,58181,128,0,59090:0:0:0:0:
402,192,58181,128,0,58409:0:0:0:0:
109,192,58409,1,0,0:0:0:0:
402,192,58863,1,0,0:0:0:0:
329,192,59090,128,0,60908:0:0:0:0:
475,192,59090,128,0,59318:0:0:0:0:
109,192,59090,1,0,0:0:0:0:
256,192,59090,1,0,0:0:0:0:
402,192,59318,1,0,0:0:0:0:
109,192,59772,1,0,0:0:0:0:
402,192,59886,1,0,0:0:0:0:
475,192,59999,128,0,61817:0:0:0:0:
182,192,59999,128,0,60227:0:0:0:0:
256,192,59999,1,0,0:0:0:0:
109,192,59999,1,0,0:0:0:0:
109,192,60227,1,0,0:0:0:0:
109,192,60681,1,0,0:0:0:0:
182,192,60909,128,0,63181:0:0:0:0:
36,192,60909,128,0,61136:0:0:0:0:
256,192,60909,1,0,0:0:0:0:
402,192,60909,1,0,0:0:0:0:
402,192,61136,1,0,0:0:0:0:
36,192,61590,1,0,0:0:0:0:
329,192,61704,1,0,0:0:0:0:
36,192,61818,128,0,63181:0:0:0:0:
329,192,61818,128,0,63181:0:0:0:0:
402,192,61818,128,0,62045:0:0:0:0:
109,192,62045,1,0,0:0:0:0:
109,192,62499,1,0,0:0:0:0:
475,192,62727,128,0,62954:0:0:0:0:
256,192,62727,1,0,0:0:0:0:
402,192,62727,1,0,0:0:0:0:
109,192,62954,1,0,0:0:0:0:
475,192,63409,128,0,63749:0:0:0:0:
182,192,63409,1,0,0:0:0:0:
402,192,63522,128,0,63863:0:0:0:0:
109,192,63522,1,0,0:0:0:0:
329,192,63636,128,0,63977:0:0:0:0:
182,192,63636,128,0,63863:0:0:0:0:
36,192,63636,1,0,0:0:0:0:
475,192,63863,128,0,64772:0:0:0:0:
256,192,63863,128,0,64772:0:0:0:0:
109,192,63863,1,0,0:0:0:0:
402,192,64318,128,0,65227:0:0:0:0:
109,192,64318,128,0,65227:0:0:0:0:
329,192,64318,1,0,0:0:0:0:
182,192,64545,1,0,0:0:0:0:
36,192,64545,1,0,0:0:0:0:
36,192,64772,128,0,65454:0:0:0:0:
329,192,64772,128,0,65454:0:0:0:0:
182,192,64772,1,0,0:0:0:0:
256,192,64999,1,0,0:0:0:0:
182,192,65227,128,0,65909:0:0:0:0:
475,192,65227,1,0,0:0:0:0:
475,192,65454,128,0,66136:0:0:0:0:
256,192,65454,128,0,65681:0:0:0:0:
402,192,65681,1,0,0:0:0:0:
36,192,65909,128,0,66818:0:0:0:0:
402,192,66136,1,0,0:0:0:0:
182,192,66363,128,0,66818:0:0:0:0:
329,192,66363,128,0,66818:0:0:0:0:
475,192,66363,128,0,66818:0:0:0:0:
256,192,66363,128,0,66590:0:0:0:0:
402,192,66590,1,0,0:0:0:0:
329,192,67045,128,0,67727:0:0:0:0:
36,192,67045,1,0,0:0:0:0:
182,192,67159,1,0,0:0:0:0:
36,192,67272,128,0,67954:0:0:0:0:
182,192,67272,128,0,67500:0:0:0:0:
475,192,67272,1,0,0:0:0:0:
402,192,67272,1,0,0:0:0:0:
256,192,67500,1,0,0:0:0:0:
475,192,67727,128,0,68636:0:0:0:0:
402,192,67954,1,0,0:0:0:0:
182,192,68181,128,0,68636:0:0:0:0:
329,192,68181,128,0,68636:0:0:0:0:
36,192,68181,128,0,68636:0:0:0:0:
256,192,68181,128,0,68409:0:0:0:0:
109,192,68181,1,0,0:0:0:0:
402,192,68409,1,0,0:0:0:0:
402,192,68863,128,0,70909:0:0:0:0:
109,192,68863,1,0,0:0:0:0:
256,192,69090,128,0,70909:0:0:0:0:
109,192,69090,128,0,69318:0:0:0:0:
475,192,69318,1,0,0:0:0:0:
109,192,69545,128,0,70909:0:0:0:0:
475,192,69772,1,0,0:0:0:0:
36,192,70000,128,0,71704:0:0:0:0:
182,192,70000,128,0,70227:0:0:0:0:
329,192,70000,1,0,0:0:0:0:
475,192,70227,1,0,0:0:0:0:
182,192,70454,128,0,71931:0:0:0:0:
475,192,70681,1,0,0:0:0:0:
329,192,70795,1,0,0:0:0:0:
329,192,70909,128,0,72159:0:0:0:0:
475,192,70909,128,0,71136:0:0:0:0:
402,192,71136,1,0,0:0:0:0:
256,192,71363,1,0,0:0:0:0:
475,192,71590,128,0,72386:0:0:0:0:
109,192,71590,1,0,0:0:0:0:
109,192,71818,128,0,72727:0:0:0:0:
402,192,71818,128,0,72727:0:0:0:0:
36,192,71818,1,0,0:0:0:0:
182,192,72045,1,0,0:0:0:0:
329,192,72272,1,0,0:0:0:0:
475,192,72500,1,0,0:0:0:0:
182,192,72556,1,0,0:0:0:0:
329,192,72613,1,0,0:0:0:0:
182,192,72670,1,0,0:0:0:0:
329,192,72727,1,0,0:0:0:0:
329,192,73409,1,0,0:0:0:0:
36,192,73636,1,0,0:0:0:0:
256,192,73636,1,0,0:0:0:0:
109,192,73636,1,0,0:0:0:0:
329,192,73863,1,0,0:0:0:0:
475,192,74318,1,0,0:0:0:0:
475,192,74431,1,0,0:0:0:0:
109,192,74545,1,0,0:0:0:0:
256,192,74545,1,0,0:0:0:0:
329,192,74772,1,0,0:0:0:0:
36,192,75227,1,0,0:0:0:0:
256,192,75227,1,0,0:0:0:0:
182,192,75227,1,0,0:0:0:0:
36,192,75454,1,0,0:0:0:0:
256,192,75454,1,0,0:0:0:0:
402,192,75454,1,0,0:0:0:0:
475,192,75454,1,0,0:0:0:0:
329,192,75681,1,0,0:0:0:0:
475,192,76136,1,0,0:0:0:0:
402,192,76363,1,0,0:0:0:0:
475,192,76590,1,0,0:0:0:0:
109,192,77045,1,0,0:0:0:0:
256,192,77045,1,0,0:0:0:0:
36,192,77272,1,0,0:0:0:0:
182,192,77272,1,0,0:0:0:0:
475,192,77272,1,0,0:0:0:0:
402,192,77272,1,0,0:0:0:0:
329,192,77500,1,0,0:0:0:0:
475,192,77954,1,0,0:0:0:0:
475,192,78068,1,0,0:0:0:0:
402,192,78181,1,0,0:0:0:0:
475,192,78409,5,0,0:0:0:0:
475,192,78636,1,0,0:0:0:0:
475,192,78750,1,0,0:0:0:0:
402,192,78863,1,0,0:0:0:0:
329,192,78939,1,0,0:0:0:0:
256,192,79015,1,0,0:0:0:0:
182,192,79090,1,0,0:0:0:0:
36,192,79090,1,0,0:0:0:0:
475,192,79090,1,0,0:0:0:0:
475,192,79545,128,0,80909:0:0:0:0:
402,192,79773,128,0,80909:0:0:0:0:
36,192,80000,128,0,80909:0:0:0:0:
329,192,80000,128,0,80227:0:0:0:0:
109,192,80000,1,0,0:0:0:0:
256,192,80000,1,0,0:0:0:0:
182,192,80227,128,0,80454:0:0:0:0:
256,192,80454,128,0,80681:0:0:0:0:
109,192,80681,128,0,80909:0:0:0:0:
329,192,80909,128,0,81136:0:0:0:0:
182,192,80909,1,0,0:0:0:0:
256,192,81136,128,0,81363:0:0:0:0:
329,192,81363,128,0,81590:0:0:0:0:
182,192,81364,128,0,82500:0:0:0:0:
36,192,81590,128,0,81818:0:0:0:0:
402,192,81591,128,0,82727:0:0:0:0:
475,192,81818,1,0,0:0:0:0:
256,192,81818,1,0,0:0:0:0:
329,192,82045,1,0,0:0:0:0:
109,192,82045,1,0,0:0:0:0:
256,192,82272,1,0,0:0:0:0:
36,192,82272,1,0,0:0:0:0:
329,192,82499,1,0,0:0:0:0:
109,192,82499,1,0,0:0:0:0:
256,192,82727,1,0,0:0:0:0:
36,192,82727,1,0,0:0:0:0:
475,192,82727,1,0,0:0:0:0:
109,192,83182,128,0,84318:0:0:0:0:
329,192,83409,128,0,84545:0:0:0:0:
36,192,83636,1,0,0:0:0:0:
475,192,83636,1,0,0:0:0:0:
182,192,83863,1,0,0:0:0:0:
402,192,83863,1,0,0:0:0:0:
256,192,84090,1,0,0:0:0:0:
36,192,84090,1,0,0:0:0:0:
182,192,84318,1,0,0:0:0:0:
402,192,84318,1,0,0:0:0:0:
36,192,84545,1,0,0:0:0:0:
475,192,84545,1,0,0:0:0:0:
256,192,84545,1,0,0:0:0:0:
36,192,85000,128,0,86136:0:0:0:0:
256,192,85227,128,0,86364:0:0:0:0:
109,192,85454,1,0,0:0:0:0:
475,192,85454,1,0,0:0:0:0:
402,192,85681,1,0,0:0:0:0:
182,192,85681,1,0,0:0:0:0:
109,192,85909,1,0,0:0:0:0:
329,192,85909,1,0,0:0:0:0:
182,192,86136,1,0,0:0:0:0:
402,192,86136,1,0,0:0:0:0:
36,192,86363,1,0,0:0:0:0:
475,192,86363,1,0,0:0:0:0:
329,192,86363,1,0,0:0:0:0:
402,192,86590,1,0,0:0:0:0:
182,192,86590,1,0,0:0:0:0:
475,192,86818,128,0,88182:0:0:0:0:
329,192,86818,1,0,0:0:0:0:
109,192,86818,1,0,0:0:0:0:
402,192,87045,128,0,88182:0:0:0:0:
256,192,87045,1,0,0:0:0:0:
36,192,87045,1,0,0:0:0:0:
109,192,87272,1,0,0:0:0:0:
329,192,87272,1,0,0:0:0:0:
182,192,87272,1,0,0:0:0:0:
36,192,87273,128,0,88182:0:0:0:0:
256,192,87499,1,0,0:0:0:0:
109,192,87499,1,0,0:0:0:0:
182,192,87727,1,0,0:0:0:0:
329,192,87727,1,0,0:0:0:0:
256,192,87954,1,0,0:0:0:0:
109,192,87954,1,0,0:0:0:0:
182,192,88181,1,0,0:0:0:0:
329,192,88181,1,0,0:0:0:0:
182,192,88636,128,0,89772:0:0:0:0:
402,192,88863,128,0,89999:0:0:0:0:
36,192,89090,1,0,0:0:0:0:
329,192,89090,1,0,0:0:0:0:
475,192,89090,1,0,0:0:0:0:
256,192,89318,1,0,0:0:0:0:
109,192,89318,1,0,0:0:0:0:
329,192,89545,1,0,0:0:0:0:
36,192,89545,1,0,0:0:0:0:
109,192,89772,1,0,0:0:0:0:
256,192,89772,1,0,0:0:0:0:
329,192,89999,1,0,0:0:0:0:
36,192,89999,1,0,0:0:0:0:
475,192,89999,1,0,0:0:0:0:
109,192,90454,128,0,91590:0:0:0:0:
329,192,90681,128,0,91817:0:0:0:0:
36,192,90909,1,0,0:0:0:0:
475,192,90909,1,0,0:0:0:0:
182,192,90909,1,0,0:0:0:0:
256,192,91136,1,0,0:0:0:0:
402,192,91136,1,0,0:0:0:0:
182,192,91363,1,0,0:0:0:0:
36,192,91363,1,0,0:0:0:0:
256,192,91590,1,0,0:0:0:0:
402,192,91590,1,0,0:0:0:0:
182,192,91818,1,0,0:0:0:0:
36,192,91818,1,0,0:0:0:0:
475,192,91818,1,0,0:0:0:0:
182,192,92499,128,0,93181:0:0:0:0:
36,192,92727,128,0,93181:0:0:0:0:
329,192,92727,1,0,0:0:0:0:
475,192,92727,1,0,0:0:0:0:
329,192,92954,128,0,93636:0:0:0:0:
402,192,92954,1,0,0:0:0:0:
256,192,92954,1,0,0:0:0:0:
256,192,93181,1,0,0:0:0:0:
109,192,93181,1,0,0:0:0:0:
475,192,93182,128,0,93636:0:0:0:0:
182,192,93409,1,0,0:0:0:0:
36,192,93409,128,0,93636:0:0:0:0:
256,192,93636,1,0,0:0:0:0:
402,192,93636,1,0,0:0:0:0:
109,192,93636,128,0,93863:0:0:0:0:
182,192,93863,128,0,94090:0:0:0:0:
329,192,93863,1,0,0:0:0:0:
256,192,94090,128,0,94318:0:0:0:0:
402,192,94090,1,0,0:0:0:0:
36,192,94318,128,0,95454:0:0:0:0:
109,192,94318,128,0,94545:0:0:0:0:
182,192,94545,128,0,95454:0:0:0:0:
329,192,94545,1,0,0:0:0:0:
475,192,94545,128,0,94772:0:0:0:0:
402,192,94772,128,0,94999:0:0:0:0:
256,192,94772,1,0,0:0:0:0:
475,192,94999,128,0,95227:0:0:0:0:
256,192,95227,128,0,96363:0:0:0:0:
402,192,95227,128,0,95530:0:0:0:0:
329,192,95227,1,0,0:0:0:0:
109,192,95454,128,0,96363:0:0:0:0:
475,192,95454,128,0,95681:0:0:0:0:
329,192,95454,1,0,0:0:0:0:
329,192,95681,1,0,0:0:0:0:
402,192,95909,1,0,0:0:0:0:
475,192,96060,1,0,0:0:0:0:
182,192,96136,128,0,97272:0:0:0:0:
402,192,96212,1,0,0:0:0:0:
329,192,96363,128,0,97272:0:0:0:0:
36,192,96363,128,0,96590:0:0:0:0:
475,192,96363,1,0,0:0:0:0:
402,192,96590,1,0,0:0:0:0:
402,192,97045,128,0,98181:0:0:0:0:
109,192,97045,1,0,0:0:0:0:
256,192,97272,128,0,98181:0:0:0:0:
36,192,97272,128,0,97499:0:0:0:0:
475,192,97272,1,0,0:0:0:0:
475,192,97499,128,0,99090:0:0:0:0:
109,192,97499,1,0,0:0:0:0:
36,192,97727,128,0,99318:0:0:0:0:
182,192,97954,128,0,99545:0:0:0:0:
329,192,97954,128,0,99545:0:0:0:0:
109,192,98181,128,0,98409:0:0:0:0:
402,192,98409,1,0,0:0:0:0:
256,192,98863,1,0,0:0:0:0:
256,192,99090,128,0,99318:0:0:0:0:
402,192,99090,1,0,0:0:0:0:
109,192,99090,1,0,0:0:0:0:
475,192,99318,1,0,0:0:0:0:
36,192,99545,1,0,0:0:0:0:
329,192,99772,1,0,0:0:0:0:
182,192,99772,1,0,0:0:0:0:
402,192,99886,1,0,0:0:0:0:
109,192,99999,128,0,100227:0:0:0:0:
475,192,99999,1,0,0:0:0:0:
36,192,99999,1,0,0:0:0:0:
256,192,99999,1,0,0:0:0:0:
402,192,100227,1,0,0:0:0:0:
256,192,100681,128,0,100909:0:0:0:0:
402,192,100681,1,0,0:0:0:0:
36,192,100909,128,0,102272:0:0:0:0:
475,192,100909,128,0,101136:0:0:0:0:
329,192,100909,1,0,0:0:0:0:
109,192,100909,1,0,0:0:0:0:
402,192,101136,128,0,101363:0:0:0:0:
182,192,101363,128,0,102727:0:0:0:0:
329,192,101363,128,0,101590:0:0:0:0:
475,192,101363,1,0,0:0:0:0:
402,192,101477,1,0,0:0:0:0:
256,192,101590,128,0,101818:0:0:0:0:
475,192,101590,1,0,0:0:0:0:
402,192,101704,1,0,0:0:0:0:
329,192,101818,128,0,103181:0:0:0:0:
475,192,101818,1,0,0:0:0:0:
256,192,102045,1,0,0:0:0:0:
475,192,102272,128,0,103636:0:0:0:0:
256,192,102499,1,0,0:0:0:0:
109,192,102727,128,0,104090:0:0:0:0:
36,192,102727,128,0,102954:0:0:0:0:
402,192,102727,1,0,0:0:0:0:
256,192,102954,1,0,0:0:0:0:
256,192,103181,128,0,104545:0:0:0:0:
402,192,103409,1,0,0:0:0:0:
182,192,103522,1,0,0:0:0:0:
402,192,103636,128,0,104999:0:0:0:0:
329,192,103636,128,0,103863:0:0:0:0:
182,192,103863,1,0,0:0:0:0:
36,192,104090,128,0,105454:0:0:0:0:
475,192,104090,1,0,0:0:0:0:
329,192,104318,1,0,0:0:0:0:
182,192,104545,128,0,106363:0:0:0:0:
329,192,104545,128,0,104772:0:0:0:0:
475,192,104772,1,0,0:0:0:0:
329,192,104999,128,0,106363:0:0:0:0:
475,192,105454,1,0,0:0:0:0:
256,192,105454,128,0,105681:0:0:0:0:
109,192,105681,1,0,0:0:0:0:
402,192,105909,1,0,0:0:0:0:
109,192,106136,1,0,0:0:0:0:
36,192,106363,1,0,0:0:0:0:
475,192,106363,1,0,0:0:0:0:
402,192,106363,1,0,0:0:0:0:
109,192,106363,1,0,0:0:0:0:
256,192,106363,128,0,106590:0:0:0:0:
329,192,106590,1,0,0:0:0:0:
256,192,107045,1,0,0:0:0:0:
329,192,107159,1,0,0:0:0:0:
36,192,107272,128,0,107727:0:0:0:0:
182,192,107272,128,0,107727:0:0:0:0:
475,192,107272,1,0,0:0:0:0:
402,192,107499,1,0,0:0:0:0:
475,192,107727,1,0,0:0:0:0:
329,192,107727,1,0,0:0:0:0:
256,192,107954,1,0,0:0:0:0:
109,192,107954,128,0,108181:0:0:0:0:
329,192,108181,128,0,108409:0:0:0:0:
475,192,108181,128,0,108636:0:0:0:0:
36,192,108181,128,0,108409:0:0:0:0:
182,192,108181,1,0,0:0:0:0:
109,192,108409,128,0,108636:0:0:0:0:
256,192,108409,1,0,0:0:0:0:
182,192,108636,128,0,108863:0:0:0:0:
329,192,108636,1,0,0:0:0:0:
256,192,108863,128,0,109090:0:0:0:0:
402,192,108863,1,0,0:0:0:0:
36,192,109090,128,0,110908:0:0:0:0:
182,192,109090,128,0,109999:0:0:0:0:
475,192,109090,128,0,109318:0:0:0:0:
329,192,109318,1,0,0:0:0:0:
402,192,109772,1,0,0:0:0:0:
329,192,109999,128,0,111817:0:0:0:0:
475,192,109999,128,0,110227:0:0:0:0:
182,192,110227,1,0,0:0:0:0:
402,192,110681,1,0,0:0:0:0:
182,192,110795,1,0,0:0:0:0:
475,192,110908,128,0,112726:0:0:0:0:
182,192,110909,128,0,111136:0:0:0:0:
36,192,111136,1,0,0:0:0:0:
182,192,111590,1,0,0:0:0:0:
182,192,111817,128,0,113635:0:0:0:0:
36,192,111818,128,0,112045:0:0:0:0:
329,192,112045,1,0,0:0:0:0:
329,192,112499,1,0,0:0:0:0:
109,192,112613,1,0,0:0:0:0:
402,192,112726,128,0,114544:0:0:0:0:
36,192,112727,128,0,112954:0:0:0:0:
256,192,112954,1,0,0:0:0:0:
329,192,113409,1,0,0:0:0:0:
256,192,113635,128,0,115453:0:0:0:0:
109,192,113636,128,0,113863:0:0:0:0:
36,192,113863,1,0,0:0:0:0:
329,192,114318,1,0,0:0:0:0:
109,192,114431,1,0,0:0:0:0:
109,192,114544,128,0,116363:0:0:0:0:
475,192,114545,128,0,114772:0:0:0:0:
402,192,115227,128,0,115454:0:0:0:0:
475,192,115453,128,0,117272:0:0:0:0:
329,192,115454,128,0,115681:0:0:0:0:
402,192,115681,128,0,117044:0:0:0:0:
256,192,115681,128,0,115909:0:0:0:0:
329,192,115908,128,0,116817:0:0:0:0:
182,192,115909,128,0,116136:0:0:0:0:
256,192,116135,128,0,116590:0:0:0:0:
36,192,116363,128,0,117272:0:0:0:0:
182,192,116590,1,0,0:0:0:0:
182,192,116818,128,0,117727:0:0:0:0:
329,192,117045,1,0,0:0:0:0:
329,192,117272,128,0,119090:0:0:0:0:
109,192,117272,1,0,0:0:0:0:
256,192,117272,1,0,0:0:0:0:
475,192,117499,1,0,0:0:0:0:
475,192,117726,128,0,119090:0:0:0:0:
182,192,117954,1,0,0:0:0:0:
36,192,118068,1,0,0:0:0:0:
36,192,118181,128,0,119090:0:0:0:0:
182,192,118181,128,0,119090:0:0:0:0:
109,192,118409,1,0,0:0:0:0:
256,192,118863,1,0,0:0:0:0:
109,192,119090,128,0,120453:0:0:0:0:
402,192,119090,128,0,119318:0:0:0:0:
256,192,119318,1,0,0:0:0:0:
256,192,119544,128,0,120908:0:0:0:0:
402,192,119772,1,0,0:0:0:0:
402,192,119999,128,0,121363:0:0:0:0:
36,192,119999,128,0,120227:0:0:0:0:
182,192,120227,1,0,0:0:0:0:
475,192,120453,128,0,121817:0:0:0:0:
36,192,120681,1,0,0:0:0:0:
329,192,120908,128,0,122272:0:0:0:0:
182,192,120909,128,0,121136:0:0:0:0:
36,192,121136,1,0,0:0:0:0:
182,192,121363,128,0,123181:0:0:0:0:
36,192,121590,1,0,0:0:0:0:
256,192,121704,1,0,0:0:0:0:
36,192,121817,128,0,123181:0:0:0:0:
109,192,121818,1,0,0:0:0:0:
402,192,121818,1,0,0:0:0:0:
402,192,122045,1,0,0:0:0:0:
256,192,122272,1,0,0:0:0:0:
475,192,122499,128,0,123635:0:0:0:0:
402,192,122499,1,0,0:0:0:0:
329,192,122726,128,0,123635:0:0:0:0:
402,192,122727,1,0,0:0:0:0:
109,192,122727,1,0,0:0:0:0:
256,192,122954,128,0,123181:0:0:0:0:
109,192,123181,128,0,123409:0:0:0:0:
402,192,123409,128,0,123636:0:0:0:0:
36,192,123635,128,0,125453:0:0:0:0:
182,192,123635,128,0,124544:0:0:0:0:
256,192,123636,128,0,123863:0:0:0:0:
329,192,123863,1,0,0:0:0:0:
329,192,124318,1,0,0:0:0:0:
329,192,124544,128,0,126362:0:0:0:0:
402,192,124545,128,0,124772:0:0:0:0:
475,192,124772,1,0,0:0:0:0:
475,192,125227,1,0,0:0:0:0:
182,192,125340,1,0,0:0:0:0:
475,192,125453,128,0,127271:0:0:0:0:
182,192,125454,128,0,125681:0:0:0:0:
36,192,125681,1,0,0:0:0:0:
182,192,126136,1,0,0:0:0:0:
182,192,126363,128,0,128635:0:0:0:0:
36,192,126363,128,0,126590:0:0:0:0:
329,192,126590,1,0,0:0:0:0:
36,192,127045,1,0,0:0:0:0:
329,192,127159,1,0,0:0:0:0:
36,192,127272,128,0,128635:0:0:0:0:
329,192,127272,128,0,128635:0:0:0:0:
402,192,127272,128,0,127499:0:0:0:0:
475,192,127499,1,0,0:0:0:0:
256,192,127954,1,0,0:0:0:0:
109,192,128181,1,0,0:0:0:0:
475,192,128181,128,0,128409:0:0:0:0:
402,192,128409,1,0,0:0:0:0:
475,192,128863,128,0,129203:0:0:0:0:
256,192,128863,1,0,0:0:0:0:
402,192,128976,128,0,129317:0:0:0:0:
109,192,128977,1,0,0:0:0:0:
329,192,129090,128,0,129431:0:0:0:0:
182,192,129090,1,0,0:0:0:0:
36,192,129090,128,0,129318:0:0:0:0:
256,192,129317,128,0,130226:0:0:0:0:
475,192,129317,128,0,130226:0:0:0:0:
109,192,129318,1,0,0:0:0:0:
109,192,129772,128,0,130681:0:0:0:0:
402,192,129772,128,0,130681:0:0:0:0:
182,192,129772,1,0,0:0:0:0:
36,192,129999,1,0,0:0:0:0:
329,192,129999,1,0,0:0:0:0:
329,192,130226,128,0,130908:0:0:0:0:
36,192,130226,128,0,130908:0:0:0:0:
182,192,130681,128,0,131363:0:0:0:0:
475,192,130908,128,0,131590:0:0:0:0:
109,192,130909,1,0,0:0:0:0:
402,192,130909,1,0,0:0:0:0:
256,192,130909,128,0,131136:0:0:0:0:
329,192,131136,1,0,0:0:0:0:
36,192,131363,128,0,132272:0:0:0:0:
402,192,131590,1,0,0:0:0:0:
182,192,131817,128,0,132272:0:0:0:0:
329,192,131817,128,0,132272:0:0:0:0:
475,192,131817,128,0,132272:0:0:0:0:
402,192,131818,1,0,0:0:0:0:
109,192,131818,128,0,132045:0:0:0:0:
256,192,132045,1,0,0:0:0:0:
329,192,132499,128,0,133181:0:0:0:0:
256,192,132500,1,0,0:0:0:0:
182,192,132613,1,0,0:0:0:0:
36,192,132726,128,0,133408:0:0:0:0:
109,192,132727,128,0,132954:0:0:0:0:
182,192,132954,1,0,0:0:0:0:
475,192,133181,128,0,134090:0:0:0:0:
256,192,133409,1,0,0:0:0:0:
329,192,133635,128,0,134090:0:0:0:0:
36,192,133635,128,0,134090:0:0:0:0:
182,192,133635,128,0,134090:0:0:0:0:
109,192,133636,128,0,133863:0:0:0:0:
402,192,133636,128,0,133863:0:0:0:0:
256,192,133863,1,0,0:0:0:0:
402,192,134317,128,0,136363:0:0:0:0:
109,192,134318,1,0,0:0:0:0:
256,192,134544,128,0,136363:0:0:0:0:
109,192,134545,128,0,134772:0:0:0:0:
36,192,134772,1,0,0:0:0:0:
109,192,134999,128,0,136363:0:0:0:0:
182,192,135227,1,0,0:0:0:0:
36,192,135454,128,0,137159:0:0:0:0:
329,192,135454,1,0,0:0:0:0:
475,192,135454,128,0,135681:0:0:0:0:
329,192,135681,1,0,0:0:0:0:
182,192,135909,128,0,137386:0:0:0:0:
329,192,136136,1,0,0:0:0:0:
475,192,136250,1,0,0:0:0:0:
329,192,136363,128,0,137613:0:0:0:0:
475,192,136363,128,0,136590:0:0:0:0:
402,192,136590,1,0,0:0:0:0:
109,192,136818,1,0,0:0:0:0:
475,192,137045,128,0,137840:0:0:0:0:
256,192,137045,128,0,137272:0:0:0:0:
109,192,137272,128,0,138181:0:0:0:0:
402,192,137272,128,0,138181:0:0:0:0:
36,192,137272,1,0,0:0:0:0:
182,192,137500,1,0,0:0:0:0:
329,192,137727,1,0,0:0:0:0:
475,192,137954,1,0,0:0:0:0:
256,192,138181,128,0,138636:0:0:0:0:
329,192,138181,1,0,0:0:0:0:
475,192,138181,1,0,0:0:0:0:
36,192,138409,128,0,139090:0:0:0:0:
329,192,138409,1,0,0:0:0:0:
109,192,138522,128,0,139204:0:0:0:0:
402,192,138522,1,0,0:0:0:0:
182,192,138636,128,0,139318:0:0:0:0:
475,192,138636,1,0,0:0:0:0:
329,192,138863,128,0,139318:0:0:0:0:
475,192,139090,128,0,139772:0:0:0:0:
402,192,139318,128,0,140000:0:0:0:0:
36,192,139318,1,0,0:0:0:0:
329,192,139545,128,0,140227:0:0:0:0:
109,192,139545,1,0,0:0:0:0:
256,192,139772,128,0,140454:0:0:0:0:
182,192,139772,1,0,0:0:0:0:
475,192,140000,128,0,140681:0:0:0:0:
36,192,140000,1,0,0:0:0:0:
109,192,140000,1,0,0:0:0:0:
182,192,140227,128,0,140909:0:0:0:0:
402,192,140227,1,0,0:0:0:0:
109,192,140454,128,0,141136:0:0:0:0:
329,192,140454,1,0,0:0:0:0:
36,192,140681,128,0,141363:0:0:0:0:
256,192,140681,1,0,0:0:0:0:
329,192,140909,128,0,141363:0:0:0:0:
475,192,140909,1,0,0:0:0:0:
475,192,141136,128,0,141818:0:0:0:0:
182,192,141136,128,0,141818:0:0:0:0:
402,192,141136,1,0,0:0:0:0:
256,192,141363,128,0,141818:0:0:0:0:
109,192,141363,1,0,0:0:0:0:
329,192,141590,128,0,141818:0:0:0:0:
36,192,141590,1,0,0:0:0:0:
36,192,141818,128,0,142272:0:0:0:0:
109,192,141818,128,0,142727:0:0:0:0:
475,192,142045,128,0,142727:0:0:0:0:
402,192,142159,128,0,142840:0:0:0:0:
329,192,142272,128,0,142954:0:0:0:0:
256,192,142386,1,0,0:0:0:0:
256,192,142500,128,0,143181:0:0:0:0:
36,192,142727,1,0,0:0:0:0:
182,192,142727,1,0,0:0:0:0:
36,192,142954,128,0,143636:0:0:0:0:
475,192,142954,1,0,0:0:0:0:
182,192,143181,128,0,143863:0:0:0:0:
329,192,143181,1,0,0:0:0:0:
329,192,143409,128,0,144090:0:0:0:0:
109,192,143409,1,0,0:0:0:0:
475,192,143636,128,0,144318:0:0:0:0:
256,192,143636,1,0,0:0:0:0:
402,192,143636,1,0,0:0:0:0:
109,192,143863,128,0,144431:0:0:0:0:
256,192,144090,128,0,144545:0:0:0:0:
402,192,144318,128,0,144659:0:0:0:0:
109,192,144545,128,0,145113:0:0:0:0:
36,192,144545,1,0,0:0:0:0:
475,192,144545,1,0,0:0:0:0:
256,192,144659,128,0,145000:0:0:0:0:
402,192,144772,128,0,144886:0:0:0:0:
402,192,145000,1,0,0:0:0:0:
256,192,145113,1,0,0:0:0:0:
109,192,145227,1,0,0:0:0:0:
475,192,145454,128,0,146363:0:0:0:0:
109,192,145454,1,0,0:0:0:0:
402,192,145568,128,0,146363:0:0:0:0:
182,192,145568,1,0,0:0:0:0:
109,192,145681,128,0,146363:0:0:0:0:
256,192,145681,1,0,0:0:0:0:
36,192,145795,128,0,146363:0:0:0:0:
329,192,145795,1,0,0:0:0:0:
182,192,145909,128,0,146818:0:0:0:0:
329,192,146136,128,0,146818:0:0:0:0:
256,192,146363,128,0,146818:0:0:0:0:
36,192,146818,128,0,147727:0:0:0:0:
475,192,146818,1,0,0:0:0:0:
109,192,147045,128,0,147727:0:0:0:0:
402,192,147045,1,0,0:0:0:0:
402,192,147272,128,0,147727:0:0:0:0:
329,192,147272,1,0,0:0:0:0:
475,192,147500,128,0,147727:0:0:0:0:
182,192,147500,1,0,0:0:0:0:
329,192,147727,128,0,149090:0:0:0:0:
256,192,147727,1,0,0:0:0:0:
256,192,147954,128,0,149090:0:0:0:0:
109,192,148181,128,0,149090:0:0:0:0:
36,192,148181,1,0,0:0:0:0:
475,192,148181,1,0,0:0:0:0:
36,192,148409,128,0,149090:0:0:0:0:
402,192,148636,128,0,149545:0:0:0:0:
475,192,148863,128,0,149772:0:0:0:0:
182,192,149090,128,0,150000:0:0:0:0:
256,192,149318,128,0,150227:0:0:0:0:
329,192,149545,128,0,150454:0:0:0:0:
402,192,149772,128,0,150681:0:0:0:0:
109,192,150000,128,0,150909:0:0:0:0:
36,192,150000,1,0,0:0:0:0:
475,192,150000,1,0,0:0:0:0:
182,192,150227,128,0,151022:0:0:0:0:
256,192,150454,128,0,151136:0:0:0:0:
329,192,150681,128,0,151250:0:0:0:0:
36,192,150909,1,0,0:0:0:0:
109,192,151022,1,0,0:0:0:0:
182,192,151136,1,0,0:0:0:0:
256,192,151250,1,0,0:0:0:0:
329,192,151363,128,0,152727:0:0:0:0:
475,192,151363,1,0,0:0:0:0:
182,192,151590,128,0,152045:0:0:0:0:
402,192,151590,1,0,0:0:0:0:
36,192,151818,128,0,152272:0:0:0:0:
109,192,151818,1,0,0:0:0:0:
475,192,151818,1,0,0:0:0:0:
256,192,152045,128,0,152727:0:0:0:0:
475,192,152045,1,0,0:0:0:0:
182,192,152272,128,0,152727:0:0:0:0:
402,192,152272,1,0,0:0:0:0:
109,192,152500,128,0,152727:0:0:0:0:
475,192,152500,1,0,0:0:0:0:
402,192,152613,1,0,0:0:0:0:
475,192,152727,128,0,152840:0:0:0:0:
475,192,152954,1,0,0:0:0:0:
475,192,153295,1,0,0:0:0:0:
256,192,153409,128,0,153636:0:0:0:0:
402,192,153636,1,0,0:0:0:0:
36,192,153636,1,0,0:0:0:0:
109,192,153636,1,0,0:0:0:0:
256,192,154318,128,0,154545:0:0:0:0:
475,192,154545,128,0,154772:0:0:0:0:
109,192,154545,1,0,0:0:0:0:
36,192,154545,1,0,0:0:0:0:
475,192,155000,128,0,155227:0:0:0:0:
256,192,155227,1,0,0:0:0:0:
475,192,155454,1,0,0:0:0:0:
36,192,155454,1,0,0:0:0:0:
182,192,155454,1,0,0:0:0:0:
402,192,155454,1,0,0:0:0:0:
475,192,155795,1,0,0:0:0:0:
475,192,156022,1,0,0:0:0:0:
256,192,156136,1,0,0:0:0:0:
475,192,156363,128,0,156476:0:0:0:0:
36,192,156363,1,0,0:0:0:0:
109,192,156363,1,0,0:0:0:0:
329,192,156363,1,0,0:0:0:0:
475,192,156590,1,0,0:0:0:0:
475,192,156931,1,0,0:0:0:0:
256,192,157045,128,0,157272:0:0:0:0:
402,192,157272,1,0,0:0:0:0:
36,192,157272,1,0,0:0:0:0:
109,192,157272,1,0,0:0:0:0:
329,192,157272,1,0,0:0:0:0:
256,192,157954,128,0,158181:0:0:0:0:
475,192,158181,128,0,158408:0:0:0:0:
36,192,158181,1,0,0:0:0:0:
109,192,158181,1,0,0:0:0:0:
475,192,158636,128,0,158863:0:0:0:0:
256,192,158863,1,0,0:0:0:0:
475,192,159090,1,0,0:0:0:0:
36,192,159090,1,0,0:0:0:0:
182,192,159090,1,0,0:0:0:0:
329,192,159090,1,0,0:0:0:0:
475,192,159431,1,0,0:0:0:0:
475,192,159658,1,0,0:0:0:0:
256,192,159772,1,0,0:0:0:0:
475,192,160000,128,0,160113:0:0:0:0:
182,192,160000,1,0,0:0:0:0:
329,192,160000,1,0,0:0:0:0:
109,192,160000,1,0,0:0:0:0:
475,192,160227,1,0,0:0:0:0:
475,192,160568,1,0,0:0:0:0:
256,192,160682,128,0,160909:0:0:0:0:
402,192,160909,1,0,0:0:0:0:
36,192,160909,1,0,0:0:0:0:
109,192,160909,1,0,0:0:0:0:
256,192,161591,128,0,161818:0:0:0:0:
475,192,161818,128,0,162045:0:0:0:0:
36,192,161818,1,0,0:0:0:0:
182,192,161818,1,0,0:0:0:0:
329,192,161818,1,0,0:0:0:0:
475,192,162273,128,0,162500:0:0:0:0:
256,192,162500,1,0,0:0:0:0:
475,192,162727,1,0,0:0:0:0:
36,192,162727,1,0,0:0:0:0:
109,192,162727,1,0,0:0:0:0:
329,192,162727,1,0,0:0:0:0:
475,192,163068,1,0,0:0:0:0:
475,192,163295,1,0,0:0:0:0:
256,192,163409,1,0,0:0:0:0:
475,192,163636,128,0,163749:0:0:0:0:
36,192,163636,1,0,0:0:0:0:
182,192,163636,1,0,0:0:0:0:
329,192,163636,1,0,0:0:0:0:
475,192,163863,1,0,0:0:0:0:
475,192,164204,1,0,0:0:0:0:
256,192,164318,128,0,164545:0:0:0:0:
402,192,164545,1,0,0:0:0:0:
182,192,164545,1,0,0:0:0:0:
109,192,164545,1,0,0:0:0:0:
36,192,164545,1,0,0:0:0:0:
256,192,165227,128,0,165454:0:0:0:0:
182,192,165454,1,0,0:0:0:0:
329,192,165454,1,0,0:0:0:0:
36,192,166363,1,0,0:0:0:0:
109,192,166363,1,0,0:0:0:0:
256,192,166363,1,0,0:0:0:0:
402,192,166363,1,0,0:0:0:0:
475,192,166363,1,0,0:0:0:0:
36,192,167272,128,0,169090:0:0:0:0:
182,192,167272,128,0,168181:0:0:0:0:
475,192,167272,128,0,168636:0:0:0:0:
256,192,167272,1,0,0:0:0:0:
329,192,167272,1,0,0:0:0:0:
402,192,167499,1,0,0:0:0:0:
329,192,167954,1,0,0:0:0:0:
256,192,168068,1,0,0:0:0:0:
329,192,168181,128,0,169999:0:0:0:0:
109,192,168181,1,0,0:0:0:0:
402,192,168181,1,0,0:0:0:0:
256,192,168409,1,0,0:0:0:0:
182,192,168636,128,0,168863:0:0:0:0:
475,192,168863,1,0,0:0:0:0:
256,192,168863,128,0,169318:0:0:0:0:
402,192,168977,1,0,0:0:0:0:
475,192,169090,128,0,170908:0:0:0:0:
109,192,169090,1,0,0:0:0:0:
182,192,169318,1,0,0:0:0:0:
402,192,169318,128,0,169999:0:0:0:0:
182,192,169999,128,0,171817:0:0:0:0:
36,192,169999,1,0,0:0:0:0:
256,192,169999,1,0,0:0:0:0:
109,192,169999,128,0,170454:0:0:0:0:
329,192,170227,1,0,0:0:0:0:
256,192,170454,128,0,170909:0:0:0:0:
329,192,170681,1,0,0:0:0:0:
109,192,170795,1,0,0:0:0:0:
402,192,170908,128,0,172726:0:0:0:0:
36,192,170909,1,0,0:0:0:0:
329,192,170909,1,0,0:0:0:0:
109,192,171136,1,0,0:0:0:0:
329,192,171590,1,0,0:0:0:0:
256,192,171817,128,0,173635:0:0:0:0:
36,192,171818,1,0,0:0:0:0:
475,192,171818,1,0,0:0:0:0:
109,192,171818,1,0,0:0:0:0:
329,192,172045,1,0,0:0:0:0:
109,192,172499,1,0,0:0:0:0:
329,192,172613,1,0,0:0:0:0:
109,192,172726,128,0,174545:0:0:0:0:
36,192,172727,1,0,0:0:0:0:
475,192,172727,1,0,0:0:0:0:
182,192,172954,1,0,0:0:0:0:
402,192,173409,1,0,0:0:0:0:
475,192,173635,128,0,175454:0:0:0:0:
329,192,173636,1,0,0:0:0:0:
182,192,173636,1,0,0:0:0:0:
402,192,173863,128,0,175226:0:0:0:0:
256,192,173863,1,0,0:0:0:0:
329,192,174090,128,0,174999:0:0:0:0:
182,192,174204,1,0,0:0:0:0:
256,192,174317,128,0,174772:0:0:0:0:
36,192,174318,1,0,0:0:0:0:
182,192,174431,1,0,0:0:0:0:
36,192,174545,128,0,175454:0:0:0:0:
182,192,174772,1,0,0:0:0:0:
182,192,174999,128,0,176363:0:0:0:0:
329,192,175227,1,0,0:0:0:0:
329,192,175454,128,0,177272:0:0:0:0:
109,192,175454,1,0,0:0:0:0:
402,192,175454,1,0,0:0:0:0:
475,192,175681,1,0,0:0:0:0:
475,192,175908,128,0,177272:0:0:0:0:
36,192,176136,1,0,0:0:0:0:
402,192,176249,1,0,0:0:0:0:
36,192,176363,128,0,177272:0:0:0:0:
109,192,176363,1,0,0:0:0:0:
256,192,176363,1,0,0:0:0:0:
182,192,176590,1,0,0:0:0:0:
182,192,177045,1,0,0:0:0:0:
109,192,177272,128,0,178635:0:0:0:0:
256,192,177272,1,0,0:0:0:0:
402,192,177272,1,0,0:0:0:0:
182,192,177499,1,0,0:0:0:0:
256,192,177726,128,0,179090:0:0:0:0:
329,192,177954,1,0,0:0:0:0:
402,192,178181,128,0,179545:0:0:0:0:
36,192,178181,1,0,0:0:0:0:
475,192,178181,1,0,0:0:0:0:
182,192,178409,1,0,0:0:0:0:
475,192,178635,128,0,179999:0:0:0:0:
329,192,178863,1,0,0:0:0:0:
329,192,179090,128,0,180454:0:0:0:0:
182,192,179090,1,0,0:0:0:0:
36,192,179090,1,0,0:0:0:0:
109,192,179318,1,0,0:0:0:0:
182,192,179545,128,0,180909:0:0:0:0:
36,192,179772,1,0,0:0:0:0:
256,192,179886,1,0,0:0:0:0:
36,192,179999,128,0,180909:0:0:0:0:
109,192,179999,1,0,0:0:0:0:
402,192,179999,1,0,0:0:0:0:
475,192,180227,1,0,0:0:0:0:
402,192,180454,1,0,0:0:0:0:
475,192,180681,128,0,181363:0:0:0:0:
329,192,180681,1,0,0:0:0:0:
109,192,180909,1,0,0:0:0:0:
402,192,180909,1,0,0:0:0:0:
329,192,180909,1,0,0:0:0:0:
256,192,181022,1,0,0:0:0:0:
256,192,181136,1,0,0:0:0:0:
36,192,181363,128,0,181477:0:0:0:0:
182,192,181363,128,0,181477:0:0:0:0:
329,192,181363,128,0,181477:0:0:0:0:
109,192,181477,128,0,181590:0:0:0:0:
256,192,181477,128,0,181590:0:0:0:0:
402,192,181477,128,0,181590:0:0:0:0:
182,192,181590,128,0,181704:0:0:0:0:
329,192,181590,128,0,181704:0:0:0:0:
475,192,181590,128,0,181704:0:0:0:0:
402,192,181704,128,0,181818:0:0:0:0:
256,192,181704,128,0,181818:0:0:0:0:
36,192,181817,128,0,183635:0:0:0:0:
182,192,181817,128,0,182726:0:0:0:0:
475,192,181818,128,0,183181:0:0:0:0:
329,192,182045,1,0,0:0:0:0:
402,192,182499,1,0,0:0:0:0:
329,192,182726,128,0,184544:0:0:0:0:
109,192,182727,1,0,0:0:0:0:
182,192,182954,1,0,0:0:0:0:
402,192,183181,128,0,183409:0:0:0:0:
256,192,183409,128,0,184545:0:0:0:0:
475,192,183409,1,0,0:0:0:0:
109,192,183522,1,0,0:0:0:0:
475,192,183635,128,0,185453:0:0:0:0:
182,192,183636,1,0,0:0:0:0:
402,192,183636,1,0,0:0:0:0:
36,192,183863,1,0,0:0:0:0:
36,192,184318,1,0,0:0:0:0:
109,192,184431,1,0,0:0:0:0:
182,192,184545,128,0,186817:0:0:0:0:
36,192,184545,1,0,0:0:0:0:
402,192,184545,1,0,0:0:0:0:
329,192,184772,1,0,0:0:0:0:
109,192,184999,1,0,0:0:0:0:
329,192,185227,1,0,0:0:0:0:
109,192,185340,1,0,0:0:0:0:
329,192,185454,128,0,186817:0:0:0:0:
36,192,185454,128,0,186817:0:0:0:0:
256,192,185454,1,0,0:0:0:0:
402,192,185454,1,0,0:0:0:0:
475,192,185681,1,0,0:0:0:0:
402,192,185909,1,0,0:0:0:0:
475,192,186136,1,0,0:0:0:0:
402,192,186363,1,0,0:0:0:0:
256,192,186363,1,0,0:0:0:0:
109,192,186363,1,0,0:0:0:0:
475,192,186590,1,0,0:0:0:0:
256,192,186818,1,0,0:0:0:0:
475,192,187045,128,0,187385:0:0:0:0:
182,192,187045,1,0,0:0:0:0:
402,192,187158,128,0,187499:0:0:0:0:
329,192,187272,128,0,187613:0:0:0:0:
36,192,187272,1,0,0:0:0:0:
109,192,187272,1,0,0:0:0:0:
475,192,187499,128,0,188408:0:0:0:0:
256,192,187499,128,0,188408:0:0:0:0:
182,192,187499,1,0,0:0:0:0:
109,192,187954,128,0,188863:0:0:0:0:
402,192,187954,128,0,188863:0:0:0:0:
36,192,187954,1,0,0:0:0:0:
182,192,188181,1,0,0:0:0:0:
329,192,188181,1,0,0:0:0:0:
36,192,188408,128,0,189090:0:0:0:0:
329,192,188408,128,0,189090:0:0:0:0:
182,192,188409,1,0,0:0:0:0:
256,192,188636,1,0,0:0:0:0:
182,192,188863,128,0,189545:0:0:0:0:
475,192,189090,128,0,189772:0:0:0:0:
109,192,189090,1,0,0:0:0:0:
402,192,189090,1,0,0:0:0:0:
256,192,189318,1,0,0:0:0:0:
36,192,189545,128,0,190454:0:0:0:0:
256,192,189772,1,0,0:0:0:0:
182,192,189999,128,0,190454:0:0:0:0:
475,192,189999,128,0,190454:0:0:0:0:
329,192,189999,128,0,190454:0:0:0:0:
109,192,189999,1,0,0:0:0:0:
402,192,189999,1,0,0:0:0:0:
256,192,190227,1,0,0:0:0:0:
329,192,190681,128,0,191363:0:0:0:0:
256,192,190681,1,0,0:0:0:0:
182,192,190795,1,0,0:0:0:0:
36,192,190908,128,0,191590:0:0:0:0:
109,192,190909,1,0,0:0:0:0:
475,192,190909,1,0,0:0:0:0:
256,192,191136,1,0,0:0:0:0:
475,192,191363,128,0,192272:0:0:0:0:
256,192,191590,1,0,0:0:0:0:
182,192,191817,128,0,192272:0:0:0:0:
329,192,191817,128,0,192272:0:0:0:0:
36,192,191817,128,0,192272:0:0:0:0:
109,192,191818,1,0,0:0:0:0:
402,192,191818,1,0,0:0:0:0:
256,192,192045,1,0,0:0:0:0:
402,192,192499,128,0,194545:0:0:0:0:
109,192,192499,1,0,0:0:0:0:
256,192,192726,128,0,194545:0:0:0:0:
475,192,192727,128,0,192954:0:0:0:0:
329,192,192954,1,0,0:0:0:0:
182,192,192954,128,0,193181:0:0:0:0:
109,192,193181,128,0,194545:0:0:0:0:
36,192,193181,1,0,0:0:0:0:
329,192,193181,128,0,193409:0:0:0:0:
475,192,193409,1,0,0:0:0:0:
182,192,193409,128,0,193636:0:0:0:0:
36,192,193636,128,0,195454:0:0:0:0:
329,192,193636,1,0,0:0:0:0:
475,192,193636,128,0,193863:0:0:0:0:
329,192,193863,128,0,194090:0:0:0:0:
182,192,194090,128,0,195454:0:0:0:0:
475,192,194090,128,0,194318:0:0:0:0:
329,192,194318,1,0,0:0:0:0:
329,192,194545,128,0,195454:0:0:0:0:
475,192,194545,1,0,0:0:0:0:
256,192,194772,1,0,0:0:0:0:
109,192,194999,1,0,0:0:0:0:
475,192,195227,128,0,195454:0:0:0:0:
256,192,195227,1,0,0:0:0:0:
402,192,195454,128,0,196363:0:0:0:0:
109,192,195454,128,0,196363:0:0:0:0:
256,192,196363,128,0,196818:0:0:0:0:
475,192,196363,128,0,197272:0:0:0:0:
182,192,196363,1,0,0:0:0:0:
36,192,196363,1,0,0:0:0:0:
329,192,196590,128,0,197045:0:0:0:0:
182,192,196818,128,0,197272:0:0:0:0:
256,192,197045,128,0,197499:0:0:0:0:
109,192,197272,128,0,197727:0:0:0:0:
36,192,197272,128,0,198181:0:0:0:0:
402,192,197272,1,0,0:0:0:0:
329,192,197499,128,0,197954:0:0:0:0:
182,192,197727,128,0,198181:0:0:0:0:
256,192,197954,128,0,198409:0:0:0:0:
329,192,198181,128,0,198636:0:0:0:0:
109,192,198181,1,0,0:0:0:0:
475,192,198181,128,0,199090:0:0:0:0:
182,192,198409,128,0,198863:0:0:0:0:
256,192,198636,128,0,199090:0:0:0:0:
329,192,198863,128,0,199318:0:0:0:0:
402,192,199090,128,0,199999:0:0:0:0:
109,192,199090,1,0,0:0:0:0:
36,192,199999,128,0,200909:0:0:0:0:
256,192,200909,128,0,201818:0:0:0:0:
475,192,200909,1,0,0:0:0:0:
402,192,200909,1,0,0:0:0:0:
109,192,200909,1,0,0:0:0:0:
109,192,201818,128,0,202727:0:0:0:0:
256,192,202499,1,0,0:0:0:0:
475,192,202499,1,0,0:0:0:0:
402,192,202727,1,0,0:0:0:0:
182,192,202727,1,0,0:0:0:0:
36,192,202727,1,0,0:0:0:0:
329,192,202954,1,0,0:0:0:0:
109,192,202954,1,0,0:0:0:0:
256,192,203181,1,0,0:0:0:0:
36,192,203181,1,0,0:0:0:0:
182,192,203409,1,0,0:0:0:0:
475,192,203409,1,0,0:0:0:0:
109,192,203636,128,0,204545:0:0:0:0:
36,192,204545,1,0,0:0:0:0:
402,192,204545,1,0,0:0:0:0:
475,192,204545,1,0,0:0:0:0:
329,192,204545,128,0,205454:0:0:0:0:
109,192,205454,128,0,206363:0:0:0:0:
329,192,206363,128,0,207272:0:0:0:0:
36,192,206363,1,0,0:0:0:0:
475,192,206363,1,0,0:0:0:0:
402,192,206363,1,0,0:0:0:0:
36,192,207272,128,0,208181:0:0:0:0:
329,192,208181,128,0,209090:0:0:0:0:
182,192,208181,1,0,0:0:0:0:
109,192,208181,1,0,0:0:0:0:
475,192,208181,1,0,0:0:0:0:
182,192,209090,128,0,209999:0:0:0:0:
329,192,209772,1,0,0:0:0:0:
109,192,209772,1,0,0:0:0:0:
402,192,209999,1,0,0:0:0:0:
256,192,209999,1,0,0:0:0:0:
36,192,209999,1,0,0:0:0:0:
475,192,209999,1,0,0:0:0:0:
