osu file format v14

[General]
AudioFilename: cryomaiwaifu.mp3
AudioLeadIn: 0
PreviewTime: 52188
Countdown: 0
SampleSet: Soft
StackLeniency: 0.7
Mode: 0
LetterboxInBreaks: 0
EpilepsyWarning: 1
WidescreenStoryboard: 1

[Editor]
Bookmarks: 131754
DistanceSpacing: 1.2
BeatDivisor: 4
GridSize: 4
TimelineZoom: 1.9

[Metadata]
Title:Asymmetry
TitleUnicode:アシンメトリー
Artist:Reol
ArtistUnicode:れをる
Creator:Skystar
Version:Twin Advanced
Source:
Tags:cRyo[iceeicee] -[Koinuri] koinuri ShallICompareThee pandorawindy Amamiya Yuko Guy alacat Fycho Irreversible Asphyxia Mao Desperate-kun Leader -kevincela- Kyshiro Chewin CLSW No title title- L.Petty Giga GigaP Giga-P reworu utaite drum and bass dnb
BeatmapID:698250
BeatmapSetID:310499

[Difficulty]
HPDrainRate:4
CircleSize:3.8
OverallDifficulty:4.5
ApproachRate:5.5
SliderMultiplier:1.2
SliderTickRate:1

[Events]
//Background and Video events
0,0,"BG.jpg",0,0
//Break Periods
2,81084,83672
//Storyboard Layer 0 (Background)
//Storyboard Layer 1 (Fail)
//Storyboard Layer 2 (Pass)
//Storyboard Layer 3 (Foreground)
//Storyboard Sound Samples

[TimingPoints]
15,326.086956521739,4,2,0,30,1,0
1319,-111.111111111111,4,2,0,20,0,0
1563,-111.111111111111,4,2,0,15,0,0
1808,-111.111111111111,4,2,0,10,0,0
2052,-111.111111111111,4,2,0,5,0,0
2623,-111.111111111111,4,2,0,20,0,0
2867,-111.111111111111,4,2,0,15,0,0
3112,-111.111111111111,4,2,0,10,0,0
3357,-111.111111111111,4,2,0,5,0,0
3927,-111.111111111111,4,2,0,20,0,0
4171,-111.111111111111,4,2,0,15,0,0
4416,-111.111111111111,4,2,0,10,0,0
4660,-111.111111111111,4,2,0,5,0,0
5232,-111.111111111111,4,2,0,25,0,0
5476,-111.111111111111,4,2,0,20,0,0
5721,-111.111111111111,4,2,0,15,0,0
5884,-111.111111111111,4,2,0,25,0,0
6128,-111.111111111111,4,2,0,20,0,0
6373,-111.111111111111,4,2,0,15,0,0
6536,-111.111111111111,4,2,1,85,0,0
6699,-111.111111111111,4,2,0,50,0,0
11101,-111.111111111111,4,2,0,65,0,0
11753,-111.111111111111,4,2,0,45,0,0
12732,-111.111111111111,4,2,0,30,0,0
13058,-111.111111111111,4,2,0,45,0,0
13873,-111.111111111111,4,1,0,75,0,0
14036,-111.111111111111,4,2,0,45,0,0
14851,-111.111111111111,4,1,0,75,0,0
15014,-111.111111111111,4,2,0,45,0,0
15341,-111.111111111111,4,1,0,65,0,0
15504,-111.111111111111,4,2,0,45,0,0
16319,-111.111111111111,4,1,0,75,0,0
16482,-111.111111111111,4,2,0,45,0,0
17949,-111.111111111111,4,2,0,35,0,0
18275,-111.111111111111,4,2,0,45,0,0
20884,-133.333333333333,4,2,10,45,0,0
21047,-133.333333333333,4,1,0,75,0,0
21210,-133.333333333333,4,2,0,45,0,0
21536,-133.333333333333,4,1,0,75,0,0
21699,-133.333333333333,4,2,0,45,0,0
21862,-133.333333333333,4,1,2,60,0,0
22188,-100,4,1,2,60,0,0
26101,-100,4,2,1,65,0,0
27080,-100,4,1,2,50,0,0
31318,-100,4,2,2,65,0,0
31808,-100,4,2,1,65,0,0
32297,-100,4,1,2,65,0,0
32623,-111.111111111111,4,2,4,70,0,0
37841,-111.111111111111,4,2,5,100,0,0
43058,-100,4,2,6,100,0,0
52188,-111.111111111111,4,2,6,100,0,0
53493,-83.3333333333333,4,2,1,75,0,1
61482,-83.3333333333333,4,2,3,75,0,1
62297,-83.3333333333333,4,2,1,75,0,1
62786,-83.3333333333333,4,2,1,60,0,1
62949,-83.3333333333333,4,2,1,75,0,1
71591,-83.3333333333333,4,2,3,55,0,1
71754,-83.3333333333333,4,2,3,75,0,1
72895,-83.3333333333333,4,2,1,75,0,1
74199,-83.3333333333333,4,2,3,75,0,1
74362,-83.3333333333333,4,2,1,75,0,1
77134,-83.3333333333333,4,2,3,75,0,1
78112,-100,4,1,2,60,0,0
78438,-100,4,2,6,100,0,0
78927,-100,4,2,5,100,0,0
79091,-100,4,2,6,100,0,0
84797,-111.111111111111,4,1,1,60,0,0
85449,-100,4,1,1,70,0,0
85693,-100,4,1,1,50,0,0
85775,-111.111111111111,4,1,1,50,0,0
87405,-111.111111111111,4,1,1,30,0,0
88058,-100,4,1,1,70,0,0
88384,-111.111111111111,4,2,1,90,0,0
88710,-111.111111111111,4,1,1,30,0,0
89362,-111.111111111111,4,1,1,40,0,0
89688,-111.111111111111,4,1,1,50,0,0
90014,-100,4,1,1,60,0,0
95558,-100,4,1,2,60,0,0
98982,-100,4,1,2,90,0,0
99308,-111.111111111111,4,2,0,50,0,0
99797,-111.111111111111,4,2,0,70,0,0
100449,-100,4,1,1,80,0,0
100612,-100,4,1,2,60,0,0
100775,-100,4,1,2,50,0,0
100938,-100,4,1,2,70,0,0
101264,-100,4,1,2,50,0,0
103221,-100,4,1,2,60,0,0
103384,-100,4,1,2,50,0,0
103547,-100,4,1,2,70,0,0
103873,-100,4,1,2,50,0,0
105829,-100,4,1,2,60,0,0
105992,-100,4,1,2,50,0,0
106155,-100,4,1,2,70,0,0
106482,-100,4,1,2,50,0,0
108438,-100,4,1,2,60,0,0
108601,-100,4,1,2,50,0,0
108764,-100,4,1,2,70,0,0
109091,-100,4,1,2,50,0,0
110884,-111.111111111111,4,2,4,100,0,0
116101,-111.111111111111,4,2,5,100,0,0
121319,-100,4,2,6,100,0,0
130449,-100,4,1,1,80,0,0
130775,-100,4,1,1,50,0,0
131101,-100,4,2,6,100,0,0
131754,-83.3333333333333,4,2,1,75,0,1
139579,-83.3333333333333,4,2,3,75,0,1
140395,-83.3333333333333,4,2,1,75,0,1
140558,-83.3333333333333,4,2,3,75,0,1
140884,-83.3333333333333,4,2,1,75,0,1
150014,-83.3333333333333,4,2,3,75,0,1
151074,-83.3333333333333,4,2,1,75,0,1
160449,-83.3333333333333,4,2,3,75,0,1
163058,-83.3333333333333,4,2,1,75,0,1
170884,-83.3333333333333,4,2,3,75,0,1
171373,-83.3333333333333,4,2,1,75,0,1
171699,-83.3333333333333,4,2,3,75,0,1
172188,-83.3333333333333,4,2,1,75,0,1
176101,-83.3333333333333,4,2,3,75,0,1
176346,-83.3333333333333,4,2,1,75,0,1
176591,-83.3333333333333,4,2,3,75,0,1
177405,-83.3333333333333,4,2,1,75,0,1
178710,-111.111111111111,4,2,60,80,0,0
179036,-111.111111111111,4,2,60,100,0,0
179444,-111.111111111111,4,2,60,70,0,0
180178,-111.111111111111,4,2,60,100,0,0
180504,-111.111111111111,4,2,60,70,0,0
181645,-111.111111111111,4,2,60,80,0,0
181971,-111.111111111111,4,2,60,70,0,0
182786,-111.111111111111,4,2,60,100,0,0
183112,-111.111111111111,4,2,60,80,0,0
183927,-111.111111111111,4,2,60,100,0,0
184009,-111.111111111111,4,2,0,5,0,0
184416,-111.111111111111,4,2,60,100,0,0
186618,-111.111111111111,4,2,10,5,0,0
187188,-111.111111111111,4,2,60,100,0,0
187922,-111.111111111111,4,2,1,5,0,0
188491,-111.111111111111,4,2,0,30,0,0
189143,-111.111111111111,4,1,2,70,0,0
189145,-100,4,1,2,70,0,0
194360,-100,4,1,0,70,0,0
198275,-100,4,1,1,70,0,0
198598,-100,4,1,0,50,0,0
198761,-100,4,1,0,60,0,0
198924,-100,4,1,1,80,0,0
199087,-100,4,1,0,80,0,0
199250,-100,4,1,0,90,0,0
199413,-100,4,1,0,100,0,0
199577,-100,4,1,2,80,0,0
199580,-100,4,1,2,80,0,1
199661,-100,4,1,2,80,0,0
199906,-100,4,1,51,70,0,0
200229,-100,4,2,0,100,0,0
200718,-100,4,1,0,100,0,0
200721,-83.3333333333333,4,1,0,100,0,1
210500,-83.3333333333333,4,1,50,90,0,1
211316,-83.3333333333333,4,1,0,100,0,1
213109,-83.3333333333333,4,1,50,80,0,1
213924,-83.3333333333333,4,1,0,100,0,1
214250,-83.3333333333333,4,1,0,80,0,1
214350,-83.3333333333333,4,1,0,100,0,1
214903,-83.3333333333333,4,1,0,80,0,1
215003,-83.3333333333333,4,1,0,100,0,1
220446,-83.3333333333333,4,1,0,80,0,1
221098,-83.3333333333333,4,1,0,100,0,1
221343,-83.3333333333333,4,2,0,5,0,1
221424,-83.3333333333333,4,1,0,70,0,1
221750,-83.3333333333333,4,1,0,100,0,1
224199,-100,4,1,2,100,0,0
224685,-100,4,1,50,30,0,0
224851,-100,4,1,0,40,0,0
225014,-100,4,1,50,50,0,0
225178,-100,4,1,0,60,0,0
225341,-100,4,1,50,70,0,0
225582,-100,4,2,0,5,0,0
225663,-100,4,1,1,90,0,0
225667,-90.9090909090909,4,1,1,90,0,0
225830,-90.9090909090909,4,1,0,90,0,0
226479,-90.9090909090909,4,1,50,70,0,0
226886,-90.9090909090909,4,1,0,90,0,0
227294,-90.9090909090909,4,1,0,70,0,0
227394,-90.9090909090909,4,1,0,90,0,0
227946,-90.9090909090909,4,1,0,70,0,0
228046,-90.9090909090909,4,1,0,90,0,0
229087,-90.9090909090909,4,1,50,80,0,0
229495,-90.9090909090909,4,1,50,90,0,0
229903,-90.9090909090909,4,1,50,70,0,0
230003,-90.9090909090909,4,1,50,90,0,0
230555,-90.9090909090909,4,1,50,70,0,0
230655,-90.9090909090909,4,1,50,90,0,0
237729,-90.9090909090909,4,1,50,70,0,0
237829,-90.9090909090909,4,1,50,90,0,0
238381,-90.9090909090909,4,1,50,70,0,0
238481,-90.9090909090909,4,1,50,90,0,0
239522,-90.9090909090909,4,1,50,80,0,0
239930,-90.9090909090909,4,1,50,90,0,0
240337,-90.9090909090909,4,1,50,80,0,0
240437,-90.9090909090909,4,1,50,90,0,0
242783,-90.9090909090909,4,1,50,60,0,0
243191,-90.9090909090909,4,1,50,90,0,0
245555,-90.9090909090909,4,1,0,90,0,0
246533,-90.9090909090909,4,1,0,100,0,0
246696,-90.9090909090909,4,1,0,50,0,0
246941,-90.9090909090909,4,1,0,100,0,0
247104,-90.9090909090909,4,1,0,50,0,0
247430,-90.9090909090909,4,1,0,100,0,0
247593,-90.9090909090909,4,1,0,50,0,0
247919,-90.9090909090909,4,1,0,100,0,0
248082,-90.9090909090909,4,1,0,50,0,0
248408,-90.9090909090909,4,1,0,100,0,0
248571,-90.9090909090909,4,1,0,50,0,0
248897,-90.9090909090909,4,1,0,100,0,0
249060,-90.9090909090909,4,1,0,50,0,0
249386,-90.9090909090909,4,1,0,100,0,0
249549,-90.9090909090909,4,1,0,50,0,0
249875,-90.9090909090909,4,1,0,100,0,0
250038,-90.9090909090909,4,1,0,50,0,0
250364,-90.9090909090909,4,1,0,100,0,0
250527,-90.9090909090909,4,1,0,50,0,0
250854,-90.9090909090909,4,1,0,100,0,0
251017,-90.9090909090909,4,1,0,50,0,0
251343,-90.9090909090909,4,1,0,100,0,0

[Colours]
Combo1 : 255,0,0
Combo2 : 0,128,255
Combo3 : 230,230,230
Combo4 : 0,255,255

[HitObjects]
106,112,1319,6,0,L|187:90,1,80.9999975280763,0|0,0:0|0:0,0:0:0:0:
368,116,2623,6,0,L|287:138,1,80.9999975280763
104,261,3928,6,0,L|183:240,1,80.9999975280763,0|0,0:0|0:0,0:0:0:0:
444,245,5232,6,0,L|365:266,1,80.9999975280763,0|0,0:0|0:0,0:0:0:0:
251,338,5884,2,0,L|230:259,1,80.9999975280763,0|0,0:0|0:0,0:0:0:0:
165,141,6536,6,0,P|231:153|279:137,1,107.999996704102,4|0,0:3|0:0,0:0:0:0:
334,103,7025,2,0,B|377:106|377:106|399:123|399:123|442:126,1,107.999996704102,2|2,0:3|0:0,0:0:0:0:
478,189,7514,1,0,0:0:0:0:
394,315,7841,6,0,P|348:311|283:347,1,107.999996704102,0|0,0:0|0:0,0:0:0:0:
231,293,8330,2,0,P|183:317|130:314,1,107.999996704102,2|2,0:0|0:0,0:0:0:0:
66,272,8819,2,0,L|53:205,1,53.9999983520508,2|2,0:3|0:0,0:0:0:0:
97,156,9145,6,0,L|212:169,1,107.999996704102,0|0,0:0|0:0,0:0:0:0:
259,220,9634,2,0,P|322:194|323:100,1,161.999995056153,2|0,0:3|0:0,0:0:0:0:
460,34,10449,6,0,L|451:148,1,107.999996704102,0|0,0:0|0:0,0:0:0:0:
476,213,10938,1,2,0:0:0:0:
500,284,11101,2,0,L|496:346,1,53.9999983520508,2|2,0:0|0:0,0:0:0:0:
421,322,11428,2,0,P|377:318|312:351,1,107.999996704102
226,323,12732,6,0,P|178:346|124:344,1,107.999996704102,0|0,0:0|0:0,0:0:0:0:
41,293,14036,6,0,L|26:182,1,107.999996704102,0|0,0:0|0:0,0:0:0:0:
106,130,15341,6,0,L|121:19,1,107.999996704102,0|0,2:0|0:0,0:0:0:0:
256,192,16319,1,2,2:0:0:0:
391,361,16971,2,0,L|406:254,1,107.999996704102,0|0,0:0|0:0,0:0:0:0:
477,189,18275,6,0,P|483:139|453:88,1,107.999996704102,0|0,0:0|0:0,0:0:0:0:
378,29,19580,6,0,P|333:55|363:91,1,107.999996704102,0|2,0:0|0:0,0:0:0:0:
388,184,20884,6,0,P|347:272|302:166,1,270.000010299683,0|0,0:0|0:0,0:0:0:0:
193,54,22188,6,0,B|164:40|164:40|72:58,1,120,2|8,3:1|0:0,0:0:0:0:
35,122,22678,2,0,P|46:177|118:183,1,120,2|0,0:1|3:2,0:0:0:0:
179,200,23167,2,0,L|171:263,1,60,8|0,0:0|0:2,0:0:0:0:
218,321,23493,6,0,B|264:314|264:314|289:328|289:328|335:321,1,120,2|8,3:1|0:0,0:0:0:0:
410,308,23982,1,2,3:1:0:0:
464,252,24145,2,0,P|470:218|465:187,2,60,0|0|8,0:0|3:2|0:0,0:0:0:0:
311,218,24797,6,0,P|300:162|340:111,1,120,2|8,3:1|0:0,0:0:0:0:
390,59,25286,2,0,L|265:68,1,120,2|0,0:1|3:2,0:0:0:0:
198,36,25775,2,0,P|159:31|125:52,1,60,8|0,0:0|0:2,0:0:0:0:
94,101,26101,6,0,P|46:108|8:85,2,90,2|2|2,3:2|0:0|0:0,0:0:0:0:
171,112,26754,2,0,L|177:176,1,60,0|0,3:2|3:2,0:0:0:0:
137,239,27080,1,8,0:0:0:0:
256,338,27406,5,2,3:1:0:0:
375,239,27732,1,8,0:0:0:0:
375,239,27895,2,0,P|332:192|334:137,1,120,2|0,0:1|3:2,0:0:0:0:
383,78,28384,2,0,L|449:82,1,60,8|0,0:0|0:2,0:0:0:0:
492,142,28710,6,0,B|481:181|481:181|496:213|496:213|480:260,1,120,2|0,3:1|0:0,0:0:0:0:
454,327,29199,1,2,3:1:0:0:
376,329,29362,2,0,P|339:335|317:355,1,60,0|0,0:0|3:2,0:0:0:0:
243,348,29688,2,0,P|218:331|188:328,1,60,8|0,0:0|0:2,0:0:0:0:
119,292,30014,6,0,P|167:294|230:254,1,120,2|8,3:1|0:0,0:0:0:0:
252,183,30504,2,0,L|235:63,1,120,2|0,0:1|3:2,0:0:0:0:
165,29,30993,2,0,P|131:26|96:39,1,60,8|0,0:0|0:2,0:0:0:0:
46,83,31319,5,2,3:2:0:0:
37,238,31645,1,8,1:0:0:0:
153,134,31971,6,0,L|149:208,1,60,0|0,3:0|3:0,0:0:0:0:
144,289,32297,1,8,0:0:0:0:
271,346,32623,6,0,P|328:346|379:263,1,161.999995056153,4|8,0:0|0:3,0:0:0:0:
348,104,33601,1,2,0:3:0:0:
454,82,33928,6,0,L|485:258,1,161.999995056153,0|8,2:0|0:3,0:0:0:0:
350,336,34906,1,2,0:3:0:0:
253,287,35232,6,0,P|193:282|135:311,1,107.999996704102,0|0,2:0|0:0,0:0:0:0:
74,299,35721,2,0,P|128:277|140:174,1,161.999995056153,8|2,0:3|0:3,0:0:0:0:
94,87,36536,6,0,L|212:66,1,107.999996704102,0|0,0:0|0:0,0:0:0:0:
270,95,37025,2,0,L|323:86,1,53.9999983520508,8|4,0:3|0:3,0:0:0:0:
429,68,37514,1,2,0:3:0:0:
449,174,37841,6,0,P|444:246|356:283,1,161.999995056153,2|8,0:0|0:0,0:0:0:0:
224,215,38819,1,2,0:0:0:0:
141,285,39145,6,0,P|71:251|63:174,1,161.999995056153,8|8,0:3|0:0,0:0:0:0:
202,92,40123,1,2,0:0:0:0:
310,92,40449,6,0,P|339:126|405:133,1,107.999996704102,8|8,0:1|0:3,0:0:0:0:
461,91,40938,2,0,L|421:259,1,161.999995056153,8|2,0:1|0:1,0:0:0:0:
346,325,41754,6,0,B|316:310|316:310|241:329,1,107.999996704102,8|4,0:1|0:1,0:0:0:0:
201,265,42243,2,0,P|199:319|96:313,1,161.999995056153,8|2,0:1|0:1,0:0:0:0:
46,187,43058,6,0,L|57:55,1,120,2|2,0:3|0:3,0:0:0:0:
205,24,43710,2,0,L|195:143,1,120,6|10,0:3|0:3,0:0:0:0:
333,214,44362,6,0,L|344:82,1,120,2|2,0:3|0:3,0:0:0:0:
492,51,45014,2,0,L|482:170,1,120,6|10,2:3|2:3,0:0:0:0:
465,326,45667,6,0,P|395:318|343:364,1,120,2|2,0:3|0:3,0:0:0:0:
216,274,46319,2,0,P|164:302|106:291,1,120,6|2,0:3|0:3,0:0:0:0:
179,153,46971,6,0,L|277:158,2,90,6|0|8,2:3|0:0|0:3,0:0:0:0:
101,147,47623,1,6,0:3:0:0:
214,39,47949,1,10,0:3:0:0:
368,59,48275,6,0,P|392:84|397:118,1,60,2|0,3:3|3:0,0:0:0:0:
442,171,48601,2,0,P|432:204|405:225,1,60,2|0,3:3|3:0,0:0:0:0:
382,291,48928,2,0,P|348:299|316:286,1,60,2|0,3:3|3:0,0:0:0:0:
248,299,49254,2,0,P|223:274|218:240,1,60,2|0,3:3|3:0,0:0:0:0:
239,174,49580,6,0,L|302:168,2,60,2|8|2,3:3|3:0|3:3,0:0:0:0:
164,149,50069,1,8,3:0:0:0:
89,126,50232,2,0,B|89:157|74:179|74:179|80:183|80:183|64:205|63:240,1,120,2|2,3:3|3:0,0:0:0:0:
99,307,50721,1,10,3:0:0:0:
99,307,50884,5,8,1:2:0:0:
349,329,51373,1,8,1:2:0:0:
245,101,51862,1,8,1:2:0:0:
230,251,52188,6,0,P|348:329|290:188,1,377.999988464356,4|8,0:3|0:3,0:0:0:0:
204,172,53493,6,0,P|166:123|183:48,1,143.999995605469,4|8,3:0|0:0,0:0:0:0:
266,21,53982,2,0,L|419:37,1,143.999995605469,2|0,0:2|3:2,0:0:0:0:
490,64,54471,2,0,B|472:98|472:98|441:120,1,71.9999978027344,8|2,0:0|0:2,0:0:0:0:
360,137,54797,6,0,P|340:204|380:261,1,143.999995605469,0|8,3:2|0:0,0:0:0:0:
439,324,55286,1,0,3:2:0:0:
355,346,55449,2,0,B|303:358|303:358|264:348|264:348|210:359,1,143.999995605469,2|10,1:2|0:0,0:0:0:0:
66,269,56101,6,0,P|127:241|137:167,1,143.999995605469,0|8,3:2|0:0,0:0:0:0:
83,103,56591,2,0,B|127:82|127:82|230:102,1,143.999995605469,2|0,0:2|3:2,0:0:0:0:
304,120,57080,1,8,0:0:0:0:
304,120,57243,1,2,0:2:0:0:
388,137,57406,6,0,P|377:205|315:235,1,143.999995605469,2|8,3:1|0:0,0:0:0:0:
142,237,58058,2,0,L|162:313,1,71.9999978027344,0|2,3:1|3:2,0:0:0:0:
238,343,58384,2,0,P|276:335|311:346,1,71.9999978027344,10|0,0:1|1:1,0:0:0:0:
393,343,58710,6,0,P|455:313|465:244,1,143.999995605469,4|8,3:2|0:0,0:0:0:0:
415,174,59199,1,2,0:2:0:0:
364,103,59362,2,0,P|374:34|436:4,1,143.999995605469,0|8,0:2|0:0,0:0:0:0:
448,88,59851,6,0,B|361:102|361:102|324:93|324:93|225:109,1,215.999993408203,2|8,0:2|0:0,0:0:0:0:
70,57,60667,2,0,L|83:135,1,71.9999978027344,0|2,0:0|3:2,0:0:0:0:
56,210,60993,1,8,0:0:0:0:
56,210,61156,1,2,0:2:0:0:
30,292,61319,6,0,P|87:337|159:309,1,143.999995605469,0|8,3:2|0:0,0:0:0:0:
218,265,61808,1,2,0:1:0:0:
291,309,61971,2,0,L|379:317,2,71.9999978027344,0|2|8,0:2|3:2|0:1,0:0:0:0:
218,265,62460,6,0,B|207:214|207:214|228:186|228:186|216:128,1,143.999995605469,2|2,0:1|0:1,0:0:0:0:
197,45,62949,1,8,0:1:0:0:
367,16,63275,2,0,L|362:93,1,71.9999978027344,2|2,3:1|3:1,0:0:0:0:
356,174,63601,1,10,0:1:0:0:
452,318,63928,6,0,P|391:302|331:350,1,143.999995605469,4|8,3:0|0:0,0:0:0:0:
245,341,64417,2,0,P|181:340|136:278,1,143.999995605469,2|2,0:2|3:2,0:0:0:0:
106,199,64906,2,0,B|71:187|71:187|33:196,1,71.9999978027344,10|2,0:0|0:2,0:0:0:0:
3,115,65232,6,0,B|77:95|77:95|142:119,1,143.999995605469,2|8,3:2|0:0,0:0:0:0:
194,185,65721,1,2,3:2:0:0:
278,168,65884,2,0,P|315:114|288:40,1,143.999995605469,0|8,0:0|0:0,0:0:0:0:
251,247,66536,6,0,P|279:298|368:303,1,143.999995605469,0|8,3:2|0:0,0:0:0:0:
435,268,67025,2,0,L|444:194,1,71.9999978027344,2|0,0:2|0:0,0:0:0:0:
394,125,67351,2,0,L|403:51,1,71.9999978027344,2|10,3:2|0:0,0:0:0:0:
320,25,67678,1,2,0:2:0:0:
250,75,67841,6,0,B|176:98|186:46|108:69,1,143.999995605469,2|8,3:1|0:0,0:0:0:0:
10,209,68493,2,0,P|41:234|81:237,1,71.9999978027344,2|2,3:2|3:2,0:0:0:0:
156,221,68819,2,0,P|191:227|218:250,1,71.9999978027344,10|2,0:1|0:1,0:0:0:0:
255,328,69145,6,0,B|296:345|296:345|398:326,1,143.999995605469,6|8,3:2|0:0,0:0:0:0:
471,289,69634,1,2,0:2:0:0:
485,203,69797,2,0,P|425:175|353:230,1,143.999995605469,0|8,0:2|0:0,0:0:0:0:
281,240,70286,6,0,P|329:194|278:65,1,215.999993408203,2|8,0:2|0:0,0:0:0:0:
114,38,71101,2,0,L|41:50,1,71.9999978027344,2|2,0:2|3:2,0:0:0:0:
8,129,71428,1,8,0:0:0:0:
8,129,71591,1,2,0:2:0:0:
70,188,71754,6,0,P|88:246|40:315,1,143.999995605469,0|10,3:2|0:0,0:0:0:0:
114,363,72243,2,0,B|166:349|166:349|200:363|200:363|259:346,1,143.999995605469,2|2,0:1|3:2,0:0:0:0:
314,289,72732,2,0,B|283:268|283:268|245:264,1,71.9999978027344,10|2,0:0|0:1,0:0:0:0:
183,208,73058,6,0,P|166:160|212:78,1,143.999995605469,2|10,3:1|0:1,0:0:0:0:
375,24,73710,1,0,0:1:0:0:
437,83,73873,2,0,L|426:163,1,71.9999978027344,2|8,3:1|0:0,0:0:0:0:
487,215,74199,6,0,B|478:287|478:287|408:269|408:269|372:330|372:330|310:286,1,287.999991210938,2|2,1:1|0:2,0:0:0:0:
229,265,75014,2,0,P|191:266|158:287,1,71.9999978027344,0|2,0:2|3:2,0:0:0:0:
96,339,75341,2,0,P|78:307|78:272,1,71.9999978027344,8|0,0:0|0:2,0:0:0:0:
105,190,75667,6,0,P|62:155|67:60,1,143.999995605469,0|8,3:2|0:0,0:0:0:0:
225,21,76319,1,0,0:2:0:0:
225,21,76482,2,0,L|330:32,1,71.9999978027344,2|8,3:2|0:0,0:0:0:0:
373,68,76808,6,0,B|363:123|406:166|461:157|461:157|442:263|442:263|363:213|363:213|329:273|329:273|276:235|276:235|242:269|242:269|198:251,1,575.999982421876,2|8,0:2|3:0,0:0:0:0:
54,196,78438,6,0,L|46:131,2,60,4|8|2,0:3|2:3|2:0,0:0:0:0:
133,194,78928,2,0,P|175:154|166:82,1,120,4|8,2:1|0:3,0:0:0:0:
256,192,79417,12,0,80884,0:0:0:0:
44,104,84797,6,0,B|97:91|97:91|143:119|143:119|201:104,1,161.999995056153,4|0,0:0|0:0,0:0:0:0:
275,82,85449,2,0,P|290:112|332:126,1,60,10|0,0:0|0:0,0:0:0:0:
393,120,85775,6,0,L|447:107,2,53.9999983520508,0|0|0,0:0|0:0|0:0,0:0:0:0:
356,192,86264,2,0,L|303:204,2,53.9999983520508,0|0|0,0:0|0:0|0:0,0:0:0:0:
433,217,86754,1,10,0:0:0:0:
429,297,86917,2,0,P|393:337|334:337,1,107.999996704102,0|0,0:0|2:0,0:0:0:0:
267,307,87406,6,0,B|250:266|250:266|185:367,1,161.999995056153,0|0,0:0|0:0,0:0:0:0:
102,364,88058,2,0,P|79:341|79:301,1,60,10|0,0:0|0:0,0:0:0:0:
118,246,88384,1,0,0:0:0:0:
37,105,88710,6,0,B|73:60|73:60|120:79|120:79|162:46|162:46|212:78,1,215.999993408203,0|0,0:0|0:0,0:0:0:0:
273,122,89525,1,0,0:0:0:0:
353,118,89688,2,0,P|378:100|387:73,1,53.9999983520508,0|0,0:0|0:0,0:0:0:0:
440,14,90014,6,0,L|460:159,1,120,2|8,3:1|0:0,0:0:0:0:
256,255,90830,1,0,3:2:0:0:
268,331,90993,1,8,0:0:0:0:
421,358,91319,6,0,P|458:327|450:254,1,120,2|8,3:1|0:0,0:0:0:0:
392,213,91808,2,0,P|348:175|352:117,1,120,2|0,3:1|3:2,0:0:0:0:
401,57,92297,1,8,0:0:0:0:
247,27,92623,6,0,L|121:43,1,120,2|8,3:1|0:0,0:0:0:0:
54,264,93438,1,0,3:2:0:0:
129,282,93601,1,8,0:0:0:0:
222,156,93928,6,0,L|111:172,2,90,2|0|0,3:2|1:0|1:0,0:0:0:0:
291,190,94580,2,0,L|356:182,1,60,0|0,3:2|3:2,0:0:0:0:
406,128,94906,1,8,0:0:0:0:
490,259,95232,6,0,P|482:317|420:340,1,120,2|8,3:1|0:0,0:0:0:0:
356,319,95721,2,0,P|308:286|255:308,1,120,2|0,0:1|0:0,0:0:0:0:
185,344,96210,2,0,L|118:356,1,60,8|0,0:0|0:2,0:0:0:0:
86,287,96536,6,0,P|132:253|129:195,1,120,2|8,3:1|0:0,0:0:0:0:
74,140,97025,1,2,3:1:0:0:
126,82,97188,2,0,L|186:75,2,60,0|0|8,0:0|3:2|0:0,0:0:0:0:
253,173,97841,6,0,B|284:193|284:193|366:180,1,120,2|8,3:1|0:0,0:0:0:0:
443,171,98330,2,0,P|396:204|399:262,1,120,2|0,0:1|3:2,0:0:0:0:
437,330,98819,1,8,0:0:0:0:
364,358,98982,1,8,0:3:0:0:
364,358,99308,6,0,L|321:77,1,269.999991760254,0|8,0:0|2:0,0:0:0:0:
181,26,100449,6,0,P|131:39|105:103,1,120,4|8,3:0|0:0,0:0:0:0:
147,162,100938,2,0,P|125:216|70:233,1,120,2|2,0:3|0:2,0:0:0:0:
17,291,101428,2,0,L|53:345,1,60,8|2,0:0|0:2,0:0:0:0:
127,327,101754,6,0,L|246:364,1,120,0|10,3:1|0:1,0:0:0:0:
317,345,102243,1,0,3:1:0:0:
338,270,102406,2,0,P|320:242|316:213,2,60,2|2|8,2:2|3:2|0:0,0:0:0:0:
472,348,103058,6,0,B|449:289|449:289|480:239|480:239|458:183,1,180,0|2,3:1|0:3,0:0:0:0:
402,39,103873,1,2,0:2:0:0:
324,29,104036,2,0,P|291:35|268:54,1,60,8|2,0:0|0:2,0:0:0:0:
216,107,104362,6,0,P|174:108|137:73,2,90,2|2|2,3:1|0:2|0:1,0:0:0:0:
291,128,105014,1,0,3:2:0:0:
256,198,105178,2,0,L|124:213,1,120,2|0,3:1|0:0,0:0:0:0:
65,242,105667,5,0,3:1:0:0:
182,344,105993,1,8,0:0:0:0:
182,344,106156,2,0,L|301:330,1,120,2|2,0:3|3:2,0:0:0:0:
373,359,106645,2,0,P|411:360|438:346,1,60,8|2,0:0|0:2,0:0:0:0:
479,290,106971,6,0,P|433:253|436:194,1,120,0|10,3:1|0:0,0:0:0:0:
471,127,107460,2,0,B|447:155|447:155|338:169,1,120,0|2,3:0|3:2,0:0:0:0:
292,135,107949,2,0,P|262:132|234:142,1,60,8|2,0:0|0:2,0:0:0:0:
189,206,108275,6,0,B|205:265|205:265|177:317|177:317|119:339,1,180,0|2,3:1|0:3,0:0:0:0:
32,209,109091,1,2,3:2:0:0:
42,131,109254,2,0,P|61:108|88:95,1,60,8|2,0:0|0:2,0:0:0:0:
165,100,109580,5,2,3:1:0:0:
296,183,109906,1,8,0:0:0:0:
272,76,110232,6,0,L|236:134,1,60,0|0,3:2|3:1,0:0:0:0:
189,207,110558,1,10,0:0:0:0:
270,321,110884,6,0,B|375:283|375:363|480:322,1,215.999993408203,4|0,0:0|0:0,0:0:0:0:
425,228,111862,2,0,P|416:203|421:173,1,53.9999983520508,2|0,0:3|0:0,0:0:0:0:
455,109,112188,6,0,B|350:150|350:70|245:108,1,215.999993408203,0|0,2:0|0:0,0:0:0:0:
159,173,113167,2,0,P|131:179|99:174,1,53.9999983520508,2|0,0:3|0:0,0:0:0:0:
39,139,113493,6,0,P|30:166|113:251,1,161.999995056153,0|8,2:0|0:3,0:0:0:0:
185,256,114145,2,0,L|170:365,1,107.999996704102,0|2,0:0|0:3,0:0:0:0:
279,325,114797,6,0,P|328:312|389:338,1,107.999996704102,0|0,0:0|0:0,0:0:0:0:
454,345,115286,1,8,0:3:0:0:
466,271,115449,2,0,P|466:218|496:174,1,107.999996704102,4|2,0:3|0:3,0:0:0:0:
466,70,116101,6,0,P|457:145|330:163,1,215.999993408203,2|0,0:0|0:0,0:0:0:0:
255,94,117080,2,0,L|191:98,1,53.9999983520508,2|8,0:0|0:3,0:0:0:0:
176,167,117406,6,0,P|75:166|46:70,1,215.999993408203,8|0,0:3|0:0,0:0:0:0:
163,58,118384,2,0,L|216:112,1,53.9999983520508,2|8,0:0|0:1,0:0:0:0:
253,150,118710,6,0,P|254:183|203:240,1,107.999996704102,8|8,0:1|0:3,0:0:0:0:
158,295,119199,1,8,0:1:0:0:
218,339,119362,2,0,L|332:328,1,107.999996704102,4|2,0:3|0:1,0:0:0:0:
427,362,120014,6,0,P|463:320|413:226,1,161.999995056153,8|8,0:1|0:1,0:0:0:0:
367,181,120667,2,0,L|481:170,1,107.999996704102,4|2,0:3|0:1,0:0:0:0:
377,48,121319,5,2,0:3:0:0:
221,61,121645,1,2,0:3:0:0:
221,61,121808,1,0,0:0:0:0:
65,74,122134,1,2,2:1:0:0:
65,74,122297,1,10,0:3:0:0:
12,220,122623,6,0,P|29:277|81:303,1,120,2|2,0:3|0:3,0:0:0:0:
157,292,123112,2,0,B|195:287|195:287|229:311|229:311|268:307,1,120,8|2,1:3|0:1,0:0:0:0:
345,293,123601,2,0,P|371:321|410:330,1,60,10|10,2:3|0:3,0:0:0:0:
468,315,123928,6,0,P|491:262|463:207,1,120,2|2,0:3|0:3,0:0:0:0:
390,187,124417,2,0,P|447:180|481:128,1,120,8|8,0:3|0:3,0:0:0:0:
457,57,124906,2,0,L|396:48,1,60,2|8,0:3|0:3,0:0:0:0:
329,85,125232,6,0,B|291:80|291:80|257:104|257:104|218:100,1,120,6|10,2:3|0:3,0:0:0:0:
74,35,125884,2,0,L|31:78,1,60,6|2,0:3|0:1,0:0:0:0:
82,138,126210,1,10,0:3:0:0:
29,284,126536,6,0,P|58:331|121:339,1,120,2|0,3:3|0:0,0:0:0:0:
191,311,127025,2,0,P|226:265|214:208,1,120,0|0,3:0|3:0,0:0:0:0:
165,147,127514,1,2,3:3:0:0:
284,46,127841,6,0,L|411:54,1,120,2|0,3:3|0:0,0:0:0:0:
465,101,128330,1,8,3:0:0:0:
411,157,128493,2,0,L|406:223,1,60,2|8,3:3|3:0,0:0:0:0:
446,284,128819,2,0,P|438:316|410:343,1,60,2|10,3:0|3:0,0:0:0:0:
343,348,129145,6,0,P|285:328|229:356,1,120,8|2,1:2|2:0,0:0:0:0:
155,350,129634,2,0,P|207:318|222:257,1,120,8|2,1:2|2:0,0:0:0:0:
203,189,130123,1,8,1:2:0:0:
256,24,130449,5,2,0:0:0:0:
309,189,130775,1,0,0:0:0:0:
171,88,131101,2,0,B|255:118|255:118|347:85,1,180,2|8,0:1|0:3,0:0:0:0:
436,56,131754,6,0,P|418:115|464:180,1,143.999995605469,4|8,3:0|0:0,0:0:0:0:
495,258,132243,2,0,P|473:318|404:352,1,143.999995605469,2|0,0:2|3:2,0:0:0:0:
327,313,132732,2,0,L|332:236,1,71.9999978027344,8|2,0:0|0:2,0:0:0:0:
252,206,133058,6,0,B|244:315|244:315|224:352,1,143.999995605469,0|8,3:2|0:0,0:0:0:0:
142,360,133547,1,0,3:2:0:0:
69,312,133710,2,0,P|43:272|75:185,1,143.999995605469,2|10,1:2|0:0,0:0:0:0:
206,78,134362,6,0,B|258:90|258:90|297:80|297:80|351:91,1,143.999995605469,0|8,3:2|0:0,0:0:0:0:
415,38,134851,2,0,P|427:74|380:164,1,143.999995605469,2|0,0:2|3:2,0:0:0:0:
300,182,135341,1,10,0:0:0:0:
300,182,135504,1,0,0:2:0:0:
216,204,135667,6,0,P|173:259|182:329,1,143.999995605469,2|8,3:1|0:0,0:0:0:0:
26,254,136319,1,0,3:2:0:0:
26,254,136482,1,0,3:2:0:0:
70,180,136645,2,0,L|60:104,1,71.9999978027344,10|0,0:1|0:2,0:0:0:0:
0,46,136971,6,0,P|37:27|130:54,1,143.999995605469,4|8,3:2|0:0,0:0:0:0:
186,119,137460,1,2,0:2:0:0:
216,204,137623,2,0,P|279:234|346:212,1,143.999995605469,0|10,0:0|0:0,0:0:0:0:
384,136,138112,6,0,B|368:208|368:208|424:248|424:248|404:320,1,215.999993408203,2|10,0:2|0:0,0:0:0:0:
236,356,138928,1,0,0:0:0:0:
236,356,139091,2,0,P|208:320|112:308,1,143.999995605469,2|2,3:2|0:2,0:0:0:0:
44,356,139580,6,0,B|24:311|24:311|48:209,1,143.999995605469,0|10,3:2|0:0,0:0:0:0:
108,159,140069,1,2,0:1:0:0:
161,90,140232,2,0,P|148:57|122:33,2,71.9999978027344,2|2|10,0:1|3:1|0:2,0:0:0:0:
233,139,140721,6,0,B|301:115|301:115|370:137,1,143.999995605469,2|2,0:2|2:2,0:0:0:0:
450,167,141210,1,8,0:0:0:0:
484,336,141536,2,0,L|415:315,1,71.9999978027344,2|2,1:1|3:1,0:0:0:0:
333,287,141862,1,10,1:2:0:0:
173,352,142188,6,0,P|123:365|38:327,1,143.999995605469,0|8,3:2|0:0,0:0:0:0:
11,248,142678,2,0,P|24:203|106:146,1,143.999995605469,2|2,0:2|3:2,0:0:0:0:
184,162,143167,2,0,B|215:182|215:182|243:216,1,71.9999978027344,8|2,0:0|0:2,0:0:0:0:
319,183,143493,6,0,B|287:145|287:145|279:41,1,143.999995605469,0|8,3:2|0:0,0:0:0:0:
365,65,143982,1,0,3:2:0:0:
397,146,144145,2,0,P|399:208|332:269,1,143.999995605469,0|8,0:0|0:0,0:0:0:0:
184,162,144797,6,0,B|165:232|165:232|193:305,1,143.999995605469,0|8,3:2|0:0,0:0:0:0:
261,347,145286,2,0,L|341:356,1,71.9999978027344,2|0,0:2|0:0,0:0:0:0:
415,329,145612,2,0,L|495:338,1,71.9999978027344,2|8,3:2|0:0,0:0:0:0:
463,253,145938,1,0,0:2:0:0:
428,174,146101,6,0,P|428:120|514:62,1,143.999995605469,2|10,3:1|0:0,0:0:0:0:
318,46,146754,2,0,P|284:37|249:43,1,71.9999978027344,2|2,3:2|3:2,0:0:0:0:
191,108,147080,2,0,P|155:113|121:104,1,71.9999978027344,10|2,0:1|0:2,0:0:0:0:
60,43,147406,6,0,B|71:98|71:98|50:126|50:126|61:177,1,143.999995605469,2|8,3:2|0:0,0:0:0:0:
18,252,147895,1,2,0:2:0:0:
64,324,148058,2,0,P|112:345|192:296,1,143.999995605469,2|8,0:2|0:0,0:0:0:0:
211,221,148547,6,0,P|223:296|343:350,1,215.999993408203,2|10,0:2|0:2,0:0:0:0:
468,233,149362,1,2,0:2:0:0:
468,233,149525,2,0,P|408:183|414:116,1,143.999995605469,2|2,3:2|0:2,0:0:0:0:
488,84,150014,6,0,B|438:73|438:73|399:83|399:83|347:71,1,143.999995605469,0|10,3:0|0:1,0:0:0:0:
280,16,150504,2,0,P|298:71|261:149,1,143.999995605469,2|2,0:2|3:1,0:0:0:0:
180,167,150993,2,0,L|105:158,1,71.9999978027344,10|2,0:2|0:1,0:0:0:0:
62,231,151319,6,0,L|217:249,1,143.999995605469,2|10,3:1|0:0,0:0:0:0:
371,199,151971,1,2,3:2:0:0:
349,282,152134,2,0,P|348:318|361:353,1,71.9999978027344,2|8,3:2|0:0,0:0:0:0:
430,300,152460,6,0,B|476:243|476:243|421:201|421:201|465:142|465:142|406:99,1,287.999991210938,2|2,0:2|0:0,0:0:0:0:
359,27,153275,2,0,P|329:51|295:59,1,71.9999978027344,0|2,0:2|3:2,0:0:0:0:
216,91,153601,2,0,P|181:81|153:59,1,71.9999978027344,8|2,0:0|0:0,0:0:0:0:
78,16,153928,6,0,P|99:65|68:148,1,143.999995605469,0|8,3:2|0:0,0:0:0:0:
37,316,154580,1,0,0:2:0:0:
37,316,154743,2,0,L|32:234,1,71.9999978027344,2|8,3:2|0:0,0:0:0:0:
118,233,155069,6,0,B|123:311|123:311|159:283|211:279|247:319|259:351|259:351|295:283|295:283|327:339|327:339|359:307|359:307|391:327|391:327|423:319|423:319|455:339|455:339|495:327,1,575.999982421876,2|2,0:2|0:2,0:0:0:0:
463,246,156536,5,2,3:1:0:0:
353,112,156862,2,0,P|423:116|478:72,2,143.999995605469,8|2|10,0:0|3:2|0:1,0:0:0:0:
277,69,157678,1,2,0:2:0:0:
196,38,157841,6,0,P|125:33|70:77,1,143.999995605469,0|8,0:0|0:0,0:0:0:0:
65,244,158493,2,0,B|117:256|117:256|156:246|156:246|210:257,1,143.999995605469,0|8,0:2|0:0,0:0:0:0:
269,314,158982,1,2,0:2:0:0:
346,352,159145,6,0,P|393:360|482:314,1,143.999995605469,0|8,3:2|0:0,0:0:0:0:
509,239,159634,2,0,P|500:194|430:128,1,143.999995605469,2|0,3:2|3:2,0:0:0:0:
345,114,160123,1,8,0:0:0:0:
208,234,160449,6,0,L|58:244,1,143.999995605469,0|8,3:2|0:1,0:0:0:0:
108,76,161101,1,0,0:1:0:0:
183,118,161264,2,0,P|211:122|254:113,1,71.9999978027344,2|10,3:1|0:2,0:0:0:0:
323,61,161591,6,0,B|395:77|395:77|435:21|435:21|509:36,1,215.999993408203,2|10,0:2|0:2,0:0:0:0:
499,208,162406,2,0,P|472:231|439:243,1,71.9999978027344,0|2,3:1|3:2,0:0:0:0:
354,226,162732,2,0,P|320:238|293:261,1,71.9999978027344,10|2,0:2|0:2,0:0:0:0:
239,330,163058,6,0,P|176:358|111:330,1,143.999995605469,0|8,3:2|0:0,0:0:0:0:
65,257,163547,2,0,B|76:206|76:206|55:178|55:178|66:123,1,143.999995605469,2|2,0:2|3:2,0:0:0:0:
82,37,164036,1,8,0:0:0:0:
219,141,164362,6,0,B|289:126|289:126|310:56,1,143.999995605469,0|8,3:2|0:0,0:0:0:0:
394,38,164851,2,0,L|354:181,1,143.999995605469,2|2,3:2|3:2,0:0:0:0:
413,240,165341,1,8,0:0:0:0:
294,365,165667,6,0,P|243:376|165:326,1,143.999995605469,0|8,3:2|0:0,0:0:0:0:
149,159,166319,2,0,P|92:116|22:124,1,143.999995605469,0|8,0:0|0:0,0:0:0:0:
71,201,166808,6,0,B|158:187|158:187|195:196|195:196|294:180,1,215.999993408203,2|10,0:0|0:1,0:0:0:0:
387,43,167623,2,0,P|380:79|392:120,1,71.9999978027344,2|2,3:2|3:2,0:0:0:0:
461,158,167949,2,0,P|469:192|462:227,1,71.9999978027344,10|2,0:1|0:1,0:0:0:0:
416,301,168275,5,0,3:2:0:0:
249,347,168601,2,0,P|215:284|151:264,2,143.999995605469,8|0|8,0:0|0:0|0:0,0:0:0:0:
163,351,169417,1,2,0:2:0:0:
76,347,169580,6,0,L|64:188,1,143.999995605469,0|8,3:2|0:0,0:0:0:0:
16,131,170069,2,0,P|73:163|154:144,1,143.999995605469,0|2,3:2|3:2,0:0:0:0:
205,84,170558,1,8,0:0:0:0:
356,4,170884,6,0,L|344:148,1,143.999995605469,0|10,3:2|0:0,0:0:0:0:
386,222,171373,1,2,0:2:0:0:
410,304,171536,2,0,B|336:327|346:275|268:298,1,143.999995605469,2|10,0:2|0:1,0:0:0:0:
198,345,172025,1,2,0:2:0:0:
198,345,172188,5,2,3:1:0:0:
50,253,172514,2,0,P|38:184|79:127,2,143.999995605469,10|2|10,0:0|3:2|0:1,0:0:0:0:
122,205,173330,1,2,0:1:0:0:
197,163,173493,6,0,B|219:131|219:131|213:17,1,143.999995605469,0|8,3:2|0:0,0:0:0:0:
295,53,173982,2,0,L|300:203,1,143.999995605469,2|2,0:2|3:2,0:0:0:0:
226,242,174471,1,8,0:0:0:0:
358,352,174797,6,0,P|411:366|485:317,1,143.999995605469,0|8,3:2|0:0,0:0:0:0:
496,235,175286,2,0,L|488:158,1,71.9999978027344,2|2,3:2|0:2,0:0:0:0:
416,115,175612,1,0,3:2:0:0:
416,115,175775,2,0,L|408:38,1,71.9999978027344,8|2,0:0|0:2,0:0:0:0:
330,81,176101,6,0,P|273:121|203:114,1,143.999995605469,4|10,3:2|0:2,0:0:0:0:
147,48,176591,2,0,P|76:41|24:97,1,143.999995605469,2|2,0:2|3:2,0:0:0:0:
105,124,177080,1,10,0:2:0:0:
228,244,177406,6,0,B|176:268|176:268|160:296|160:296|104:320,1,143.999995605469,2|8,3:1|1:0,0:0:0:0:
280,348,178058,1,2,3:2:0:0:
356,304,178221,1,2,3:2:0:0:
444,300,178384,1,10,1:2:0:0:
496,136,178710,6,0,L|372:156,1,107.999996704102,4|8,2:2|0:0,0:0:0:0:
322,118,179199,2,0,P|311:77|328:14,2,107.999996704102,8|4|4,0:0|0:0|0:0,0:0:0:0:
253,201,180178,5,8,0:0:0:0:
253,201,180341,1,8,0:0:0:0:
158,252,180667,2,0,L|40:239,1,107.999996704102,4|4,0:0|0:0,0:0:0:0:
113,152,181319,6,0,P|161:147|204:95,1,107.999996704102,4|8,0:0|0:0,0:0:0:0:
130,77,181808,2,0,L|12:64,2,107.999996704102,8|4|4,0:0|0:0|0:0,0:0:0:0:
226,28,182786,5,8,0:0:0:0:
226,28,182949,1,8,0:0:0:0:
304,101,183275,2,0,P|352:122|408:116,1,107.999996704102,4|4,0:0|0:0,0:0:0:0:
502,67,183928,5,6,2:2:0:0:
465,279,184580,2,0,P|435:271|412:257,1,53.9999983520508,8|8,0:2|0:2,0:0:0:0:
323,202,185069,6,0,P|328:264|267:344,1,161.999995056153,6|0,0:0|0:0,0:0:0:0:
163,348,185884,2,0,L|52:332,1,107.999996704102,8|8,0:2|0:2,0:0:0:0:
7,236,186536,6,0,B|56:243|56:243|103:220|103:220|167:228,1,161.999995056153,6|0,0:0|0:0,0:0:0:0:
240,247,187188,1,8,0:2:0:0:
240,247,187351,1,8,0:2:0:0:
327,182,187678,6,0,P|339:145|259:56,1,161.999995056153,6|0,0:0|0:0,0:0:0:0:
174,107,188493,1,2,0:0:0:0:
76,59,188819,1,2,0:0:0:0:
25,206,189145,6,0,L|36:326,1,120,0|0,0:0|0:0,0:0:0:0:
188,359,189797,2,0,L|177:239,1,120,0|0,0:0|0:0,0:0:0:0:
313,163,190449,6,0,L|324:283,1,120,0|0,0:0|0:0,0:0:0:0:
476,316,191101,2,0,L|465:196,1,120,0|0,0:0|0:0,0:0:0:0:
500,126,191591,1,0,0:0:0:0:
500,126,191754,6,0,B|444:141|444:141|374:114,1,120,0|0,0:0|0:0,0:0:0:0:
235,77,192406,2,0,B|179:92|179:92|109:65,1,120,0|0,0:0|0:0,0:0:0:0:
8,179,193058,6,0,L|30:305,1,120,0|0,0:0|0:0,0:0:0:0:
176,346,193710,2,0,L|195:227,1,120,0|0,0:0|0:0,0:0:0:0:
235,77,194362,6,0,P|269:94|289:121,1,60,0|0,0:0|0:0,0:0:0:0:
337,58,194688,2,0,P|357:90|361:124,1,60,0|0,0:0|0:0,0:0:0:0:
436,90,195014,2,0,P|437:128|423:160,1,60,0|0,0:0|0:0,0:0:0:0:
504,168,195341,2,0,P|485:202|458:222,1,60,0|0,0:0|0:0,0:0:0:0:
424,279,195667,6,0,L|359:273,1,60,0|0,0:0|0:0,0:0:0:0:
315,333,195993,2,0,L|250:327,1,60,0|0,0:0|0:0,0:0:0:0:
216,259,196319,2,0,L|156:253,1,60,0|0,0:0|0:0,0:0:0:0:
107,313,196645,2,0,L|47:307,1,60,0|0,0:0|0:0,0:0:0:0:
9,239,196971,5,2,0:0:0:0:
164,176,197297,1,0,0:0:0:0:
164,176,197460,1,2,0:0:0:0:
319,113,197786,1,0,0:0:0:0:
319,113,197949,1,2,0:0:0:0:
444,224,198275,6,0,B|476:292|434:358|356:374|304:328|304:328|264:336|264:336|232:324|232:324|196:332|196:332|180:300|148:288,1,420,2|0,2:0|0:0,0:0:0:0:
125,363,199580,5,6,1:2:0:0:
32,253,199906,2,0,P|9:203|126:99,1,240,0|0,0:0|0:0,0:0:0:0:
211,157,200721,6,0,P|255:178|344:146,1,143.999995605469,4|0,0:0|0:0,0:0:0:0:
377,69,201210,1,2,0:2:0:0:
377,69,201373,1,2,0:2:0:0:
456,102,201536,2,0,L|437:250,1,143.999995605469,0|2,0:0|0:2,0:0:0:0:
322,373,202188,6,0,P|290:345|189:361,1,143.999995605469,2|2,1:2|0:2,0:0:0:0:
151,280,202678,2,0,P|83:299|24:262,1,143.999995605469,2|2,0:2|0:2,0:0:0:0:
11,176,203167,1,0,0:0:0:0:
11,176,203330,1,0,0:0:0:0:
57,103,203493,6,0,L|198:147,1,143.999995605469,0|2,1:0|0:2,0:0:0:0:
352,77,204145,2,0,P|346:123|351:157,1,71.9999978027344,2|0,0:2|0:3,0:0:0:0:
400,217,204471,2,0,P|435:233|473:237,1,71.9999978027344,0|0,0:0|0:0,0:0:0:0:
490,320,204797,6,0,B|438:332|438:332|399:322|399:322|345:333,1,143.999995605469,0|2,0:0|0:2,0:0:0:0:
269,301,205286,1,0,0:0:0:0:
189,267,205449,2,0,P|142:253|63:304,1,143.999995605469,2|2,1:2|1:2,0:0:0:0:
142,338,205938,6,0,B|160:228|160:228|99:137,1,215.999993408203,2|2,0:0|0:2,0:0:0:0:
242,40,206754,2,0,P|264:82|291:101,1,71.9999978027344,0|2,0:0|0:2,0:0:0:0:
367,115,207080,1,0,0:0:0:0:
367,115,207243,1,0,0:0:0:0:
431,57,207406,6,0,B|420:112|420:112|441:140|441:140|430:191,1,143.999995605469,4|4,0:0|0:3,0:0:0:0:
470,267,207895,2,0,P|453:324|369:354,1,143.999995605469,8|2,0:2|0:2,0:0:0:0:
312,301,208384,1,0,0:2:0:0:
237,256,208547,6,0,P|171:279|146:344,1,143.999995605469,4|2,0:2|0:2,0:0:0:0:
233,341,209036,1,0,0:0:0:0:
117,212,209362,2,0,L|128:131,1,71.9999978027344,0|0,0:0|0:0,0:0:0:0:
138,55,209688,1,4,0:2:0:0:
35,193,210014,6,0,L|16:335,1,143.999995605469,2|2,0:0|0:0,0:0:0:0:
99,365,210504,2,0,P|154:334|239:343,1,143.999995605469,2|2,1:3|1:3,0:0:0:0:
316,358,210993,2,0,P|350:346|378:325,1,71.9999978027344,2|2,1:3|2:3,0:0:0:0:
344,248,211319,6,0,B|400:296|400:296|470:290,1,143.999995605469,0|2,0:0|0:2,0:0:0:0:
501,209,211808,1,0,0:0:0:0:
443,144,211971,2,0,B|387:96|387:96|316:101,1,143.999995605469,0|2,0:0|0:2,0:0:0:0:
222,285,212623,6,0,P|160:318|91:302,1,143.999995605469,2|2,0:0|0:0,0:0:0:0:
51,224,213112,2,0,L|64:138,1,71.9999978027344,2|0,2:3|0:0,0:0:0:0:
134,105,213438,2,0,L|147:19,1,71.9999978027344,2|2,1:3|1:3,0:0:0:0:
229,17,213764,1,2,2:3:0:0:
295,72,213928,6,0,B|370:94|360:42|434:65,1,143.999995605469,2|4,0:2|0:2,0:0:0:0:
494,227,214580,2,0,P|461:252|420:255,1,71.9999978027344,2|2,0:2|0:2,0:0:0:0:
346,239,214906,2,0,P|311:245|283:268,1,71.9999978027344,4|0,0:2|0:0,0:0:0:0:
234,339,215232,6,0,B|134:358|134:358|82:336,1,143.999995605469,2|2,0:2|0:2,0:0:0:0:
56,264,215721,1,2,0:2:0:0:
129,218,215884,2,0,P|144:175|93:90,1,143.999995605469,0|0,0:0|0:0,0:0:0:0:
19,63,216373,6,0,L|243:84,1,215.999993408203,2|2,0:0|0:2,0:0:0:0:
402,45,217188,2,0,P|409:80|405:115,1,71.9999978027344,2|2,0:2|0:2,0:0:0:0:
350,182,217514,2,0,P|346:217|353:252,1,71.9999978027344,0|0,0:2|0:0,0:0:0:0:
433,287,217841,6,0,P|407:323|301:318,1,143.999995605469,4|4,0:0|0:3,0:0:0:0:
240,282,218330,2,0,B|188:294|188:294|149:284|149:284|99:295,1,143.999995605469,8|2,0:2|0:2,0:0:0:0:
30,346,218819,1,2,0:0:0:0:
30,346,218982,1,0,0:0:0:0:
23,259,219145,6,0,P|23:211|92:150,1,143.999995605469,2|2,0:0|0:0,0:0:0:0:
233,246,219797,1,2,0:0:0:0:
299,190,219960,2,0,P|316:150|313:114,1,71.9999978027344,2|2,0:2|0:2,0:0:0:0:
269,48,220286,6,0,B|338:30|338:30|355:102|355:102|423:87|423:87|437:159,1,287.999991210938,0|0,0:0|0:0,0:0:0:0:
481,232,221101,2,0,P|472:276|456:306,1,71.9999978027344,2|0,0:2|0:0,0:0:0:0:
393,355,221428,2,0,P|352:366|307:357,1,71.9999978027344,0|0,0:0|0:0,0:0:0:0:
268,296,221754,6,0,B|259:258|259:258|282:140,1,143.999995605469,4|2,1:0|0:2,0:0:0:0:
331,86,222243,2,0,P|286:124|201:116,1,143.999995605469,0|2,0:0|0:2,0:0:0:0:
138,62,222732,2,0,P|99:45|68:50,1,71.9999978027344,2|2,0:2|0:0,0:0:0:0:
24,124,223058,6,0,B|16:176|16:176|24:216|24:216|17:267,2,143.999995605469,0|2|4,0:0|0:2|0:2,0:0:0:0:
96,170,223873,2,0,B|105:205|105:205|99:248,1,71.9999978027344,4|4,0:3|0:2,0:0:0:0:
82,325,224199,1,8,0:3:0:0:
391,356,225667,6,0,P|450:332|467:270,1,132.00000402832,4|2,1:3|0:2,0:0:0:0:
408,218,226156,2,0,L|273:239,1,132.00000402832,0|2,0:0|1:3,0:0:0:0:
202,262,226645,2,0,P|193:309|196:339,1,66.0000020141602,2|2,3:3|3:3,0:0:0:0:
120,359,226971,6,0,P|57:354|26:298,1,132.00000402832,0|4,1:3|0:2,0:0:0:0:
76,237,227460,2,0,P|107:181|78:125,1,132.00000402832,4|4,1:3|0:3,0:0:0:0:
12,82,227949,1,4,0:2:0:0:
166,46,228275,6,0,B|227:67|227:67|293:43,1,132.00000402832,2|2,1:2|0:2,0:0:0:0:
365,68,228764,1,2,0:2:0:0:
365,147,228928,2,0,B|316:189|316:189|304:258,1,132.00000402832,0|2,0:0|3:3,0:0:0:0:
344,324,229417,1,2,3:3:0:0:
422,316,229580,6,0,P|464:268|451:196,1,132.00000402832,0|4,0:0|0:2,0:0:0:0:
365,68,230232,2,0,L|297:79,1,66.0000020141602,2|2,0:2|0:2,0:0:0:0:
221,91,230558,1,4,0:2:0:0:
74,31,230884,6,0,P|101:89|82:151,1,132.00000402832,2|2,0:2|0:2,0:0:0:0:
29,210,231373,2,0,P|10:271|37:330,1,132.00000402832,2|2,0:2|1:2,0:0:0:0:
113,352,231862,2,0,L|179:345,1,66.0000020141602,2|2,1:2|1:2,0:0:0:0:
256,330,232188,6,0,B|303:339|303:339|338:330|338:330|384:341,1,132.00000402832,4|4,0:3|0:2,0:0:0:0:
422,271,232678,2,0,L|279:237,1,132.00000402832,4|2,0:3|0:2,0:0:0:0:
216,258,233167,1,4,0:2:0:0:
92,159,233493,6,0,B|157:156|157:156|191:92,1,132.00000402832,2|0,0:0|0:0,0:0:0:0:
230,29,233982,2,0,P|239:75|322:117,1,132.00000402832,2|0,0:2|0:0,0:0:0:0:
384,99,234471,2,0,L|446:71,1,66.0000020141602,2|2,0:2|0:2,0:0:0:0:
493,133,234797,6,0,B|402:172|402:172|374:217,1,132.00000402832,0|0,0:0|0:0,0:0:0:0:
303,336,235449,2,0,L|232:346,1,66.0000020141602,4|4,0:3|0:3,0:0:0:0:
163,318,235775,1,4,0:2:0:0:
105,157,236101,6,0,P|109:200|49:269,2,132.00000402832,6|0|0,0:0|0:0|0:0,0:0:0:0:
62,89,236917,1,2,1:2:0:0:
123,39,237080,2,0,L|189:54,1,66.0000020141602,2|2,1:2|1:2,0:0:0:0:
265,68,237406,6,0,B|334:70|313:27|387:29,1,132.00000402832,4|4,0:3|0:2,0:0:0:0:
457,65,237895,2,0,P|476:114|427:182,1,132.00000402832,4|4,0:3|0:3,0:0:0:0:
359,194,238384,1,4,0:2:0:0:
209,140,238710,6,0,L|217:274,1,132.00000402832,2|2,0:2|0:2,0:0:0:0:
261,337,239199,1,2,1:2:0:0:
334,366,239362,2,0,P|389:362|426:289,1,132.00000402832,0|2,0:0|1:3,0:0:0:0:
358,158,240014,6,0,P|387:101|450:92,1,132.00000402832,0|4,0:0|0:2,0:0:0:0:
301,38,240667,2,0,P|266:46|228:43,1,66.0000020141602,2|2,0:2|0:2,0:0:0:0:
163,76,240993,2,0,P|127:68|94:49,1,66.0000020141602,4|0,0:2|0:0,0:0:0:0:
32,13,241319,6,0,P|61:71|39:132,1,132.00000402832,2|2,0:2|0:2,0:0:0:0:
3,202,241808,2,0,P|10:259|66:304,1,132.00000402832,0|2,0:0|1:2,0:0:0:0:
143,292,242297,2,0,L|156:217,1,66.0000020141602,2|0,1:2|0:0,0:0:0:0:
233,232,242623,6,0,P|244:287|306:328,1,132.00000402832,0|2,0:0|0:1,0:0:0:0:
374,291,243112,2,0,L|393:153,2,132.00000402832,4|4|0,0:3|0:3|0:0,0:0:0:0:
452,280,243928,6,0,B|465:181|465:181|485:143,1,132.00000402832,2|0,0:0|0:0,0:0:0:0:
376,32,244580,2,0,L|337:91,1,66.0000020141602,0|4,0:0|0:3,0:0:0:0:
261,76,244906,2,0,L|222:135,1,66.0000020141602,2|2,0:2|0:2,0:0:0:0:
151,160,245232,6,0,B|140:113|140:113|160:87|160:87|150:37,1,132.00000402832,0|0,0:3|0:0,0:0:0:0:
57,165,245884,2,0,L|68:236,1,66.0000020141602,4|4,0:3|0:3,0:0:0:0:
80,308,246210,1,4,0:2:0:0:
225,369,246536,6,0,P|235:332|318:320,1,132.00000402832,0|0,0:2|0:0,0:0:0:0:
396,320,247025,2,0,P|458:325|488:270,1,132.00000402832,0|0,0:3|0:0,0:0:0:0:
415,239,247514,2,0,P|399:188|441:113,1,132.00000402832,0|0,0:0|0:0,0:0:0:0:
496,74,248004,6,0,L|347:79,1,132.00000402832,0|0,0:0|0:0,0:0:0:0:
311,19,248493,2,0,P|314:55|272:142,1,132.00000402832,0|0,0:0|0:0,0:0:0:0:
204,176,248982,6,0,P|161:178|84:137,1,132.00000402832,0|0,0:0|0:0,0:0:0:0:
23,86,249471,2,0,B|33:136|33:136|13:161|13:161|23:208,1,132.00000402832,0|0,0:0|0:0,0:0:0:0:
10,287,249960,2,0,P|76:290|117:340,1,132.00000402832,0|0,0:0|0:0,0:0:0:0:
186,300,250449,6,0,P|228:348|292:350,1,132.00000402832,0|0,0:0|0:0,0:0:0:0:
353,300,250938,2,0,L|343:163,1,132.00000402832,0|0,0:0|0:0,0:0:0:0:
387,102,251428,1,0,0:0:0:0:
466,99,251591,1,4,0:2:0:0:
